#TITLE:sola;
#SUBTITLE:;
#ARTIST:小野秀幸;
#TITLETRANSLIT:;
#SUBTITLETRANSLIT:;
#ARTISTTRANSLIT:Hideyuki Ono;
#GENRE:;
#CREDIT:;
#BANNER:sola.png;
#BACKGROUND:sola-bg.png;
#LYRICSPATH:;
#CDTITLE:;
#MUSIC:sola.ogg;
#OFFSET:0.000000;
#SAMPLESTART:33.778000;
#SAMPLELENGTH:15.000000;
#SELECTABLE:YES;
#BPMS:0.000000=135.000000
;
#STOPS:
;
#BGCHANGES:;
#KEYSOUNDS:;
#ATTACKS:;

//---------------dance-single - ----------------
#NOTES:
     dance-single:
     :
     Challenge:
     15:
     0.629892,0.809722,0.281248,0.471771,0.834672,486.000000,455.000000,31.000000,52.000000,17.000000,0.000000,0.629892,0.809722,0.281248,0.471771,0.834672,486.000000,455.000000,31.000000,52.000000,17.000000,0.000000:
// measure 0
0000
0000
0000
0000
,  // measure 1
0000
0000
0000
0000
,  // measure 2
0000
0000
0000
0000
,  // measure 3
0000
0000
0000
0000
0001
1000
0010
1000
0002
0000
0000
0023
0000
0000
0230
0000
,  // measure 4
2300
0000
0000
3020
0000
0000
0100
0000
0130
0000
0000
0000
0010
0000
0100
0000
,  // measure 5
0001
0000
0000
0000
0010
0100
1000
0100
0020
0000
0000
0032
0000
0000
2003
0000
,  // measure 6
3020
0000
0000
0200
0000
0000
0000
0000
0000
0000
0000
0000
0000
0000
0000
0000
,  // measure 7
0330
0000
0000
0000
1000
0001
0010
0001
2000
0000
0000
3020
0000
0000
0230
0000
,  // measure 8
0302
0000
0000
0023
0000
0000
0100
0000
0130
0000
0000
0000
0010
0000
0100
0000
,  // measure 9
1000
0000
0000
0000
0010
0100
0001
0100
0020
0000
0000
2030
0000
0000
3002
0000
,  // measure 10
0023
0000
0000
0200
0000
0000
0000
0000
0000
0000
0000
0000
0330
0000
0000
0000
,  // measure 11
0001
0010
0100
0000
0010
0100
1000
0000
0100
1000
0001
0000
1000
0001
0100
0000
,  // measure 12
0001
0100
0010
1000
0001
0010
0100
1000
0100
0010
0001
1000
0010
0100
0001
0000
,  // measure 13
1000
0000
0100
0000
0010
0001
0000
0100
0000
1000
0000
0100
0000
0001
1000
0000
,  // measure 14
1100
0000
0000
0110
0000
0000
0011
0000
0001
0100
0010
1000
0002
0000
0000
0000
,  // measure 15
1003
0010
0100
0000
0010
0100
0001
0000
0100
0001
1000
0000
0001
1000
0100
0000
,  // measure 16
1000
0100
0010
0001
1000
0010
0100
0001
0100
0010
1000
0001
0020
0000
0000
0000
,  // measure 17
0230
0000
0000
0000
0000
0000
0000
0000
2300
0000
0000
0000
0000
0000
3001
1000
,  // measure 18
0002
0000
0000
0003
,  // measure 19
0020
0000
0000
0000
0100
0000
0000
0000
0031
0100
0000
1000
0000
1000
0000
0200
,  // measure 20
0010
0000
0000
0000
0301
0000
0000
0000
1000
0100
0000
0001
0000
0001
0000
0200
,  // measure 21
0010
0000
0000
0000
1300
0000
0000
0000
0001
0100
0000
1000
0000
1000
0000
0100
,  // measure 22
0020
2030
3002
0023
,  // measure 23
0230
0000
0000
0000
0010
0000
0000
0000
1300
0010
0000
0001
0000
0001
0000
0020
,  // measure 24
0100
0000
0000
0000
1030
0000
0000
0000
0001
0010
0000
1000
0000
1000
0000
0020
,  // measure 25
0100
0000
0000
0000
0031
0000
0000
0000
1000
0010
0000
0001
0000
0001
M000
0000
,  // measure 26
0000
0000
0000
1000
0000
0000
0000
0000
0000
0000
0000
0000
0000
0000
0000
0000
0001
0000
0000
0000
0001
0000
0000
0000
1000
0000
0000
0001
0000
0000
1000
0000
0000
0010
0000
0000
0100
0000
0000
0001
0000
0000
1000
0000
0000
0100
0000
0000
,  // measure 27
0010
0000
0001
0000
0100
0001
0000
0000
0010
0000
0000
0100
0000
1000
0000
0010
,  // measure 28
0100
0000
0020
0000
0000
0230
0000
0000
0302
0000
0023
0000
0230
0000
2300
0000
,  // measure 29
3010
0000
1000
0000
0100
1000
0000
0000
0010
0000
0000
0100
0000
0001
0000
0010
,  // measure 30
0100
0010
0001
1000
0010
0100
0010
1000
0100
0010
0001
0100
0010
0100
0001
1000
,  // measure 31
0100
0010
0000
0001
0000
0100
0000
0010
0000
0000
0100
0010
0100
0001
1000
0001
,  // measure 32
0010
0000
0100
0010
0000
0001
0100
0000
0010
0000
0100
0001
1000
0000
0000
0000
,  // measure 33
0200
0000
0000
0000
1000
0000
0320
0000
0000
0000
0100
0000
0031
0000
1000
0010
,  // measure 34
0100
0000
0000
0000
0010
0000
0100
0000
0001
0010
0000
0100
0000
0010
0100
1000
,  // measure 35
0001
0100
0010
1000
0100
0010
0100
1000
0001
0100
0010
1000
0100
0010
0001
0100
,  // measure 36
0010
1000
0001
0010
0000
0000
0001
0000
0100
0010
1000
0001
0010
0100
1000
0100
,  // measure 37
0010
0001
1000
0000
0000
0000
0010
0000
1000
0010
0100
0001
0010
0100
0010
0001
,  // measure 38
0100
0000
0010
0000
0100
0001
0000
0010
0100
0000
0000
0000
0000
0010
0001
0000
,  // measure 39
1000
0000
0010
0000
0100
0000
0000
0000
0010
1000
0001
0000
0010
0000
0100
0000
,  // measure 40
0010
0001
1000
0010
0100
0000
0000
0000
0010
0000
1000
0000
0000
0000
0001
0000
,  // measure 41
0010
0100
0010
0001
0100
0010
1000
0200
,  // measure 42
0010
2300
0002
3003
,  // measure 43
0000
0000
0011
0000
0011
0000
0000
0000
0110
0000
0000
1100
0000
0000
1001
0000
,  // measure 44
MMMM
0000
1010
0000
1010
0000
0000
0000
0110
0000
0000
0101
0000
0000
1001
0000
,  // measure 45
MMMM
0000
0011
0000
0011
0000
0000
0000
0110
0000
0000
1100
0000
0000
1001
0000
,  // measure 46
0002
0203
0320
1030
,  // measure 47
0000
0000
0110
0000
0110
0000
0000
0000
1010
0000
0000
1001
0000
0000
1100
0000
,  // measure 48
MMMM
0000
0110
0000
0110
0000
0000
0000
0011
0000
0000
1001
0000
0000
0101
0000
,  // measure 49
MMMM
0000
0000
0000
0000
0000
0110
0000
0000
0000
0000
0000
0110
0000
0000
0000
0000
0000
0000
0000
0000
0000
0000
0000
0001
0000
0000
0010
0000
0000
0000
0000
0000
1000
0000
0000
0000
0000
0000
1000
0000
0000
0000
0000
0010
0000
0000
0000
,  // measure 50
0100
0000
0000
0000
0010
0000
0000
0000
0001
0000
0000
0000
0100
0000
0000
0000
0000
0000
0100
0000
0000
0001
0000
0000
0010
0000
0000
0000
0000
0000
0001
0000
0000
0000
0000
0000
0100
0000
0000
0010
0000
0000
1000
0000
0000
0001
0000
0000
,  // measure 51
0010
0100
0000
0000
0010
0000
0100
0000
1000
0000
0010
0100
0000
0010
1000
0000
,  // measure 52
0100
0010
0000
0001
0100
0001
0010
0100
1000
0010
0100
0001
1000
0010
0100
0001
,  // measure 53
1000
0100
0000
0001
0000
0001
0000
0100
0010
0001
1000
0000
0001
1000
0010
0000
,  // measure 54
1000
0010
0100
0000
0010
0100
0001
0000
0020
0000
0000
0000
0100
0000
0000
0000
,  // measure 55
0031
0100
0000
1000
0000
1000
0000
0200
0010
0000
0000
0000
0301
0000
0000
0000
,  // measure 56
1000
0100
0000
0001
0000
0001
0000
0200
0010
0000
0000
0000
1300
0100
0010
0000
,  // measure 57
0100
0010
0001
0000
0010
0001
1000
0000
0001
1000
0010
0100
0001
0010
0100
1000
,  // measure 58
0001
0000
0000
0100
0000
0000
0010
0000
0000
0000
0000
0000
0000
0000
0000
0000
,  // measure 59
0000
0000
0000
0100
0000
0000
0000
0000
0010
0000
0010
0000
0110
0000
0000
0000
0000
0000
0000
0000
0000
0000
0000
0000
;

//---------------dance-single - ----------------
#NOTES:
     dance-single:
     :
     Hard:
     11:
     0.414744,0.458843,0.045363,0.272175,0.344756,320.000000,315.000000,5.000000,30.000000,0.000000,0.000000,0.414744,0.458843,0.045363,0.272175,0.344756,320.000000,315.000000,5.000000,30.000000,0.000000,0.000000:
0000
0000
0000
0000
,
0000
0000
0000
0000
,
0000
0000
0000
0000
,
0000
0000
0000
0000
0001
0000
0001
0000
0100
0000
0000
0001
0000
0000
0010
0000
,
0100
0000
0000
1000
0000
0000
0010
0000
0100
0000
0000
0000
0010
0000
0100
0000
,
0001
0000
0000
0000
0010
0000
0010
0000
0100
0000
0000
0010
0000
0000
0001
0000
,
0200
0000
0000
0020
0000
0000
0000
0000
0000
0000
0000
0000
0000
0000
0000
0000
,
0330
0000
0000
0000
1000
0000
1000
0000
0100
0000
0000
1000
0000
0000
0010
0000
,
0100
0000
0000
0001
0000
0000
0010
0000
0100
0000
0000
0000
0010
0000
0100
0000
,
1000
0000
0000
0000
0010
0000
0010
0000
0100
0000
0000
0010
0000
0000
1000
0000
,
0200
0000
0000
0020
0000
0000
0000
0000
0000
0000
0000
0000
0330
0000
0000
0000
,
0001
0010
0100
1000
0010
0100
0001
1000
,
0100
0010
0001
1000
0010
0100
0001
0000
,
1000
0000
0010
0000
0100
0010
0000
0100
0000
0001
0000
0100
0000
0000
0100
0000
,
0010
0000
0000
0110
0000
0000
1001
0000
0000
0000
0000
0000
2000
0000
0000
0000
,
3001
0000
0010
0000
0100
0010
0000
0100
0000
1000
0000
0100
0000
0000
0100
0000
,
0010
0000
0000
0110
0000
0000
1001
0000
0000
0000
0000
0000
0001
0000
0000
0000
,
2000
0000
0000
0000
3020
0000
0000
0100
,
0200
0000
0000
0330
,
2000
0000
0000
0000
0010
0000
0000
0000
3001
0000
0000
0010
0000
0100
0000
0001
,
0000
0000
0000
0000
0100
0000
0000
0000
1000
0000
0000
0010
0000
0100
0000
1000
,
0000
0000
0000
0000
0100
0000
0000
0000
0001
0000
0000
0010
0000
0100
0000
0002
,
0000
0203
2300
3002
,
2003
0000
0000
0000
0010
0000
0000
0000
3001
0010
0000
0100
0000
0100
0000
2000
,
0000
0000
0000
0000
3001
0000
0000
0000
1000
0010
0000
0100
0000
0100
0000
0002
,
0000
0000
0000
0000
1003
0000
0000
0000
0001
0010
0000
0100
0000
0100
0000
0000
,
0000
1000
0000
0000
0001
1000
0001
0000
0000
0000
0000
0000
,
1000
0000
0010
0000
0000
0010
0000
0000
0100
0000
0000
0001
0000
0001
0000
0000
,
0000
0000
1000
0000
0000
0100
0000
0000
0010
0000
0001
0000
1000
0000
0000
0000
,
0001
0000
0010
0000
0000
0010
0000
0000
0100
0000
0000
1000
0000
1000
0000
0000
,
0001
1000
0010
0100
0001
1000
0100
0010
,
0001
0000
0000
0100
0000
0100
0000
0010
0000
0000
0100
0000
0001
0000
1000
0000
,
0100
0000
0000
0010
0000
0000
0001
0000
0001
0000
0000
1000
0000
0000
0000
0000
,
0002
0000
0010
2003
0000
0001
3020
0000
,
0230
0000
0310
0100
0001
1000
1000
0100
,
0010
0100
0001
0100
0010
0001
1000
0010
,
0100
0001
0000
0001
1000
0100
0010
0001
,
0100
0010
0000
0100
0001
1000
0100
0010
,
0100
1000
0001
0000
1000
0000
0000
0000
,
0001
0100
1000
0000
0100
0010
1000
0000
,
1000
0100
0010
0000
0001
1000
0000
0010
,
0100
0010
1000
0100
0010
0001
1000
0010
,
0001
0010
2000
0000
0002
0000
3003
0000
,
0000
0000
0001
0000
0001
0000
0000
0000
0001
0000
0000
0100
0000
0000
0010
0000
,
0000
0000
1000
0000
1000
0000
0000
0000
1000
0000
0000
0100
0000
0000
0010
0000
,
0000
0000
0001
0000
0001
0000
0000
0000
0001
0000
0000
0100
0000
0000
0010
0000
,
0200
0320
2030
3002
,
0023
0000
0000
0000
0030
0000
0000
0000
0100
0000
0000
1000
0000
0000
0010
0000
,
0000
0000
0100
0000
0100
0000
0000
0000
0100
0000
0000
0001
0000
0000
0010
0000
,
0000
0000
0100
0000
0100
0000
0000
0000
0010
0100
0000
1000
0000
0001
0000
0000
,
0000
0000
0000
0000
1000
0001
0010
0100
,
1000
0000
0010
0000
0100
0000
0100
0000
0001
0000
0000
0010
0000
0000
0010
0000
,
0001
0100
1000
0100
0001
0100
0010
1000
,
0100
0000
0000
0010
0000
0010
0000
0001
1000
0000
0010
0000
0100
0000
0010
0000
,
1000
0001
0010
0000
0200
0000
0010
0000
,
1300
0010
0000
0100
0000
0100
0000
0002
0000
0000
0000
0000
1003
0000
0000
0000
,
0001
0010
0000
0100
0000
0100
0000
2000
0000
0000
0000
0000
3010
0000
0100
0000
,
0001
1000
0100
0010
0001
0100
1000
0100
,
0001
0000
0000
0010
0000
0000
0100
0000
0000
0000
0000
0000
0000
0000
0000
0000
,
0000
0000
0000
0010
0000
0000
0000
0000
0100
0000
0010
0000
0110
0000
0000
0000
0000
0000
0000
0000
0000
0000
0000
0000
;
