#TITLE:rock the beatz;
#SUBTITLE:;
#ARTIST:ASLETICS;
#TITLETRANSLIT:;
#SUBTITLETRANSLIT:;
#ARTISTTRANSLIT:;
#GENRE:;
#CREDIT:;
#MUSIC:rock the beatz.ogg;
#BANNER:rock the beatz.png;
#BACKGROUND:rock the beatz-bg.png;
#CDTITLE:;
#SAMPLESTART:4.050;
#SAMPLELENGTH:10.169;
#SELECTABLE:YES;
#OFFSET:2.012;
#BPMS:0.000=118.000
,44.000=100.000
,112.000=122.000
;
#STOPS:;
#BGCHANGES:;
#FGCHANGES:;

//--------------- dance-single - OrangeRight ----------------
#NOTES:
     dance-single:
     OrangeRight:
     Beginner:
     3:
     0.122188,0.160619,0.026318,0.197381,0,65,63,2,15,0,0,0.122188,0.160619,0.026318,0.197381,0,65,63,2,15,0,0:
0000
0000
0000
0000
,
0000
0000
0000
0000
,
0000
0000
0000
0000
,
2000
3000
0000
0000
,
0002
0003
0000
0000
,
2000
3000
0000
0000
,
2002
3003
0000
0000
,
0002
0003
0000
0000
,
0200
0300
0000
0000
,
0020
0030
0000
0000
,
2000
3000
0000
0000
,
1000
0000
0000
0000
,
1000
0000
0001
0000
,
0100
0000
0001
1000
,
0001
0000
1000
0000
,
0100
0000
1000
0001
,
1000
0000
1000
0000
,
0010
0000
0010
0010
,
0100
0000
0100
0000
,
0001
0000
1000
0001
,
1000
0000
0000
2000
,
3001
0000
0000
0002
,
0013
0000
0000
0020
,
0031
0000
1000
0000
,
0001
0000
0000
0002
,
0013
0000
0000
0020
,
0130
0000
0000
0200
,
1300
0000
0001
0000
,
1000
0000
0100
0000
,
1000
0000
0001
1000
,
0001
0000
0100
0000
,
0001
0000
1000
0100
,
1000
0000
0010
0000
,
0100
0001
0100
0000
,
0001
0000
0000
0000
1000
0000
0000
1001
;

//--------------- dance-single - OrangeRight ----------------
#NOTES:
     dance-single:
     OrangeRight:
     Easy:
     6:
     0.240617,0.252401,0.039476,0.394763,0,128,125,3,30,0,0,0.240617,0.252401,0.039476,0.394763,0,128,125,3,30,0,0:
0000
0000
0000
0000
,
0000
0000
0000
0000
,
0000
0000
0000
0000
,
2000
0001
0001
3001
,
0002
0100
0100
0103
,
0200
0010
0010
0310
,
0220
0330
2002
3003
,
0002
0010
0010
0013
,
0020
0100
0100
0130
,
0200
1000
1000
1300
,
2002
0000
0000
3003
,
1000
0000
0001
0002
,
1003
1000
0100
0100
,
0010
0010
0001
2000
,
3001
0001
0100
0100
,
0020
0030
0200
0300
,
0002
0010
0010
1000
,
2003
0001
0001
3200
,
2300
0010
0010
0001
,
3002
0003
2000
3000
,
0001
0000
0010
0000
0001
0010
0002
0000
,
1003
0000
0010
0000
1000
0010
2000
0000
,
3001
0000
1000
0000
0001
1000
0002
0000
,
1003
0000
0001
1000
,
0001
0000
0100
0000
0001
0100
0002
0000
,
1003
0000
0100
0000
1000
0100
2000
0000
,
3001
0000
1000
0000
0100
0010
0200
0000
,
0320
0030
0200
0300
,
1000
0001
1000
0001
,
0010
1000
0010
0001
,
1000
0001
1000
0001
,
0100
1000
0100
0001
,
1000
0100
1000
0000
0001
0000
0100
0000
,
0010
1000
0100
0010
,
0001
0100
0001
0000
1000
1000
1000
1000
;

//--------------- dance-single - OrangeRight ----------------
#NOTES:
     dance-single:
     OrangeRight:
     Medium:
     9:
     0.391003,0.435966,0.144746,0.223699,0.059214,208,197,11,17,0,0,0.391003,0.435966,0.144746,0.223699,0.059214,208,197,11,17,0,0:
0000
0000
0000
0000
,
0000
0000
0000
0000
,
0000
0000
0000
0000
,
1000
0010
1000
0000
0001
0100
0001
0000
,
1000
0100
1000
0100
0010
0001
0010
0000
,
0001
0100
0001
0000
1000
0010
1000
0000
,
2002
0000
3003
0000
1000
0001
1000
0001
,
1000
0100
0010
0000
0001
0001
0001
0000
,
0100
0010
1000
0000
0100
0100
0100
0000
,
1000
0001
0100
0000
0010
0010
0010
0000
,
2000
3200
0320
0031
,
1000
1000
0000
0000
0001
0001
0000
0000
,
1000
1000
0010
0000
0100
0001
0101
0000
,
0001
0001
0010
0000
0100
1000
1100
0000
,
1000
1000
0001
0000
0001
1000
1001
0000
,
0001
0000
0100
0000
0010
0000
1000
0000
0000
0000
0000
0000
1000
0001
1000
0001
,
1000
0010
0100
0000
0001
0010
0100
0000
,
1000
0001
0100
0000
0001
1000
0200
0000
,
1300
0001
0010
0000
0001
0100
0010
0000
,
1000
0000
0100
0000
0010
0000
0001
0000
0000
0000
0000
0000
1000
0001
1000
0001
,
1000
0000
0010
0000
1000
0000
0010
0000
0100
0000
0001
0000
2002
0000
0000
3003
,
0001
0000
0010
0000
0001
0000
0010
0000
0100
0000
1000
0000
0001
2000
0000
0000
,
3001
0100
0001
1000
0100
1000
2002
0000
,
3003
0000
0000
0000
0000
0000
0000
0000
0000
0000
0000
0000
1000
0001
1000
0001
,
1000
0100
0010
0100
1000
0010
0220
0330
,
0100
0000
0001
0000
1000
0000
0001
0000
0010
0000
0100
0000
1000
0002
0000
0000
,
1003
0010
0001
0010
1000
0100
0220
0330
,
0010
0001
1000
0020
,
1030
0010
0000
0100
0000
0001
1000
0001
,
0000
0010
0000
0100
0000
1000
0001
1000
,
0010
0000
1000
0001
0010
0000
0001
1000
,
0010
0100
0010
0100
0001
0000
1000
0000
,
0001
0001
0100
0001
0000
0011
0000
1100
,
0000
1000
0100
1000
0001
1000
0010
0000
,
1000
1000
0100
1000
0001
1000
0001
1001
;

//--------------- dance-single - OrangeRight ----------------
#NOTES:
     dance-single:
     OrangeRight:
     Hard:
     13:
     0.577106,0.57364,0.263175,0.197381,0.434239,307,287,20,15,2,0,0.577106,0.57364,0.263175,0.197381,0.434239,307,287,20,15,2,0:
0000
0000
0000
0000
,
0000
0000
0000
0000
,
0000
0000
0000
0000
,
1100
0000
1000
0000
0001
0000
0100
0000
0001
1000
0001
0000
0010
0000
0000
0000
,
0011
0000
0001
0000
0100
0000
0010
0000
1000
0100
1000
0000
0001
0000
0000
0000
,
0101
0000
0001
0100
0001
0000
1000
0000
0100
0000
0001
0000
0100
0000
0000
0000
,
2200
0000
3300
0000
1000
0010
0100
0001
,
0011
0000
0001
0000
0100
0000
0010
1000
0001
0000
0010
0001
1000
0000
0000
0000
,
1100
0000
1000
0000
0010
0000
0100
0001
1000
0000
0100
1000
0001
0000
0000
0000
,
0001
0100
0001
0000
1000
0000
0010
0000
0001
0000
0010
0000
1000
0000
0000
0000
,
1000
0100
0000
1000
0100
0000
0010
0001
0000
0010
0001
0000
1001
0000
0000
0000
,
1000
1000
0000
0000
0001
0001
0200
0000
,
0301
0000
0011
0000
0010
0000
0100
0000
1000
0000
1010
0000
0010
0000
0100
0001
,
1000
0000
1100
0000
1000
0001
0010
0000
0001
0000
0101
0000
0200
0000
0000
0000
,
0301
0000
1001
0000
1000
0000
0010
0100
0010
0000
1000
0000
1001
0000
0000
0000
,
0000
0000
0001
0100
0001
0000
1000
0100
1000
0000
0001
0000
1000
0010
0100
0001
,
1000
0000
0010
1000
0001
0000
0010
0000
0001
0000
0100
0010
1000
0000
0100
1000
,
0001
0000
0100
0000
0101
0000
0010
0000
1000
0100
1000
0100
2000
0000
0000
0000
,
3001
0000
0010
0001
0010
0001
1000
0000
0100
0000
1000
0010
0100
0000
0001
1000
,
0001
0000
1000
0100
1000
0000
0001
0100
0001
0000
1000
0000
0001
0010
0100
1000
,
0001
0000
0100
0001
1000
0000
0010
0000
1000
0001
0100
0000
0002
0000
0000
0000
,
1003
0000
0100
1000
0001
0000
0010
0000
0001
1000
0100
0000
2000
0002
0000
3003
,
0001
0010
0001
0010
0100
0000
1000
0000
0010
1000
0010
0100
0002
0000
0000
0000
,
1003
0000
0001
0010
0000
0100
1000
0000
1001
0000
0000
0000
1000
0010
0100
0001
,
1000
0000
0100
1000
0001
0000
0100
0000
0010
1000
0001
0000
0020
0000
0000
0000
,
0031
0000
0010
0001
1000
0000
0010
0000
0100
0001
1000
0000
0002
0020
0000
0033
,
0001
1000
0001
1000
0010
0000
0100
0000
0001
0010
0100
1000
0002
0000
0000
0000
,
1003
0000
0000
1000
0010
0000
0100
0001
0000
0010
0100
0000
2002
0000
3003
0000
,
1000
0000
0010
0000
1000
0000
0100
0000
1000
0000
0010
0000
1000
0100
1000
0000
,
0001
0000
0100
0000
0001
0000
1000
0000
0001
0000
0010
0M00
0010
0000
0100
0000
,
0001
0000
0010
0000
0001
0000
0100
0000
0001
0000
0010
0000
0001
0100
0001
0000
,
1000
0010
1000
0000
0100
0000
1000
0000
0010
0000
0100
00M0
0100
0000
1000
0000
,
0010
0010
0100
0010
1000
0100
0001
0100
,
1000
0000
0010
0000
0100
0000
0001
1000
0000
1000
0001
0000
1000
0000
0100
0000
,
1000
1000
0001
1000
1001
1001
1001
1001
;

//--------------- dance-single - OrangeRight ----------------
#NOTES:
     dance-single:
     OrangeRight:
     Challenge:
     15:
     0.74253,0.711313,0.578985,0.42108,0.809264,395,351,44,32,6,0,0.74253,0.711313,0.578985,0.42108,0.809264,395,351,44,32,6,0:
0000
0000
0000
0000
,
0000
0000
0000
0000
,
0000
0000
0000
0000
0000
0000
0000
0000
1000
0001
1000
0001
1000
0001
1000
0001
,
0200
0000
0001
0000
0301
0000
0100
0001
1000
0100
1000
0000
0100
0000
1000
0001
,
0020
0000
0001
0000
0031
0000
0010
0001
1000
0010
1000
0000
0001
0000
1000
0001
,
2000
0000
0000
0000
0001
0000
0000
0000
3001
0000
0000
0000
1000
0000
0100
00M0
0100
0000
0001
0000
0010
0000
0000
0000
0100
0000
0000
0000
1000
0000
0000
0000
,
2002
0000
0000
0000
3003
0000
0000
0000
0001
1000
0001
1000
0001
1000
0001
1000
,
0200
0000
1000
0000
1300
0000
1000
0001
0100
0001
1000
0000
1100
0000
1000
0001
,
0020
0000
0001
0000
0031
0000
0001
1000
0010
1000
0001
0000
0011
0000
0001
1000
,
0002
0000
0000
0000
1000
0000
0000
0000
1003
0000
0000
0000
0001
0000
0010
0M00
0010
0000
1000
0000
0100
0000
0000
0000
1100
0000
0000
0000
0100
0000
0000
0000
,
1000
0010
0000
0010
0100
0000
0100
0001
0000
0001
1000
0000
1001
0000
0000
0000
,
1010
1010
0000
0000
0011
0011
0200
0000
,
1300
0000
0000
0000
0000
0000
1100
0000
0000
0000
1000
0000
0001
0000
0000
0000
0000
0000
0100
0000
0000
0000
0000
0000
0001
0000
0000
0000
0010
0000
0001
0000
0000
0000
0000
0000
0101
0000
0000
0000
0000
0000
0001
0000
0000
1000
0000
0000
,
0001
0000
0000
0000
0000
0000
0011
0000
0000
0000
0010
0000
0100
0000
0000
1000
0000
0000
0100
0000
0000
0000
0000
0000
1000
0000
0000
0000
0010
0000
1000
0000
0000
0000
0000
0000
0200
0000
0000
0000
0000
0000
0000
0000
0000
0000
0000
0000
,
1300
0000
0000
0000
0000
0000
1010
0000
0000
0000
1000
0000
0001
0000
0000
0000
0000
0000
1000
0000
0000
0100
0000
0000
1000
0000
0000
0000
0001
0000
0100
0000
0000
0000
0000
0000
0110
0000
0000
0000
0000
0000
0000
0000
0000
0000
0000
0000
,
0010
0000
0000
0000
0000
0000
1000
0000
0000
0001
0000
0000
0100
0000
0010
0000
0100
0000
0001
0000
0000
1000
0000
0000
0001
0000
0000
0000
0000
0000
0010
0000
0000
0000
0000
0000
0001
0000
0000
1000
0000
0000
0001
0000
0000
1000
0000
0000
,
0020
0000
0000
0000
0000
0000
1030
0000
0000
0000
0001
0000
0020
0000
0000
0000
0000
0000
0001
0000
0000
0000
0000
0000
0031
0000
0000
0000
1000
0000
0020
0000
0000
0000
0000
0000
0130
0000
0000
0000
0000
0000
0010
0000
0000
1000
0000
0000
,
0200
0000
0000
0000
0000
0000
1300
0000
0000
0000
0001
0000
0200
0000
0000
0000
0000
0000
0001
0000
0000
0000
0000
0000
0301
0000
0000
0010
0000
0000
0100
0000
0000
1000
0000
0000
0020
0000
0000
0000
0000
0000
0000
0000
0000
0000
0000
0000
,
0230
0000
0000
0301
0000
1000
0200
0000
0000
1000
0000
0000
1300
0000
0001
0200
0000
0000
0310
0000
0000
1000
0000
0000
,
0001
0000
0000
0000
0000
0000
1000
0000
0000
0100
0000
0000
1000
0000
0010
0000
1000
0000
0001
0000
0000
0010
0000
0000
0001
0000
0000
0000
0000
0000
1000
0000
0000
0001
0000
0000
0100
0000
0000
0010
0000
0000
0100
0000
0000
0010
0000
0000
,
1010
0000
1000
0100
0010
0100
1000
0001
0100
0010
1000
0001
2002
0000
0000
3003
,
0011
0000
0001
0100
0010
0100
0001
0010
0001
0100
0010
1000
0002
2000
0000
3003
,
1100
0000
0100
0010
0001
0100
0010
1000
0100
0010
0100
1000
2002
0000
0000
3003
,
1000
0000
0000
0000
0000
0000
0001
0000
0000
0010
0000
0000
0001
0000
0100
0000
0001
0000
1000
0000
0000
0100
0000
0000
1000
0000
0000
0000
0000
0000
0001
0000
0000
0000
0000
0000
1000
0000
0000
0001
0000
0000
1000
0000
0000
0001
0000
0000
,
0101
0000
0000
0000
0001
0000
0100
0000
0010
0000
0100
0000
1000
0000
0100
0000
0001
0000
0100
00M0
0100
0000
1000
0000
2002
0000
0000
0000
0000
0000
3003
0000
,
1010
0000
0000
0000
1000
0000
0010
0000
0100
0000
0010
0000
0001
0000
0010
0000
1000
0000
0010
0M00
0010
0000
0001
0000
2000
0000
0002
0000
0000
0000
3003
0000
,
1000
0010
0100
0010
1000
0100
0001
0100
0010
0100
1000
0010
0220
0000
0000
0330
,
0100
0000
0000
0100
0001
0000
0001
0010
0M00
0010
1000
0000
0002
0000
0000
0000
,
1003
0000
1010
0000
0001
0000
0101
0000
1000
0000
1010
0000
0001
0100
0001
0000
,
0001
0000
0011
0000
0100
0000
0110
0000
1000
0010
0100
0000
0001
0010
0100
1000
,
0001
0000
0011
0000
1000
0000
1100
0000
0001
0000
0011
0000
1000
0100
1000
0000
,
0010
0100
0010
0000
1000
0000
0100
0010
0001
0010
0100
0000
1000
0010
0100
0001
,
0100
0101
1100
0101
1000
1010
0001
0011
,
0001
0000
0100
0010
1000
0000
0001
0010
0M00
0010
1000
0000
0001
0000
1000
0000
,
1100
1100
0101
1100
1010
0011
0101
1001
;

//--------------- dance-double - OrangeRight ----------------
#NOTES:
     dance-double:
     OrangeRight:
     Easy:
     5:
     0.234978,0.252401,0.118429,0.460557,0,125,116,9,35,0,0,0.234978,0.252401,0.118429,0.460557,0,125,116,9,35,0,0:
00000000
00000000
00000000
00000000
,
00000000
00000000
00000000
00000000
,
00000000
00000000
00000000
00000000
,
10020000
00000000
00130000
00010000
,
02010000
00000000
03001000
00010000
,
00021000
00000000
00030100
00001000
,
00002002
00003003
00000220
00000330
,
00002001
00000000
00003010
00001000
,
00001200
00000000
00010300
00001000
,
00012000
00000000
01003000
00001000
,
00022000
00000000
00000000
00033000
,
00001000
00000000
00000000
00000000
00010000
00000000
00000200
00000300
,
00001000
00001000
00000010
00000010
,
00010000
00010000
00001000
00020000
,
00031000
00001000
00010000
00010000
,
00000200
00000300
00002000
00003000
,
00000020
00001000
00002030
00000100
,
00003200
00010000
00020300
00032000
,
00203000
00010000
00320000
01000000
,
02030000
03002000
00023000
00031000
,
00001000
00100000
00010000
02000000
,
03010000
00100000
00001000
00020000
,
00031000
00010000
00000010
00002000
,
00003100
00000010
00000200
00000300
,
00000100
00001000
00000010
00020000
,
00031000
01000000
00010000
00200000
,
00310000
01000000
00100000
20000000
,
30020000
00030000
20000000
30000000
,
00010000
00100000
00010000
00100000
,
00001000
00000000
00010000
00000000
00001000
00010000
00001000
00000000
,
00010000
00000010
00001000
00000100
,
00000010
00000000
00000001
00000000
00000100
00000001
00000100
00000000
,
00000001
00000001
00001000
00000100
,
00010000
00000000
00001000
00000000
00100000
00010000
00100000
00000000
,
00010000
00000000
00010000
00000000
10000000
10000000
10000000
10000000
;

//--------------- dance-double - OrangeRight ----------------
#NOTES:
     dance-double:
     OrangeRight:
     Medium:
     10:
     0.409801,0.435966,0.144746,0.263175,0.052635,218,207,11,20,0,0,0.409801,0.435966,0.144746,0.263175,0.052635,218,207,11,20,0,0:
00000000
00000000
00000000
00000000
,
00000000
00000000
00000000
00000000
,
00000000
00000000
00000000
00000000
,
00100000
00010000
00100000
00000000
00010000
01000000
00010000
00000000
,
00100000
00001000
00010000
00000000
00001000
00010000
00000010
00000000
,
00001000
00000010
00001000
00000000
00000100
00001000
00000100
00000000
,
00002200
00000000
00003300
00000000
00001000
00000001
00001000
00000001
,
00000100
00000010
00001000
00000000
00000100
00010000
00001000
00000000
,
00010000
00001000
01000000
00000000
00010000
00100000
01000000
00000000
,
10000000
00100000
01000000
00010000
00100000
00010000
10000000
00000000
,
20020000
00000000
00000000
30030000
,
10000000
10000000
00000000
00000000
00010000
00010000
02000000
00000000
,
03010000
00010000
00100000
00001000
00010000
00001000
00011000
00000000
,
00010000
00010000
00000010
00001000
00000100
00001000
00001200
00000000
,
00010300
00010000
00001000
00100000
00010000
01000000
01010000
00000000
,
00010000
00000000
00100000
00000000
01000000
00000000
10000000
00000000
00000000
00000000
00000000
00000000
00010000
10000000
00010000
10000000
,
00020000
00000000
00100000
00000000
00001000
00000000
00130000
00001000
,
00020000
00000000
01000000
00000000
00031000
00010000
00021000
00000000
,
00032000
00000000
00010000
00000000
00000010
00000000
00013000
00001000
,
00010000
00000000
00000100
00000000
00001000
00000000
00000010
00000000
00000000
00000000
00000000
00000000
00001000
00000001
00001000
00000001
,
00001000
00000100
00000010
00000001
00001000
00000010
00002010
00000000
,
00003100
00000000
00010000
00000000
00001000
00000000
00100000
00000000
00010000
00000000
01000000
00000000
00010000
20000000
00000000
00000000
,
30010000
00100000
00010000
10000000
00100000
10000000
20020000
00000000
,
30030000
00000000
00000000
00000000
00000000
00000000
00000000
00000000
00000000
00000000
00000000
00000000
00010000
10000000
00010000
10000000
,
00010000
01000000
00100000
10000000
00010000
00100000
00120000
00000000
,
01030000
00000000
00001000
00000000
00010000
00000000
00000010
00000000
00001000
00000000
00000100
00000000
00001000
00000002
00000000
00000000
,
00001003
00000010
00000100
00000001
00000010
00000100
00000220
00000330
,
00000100
00000000
00001000
00000010
00010000
00001000
00022000
00033000
,
00001000
00100000
00001000
00010000
00001000
00100000
00010000
10000000
,
00100000
10000000
00010000
10000000
01000000
00100000
00100000
01000000
,
10000000
00100000
01000000
00010000
00100000
00000000
00100000
00010000
,
01000000
00100000
10000000
01000000
00100000
00010000
01000000
00001000
,
00010000
00010000
00001000
00010000
00001000
00100000
00010000
00100000
,
00001000
00010000
00000100
00000000
00001000
00000010
00010000
00000000
,
00001000
00001000
00010000
00001000
00010000
00000100
00001000
00000010
;

//--------------- dance-double - OrangeRight ----------------
#NOTES:
     dance-double:
     OrangeRight:
     Hard:
     12:
     0.548908,0.550694,0.184223,0.31581,0.361866,292,278,14,24,0,0,0.548908,0.550694,0.184223,0.31581,0.361866,292,278,14,24,0,0:
00000000
00000000
00000000
00000000
,
00000000
00000000
00000000
00000000
,
00000000
00000000
00000000
00000000
,
00011000
00000000
00001000
00000000
00100000
00000000
00010000
00000000
01000000
00010000
01000000
00000000
00001000
00000000
00000000
00000000
,
00011000
00000000
00010000
00000000
00000100
00000000
00001000
00000000
00000010
00001000
00000010
00000000
00001000
00000000
00000000
00000000
,
00001100
00000100
00010000
00001000
00000100
00001000
00010000
00000000
,
00022000
00000000
00033000
00000000
00010000
00001000
00010000
00001000
,
00011000
00000000
00010000
00000000
00000010
00000000
00001000
00000010
00001000
00000000
00000100
00001000
00000100
00000000
00000000
00000000
,
00001100
00000000
00000100
00000000
00010000
00000000
00001000
00010000
00001000
00000000
00100000
00010000
00100000
00000000
00000000
00000000
,
00010000
01000000
00010000
00000000
00100000
00000000
00001000
00000000
00010000
00000000
01000000
00000000
00010000
00000000
00000000
00000000
,
00001000
00010000
00000000
00001000
00010000
00000000
00000100
00001000
00000000
00000100
00001000
00000000
00000010
00000000
00000000
00000000
,
00000100
00000100
00000000
00000000
00000010
00000010
00002000
00000000
,
00003100
00000000
00010000
00000000
00001000
00000000
00000100
00000000
00001000
00000000
00010000
00000000
00011000
00000000
00001000
00100000
,
00010000
00000000
01000000
00000000
00010000
00100000
00010000
00000000
01000000
00000000
00001000
00000000
00020000
00000000
00000000
00000000
,
00031000
00000000
00100000
00000000
00010000
00000000
01000000
00010000
01000000
00000000
00100000
00000000
01100000
00000000
00000000
00000000
,
00000000
00000000
00100000
10000000
00010000
00000000
00100000
00001000
00010000
00000000
00001000
00000000
00010000
00001000
00010000
00001000
,
00200000
00000000
00010000
00000000
00310000
00000000
01000000
00000000
00020000
00000000
01000000
00000000
01030000
00000000
00010000
00100000
,
00002000
00000000
00010000
00000000
00013000
00000000
00001000
00000000
00010000
00000100
00010000
00000100
00002000
00000000
00000000
00000000
,
00003020
00000000
00001000
00000000
00001030
00000000
00000010
00000000
00002000
00000000
00000100
00000000
00003100
00000000
00001000
00000010
,
00010000
00000000
00001000
00100000
00001000
00000000
00010000
00000100
00010000
00000000
00001000
00000000
00010000
00001000
00010000
00001000
,
00020000
00000000
00031000
01000000
00001000
00000000
00010000
00000000
00000100
00010000
00000100
00000000
00020000
00000000
00000000
00000000
,
00032000
00000000
00013000
00000010
00010000
00000000
00001000
00000000
00100000
00001000
00100000
00000000
00002000
00020000
00000000
00033000
,
00010000
00001000
00100000
00000000
00010000
00000000
01000000
00100000
10000000
00000000
01000000
00000000
00200000
00000000
00000000
00000000
,
00310000
00000000
00010000
01000000
00000000
01000000
00001000
00000000
00011000
00000000
00000000
00000000
00001000
00010000
00001000
00010000
,
00002000
00000000
00013000
00000010
00001000
00000000
00000100
00000000
00001000
00000100
00010000
00000000
00002000
00000000
00000000
00000000
,
00023000
00000000
00031000
01000000
00010000
00000000
00100000
00000000
00010000
00100000
00001000
00000000
00020000
00002000
00000000
00033000
,
00001000
00010000
00000100
00000000
00001000
00000000
00000010
00000100
00000010
00000000
00001000
00000000
00000200
00000000
00000000
00000000
,
00001300
00000000
00000000
00001000
00000100
00000000
00000100
00010000
00000000
00010000
00001000
00000000
00022000
00000000
00000000
00033000
,
00001000
00000000
00100000
00000000
00001000
00000000
01000000
00000000
00001000
00000000
00100000
00000000
00001000
00010000
00001000
00000000
,
00010000
00000000
00000010
00000000
00010000
00000000
00001000
00000000
00010000
00000100
00010000
00000000
00001000
00100000
00001000
00000000
,
00010000
00001000
00100000
00010000
01000000
10000000
01000000
00010000
,
00100000
00000000
00001000
00000000
00010000
00000000
01000000
00000000
00010000
00000000
00001000
00000000
00100000
00000000
00010000
01000000
,
00010000
00010000
00100000
00010000
01000000
00001000
00010000
01000000
,
00010000
00000000
00001000
00010000
00000100
00000000
00001000
00000000
00000010
00000000
00000001
00000000
00000010
00000000
00001000
00000000
,
00000001
00000001
00000010
00000001
00001001
00001001
00001001
00001001
;

//--------------- dance-double - OrangeRight ----------------
#NOTES:
     dance-double:
     OrangeRight:
     Challenge:
     15:
     0.701174,0.711313,0.539509,0.394763,0.703994,373,332,41,30,2,0,0.701174,0.711313,0.539509,0.394763,0.703994,373,332,41,30,2,0:
00000000
00000000
00000000
00000000
,
00000000
00000000
00000000
00000000
,
00000000
00000000
00000000
00000000
00000000
00000000
00000000
00000000
00010000
00001000
00010000
00001000
00010000
00001000
00010000
00001000
,
00200000
00000000
00010000
00000000
00310000
00000000
00100000
00001000
00010000
00000000
00000010
00000000
00001010
00000000
00000000
00000000
,
00000020
00000000
00001000
00000000
00001030
00000000
00000010
00001000
00000001
00000000
00000100
00000000
00000101
00000000
00000000
00000000
,
00000002
00000000
00001000
00000000
00001003
00000000
00000001
00000100
00000010
00001000
00000100
00000000
00010000
00000000
00001000
00000000
,
00022000
00000000
00000000
00000000
00033000
00000000
00000000
00000000
00001000
00010000
00001000
00010000
00001000
00010000
00001000
00010000
,
00000200
00000000
00001000
00000000
00001300
00000000
00000100
00010000
00001000
00000000
00010000
00001000
00100000
00000000
00010000
00000000
,
02000000
00000000
00010000
00000000
03010000
00000000
01000000
00010000
10000000
00000000
00010000
00000000
10010000
00000000
00000000
00000000
,
00020000
00000000
00100000
00000000
00130000
00000000
00010000
00100000
00001000
00010000
00001000
00000000
00011000
00000000
00010000
00000000
,
00000100
00010000
00000000
00010000
00001000
00000000
00001000
00100000
00000000
00100000
00010000
00000000
01010000
00000000
00000000
00000000
,
00010000
00010000
00000000
00000000
10000000
10000000
02000000
00000000
,
13000000
00000000
00000000
00000000
00000000
00000000
00100000
00000000
00000000
00000000
10000000
00000000
00010000
00000000
00000000
00000000
00000000
00000000
00100000
00000000
00000000
00000000
00000000
00000000
00010000
00000000
00000000
00000000
01000000
00000000
00010000
00000000
00000000
00000000
00000000
00000000
01010000
00000000
00000000
00000000
00000000
00000000
01000000
00000000
00000000
00001000
00000000
00000000
,
00010000
00000000
00000000
00000000
00000000
00000000
00001000
00000000
00000000
00000000
00010000
00000000
00000010
00000000
00000000
00001000
00000000
00000000
00000010
00000000
00000000
00000000
00000000
00000000
00001000
00000000
00000000
00000000
00000100
00000000
00000010
00000000
00000000
00000000
00000000
00000000
00000012
00000000
00000000
00000000
00000000
00000000
00000000
00000000
00000000
00000000
00000000
00000000
,
00001003
00000000
00000000
00000000
00000000
00000000
00000001
00000000
00000000
00000000
00001000
00000000
00000010
00000000
00000000
00000000
00000000
00000000
00001000
00000000
00000000
00000100
00000000
00000000
00010000
00000000
00000000
00000000
00001000
00000000
00010000
00000000
00000000
00000000
00000000
00000000
00011000
00000000
00000000
00000000
00000000
00000000
00000000
00000000
00000000
00000000
00000000
00000000
,
00010000
00000000
00000010
00010000
00001000
00000100
00001000
00010000
00000010
00000000
00000010
00000000
00001000
00000100
00001000
00000100
,
00000020
00000000
00000000
00000000
00000000
00000000
00000031
00000000
00000000
00000000
00001000
00000000
00000020
00000000
00000000
00000000
00000000
00000000
00001000
00000000
00000000
00000000
00000000
00000000
00001030
00000000
00000000
00000000
00000001
00000000
00000020
00000000
00000000
00000000
00000000
00000000
00000130
00000000
00000000
00000000
00000000
00000000
00001000
00000000
00000000
00000010
00000000
00000000
,
00020000
00000000
00000000
00000000
00000000
00000000
00031000
00000000
00000000
00000000
01000000
00000000
00020000
00000000
00000000
00000000
00000000
00000000
01000000
00000000
00000000
00000000
00000000
00000000
01030000
00000000
00000000
00001000
00000000
00000000
00010000
00000000
00000000
00001000
00000000
00000000
00200000
00000000
00000000
00000000
00000000
00000000
00000000
00000000
00000000
00000000
00000000
00000000
,
00302000
00000000
00000000
00000000
00000000
00000000
00013000
00000000
00000000
00000000
00000100
00000000
00002000
00000000
00000000
00000000
00000000
00000000
00000100
00000000
00000000
00000000
00000000
00000000
00003100
00000000
00000000
00000000
00010000
00000000
00001000
00000000
00000000
00000000
00000000
00000000
00011000
00000000
00000000
00000000
00000000
00000000
00001000
00000000
00000000
00010000
00000000
00000000
,
00001000
00000000
01000000
00001000
00010000
00100000
00010000
00001000
01000000
00000000
00001000
00000000
00010000
00001000
00010000
00001000
,
00011000
00000000
00001000
00100000
00010000
00100000
00001000
00010000
00000010
00001000
00000010
00010000
00002000
00000000
00000000
00003000
,
00011000
00000000
00010000
00000100
00001000
00000100
00010000
00001000
01000000
00010000
00100000
01000000
20000000
00020000
00000000
30030000
,
10100000
00000000
00100000
10000000
01000000
00100000
01000000
10000000
00010000
01000000
00001000
00100000
00020000
00000000
00000000
00000000
,
01030000
00000000
00010000
01000000
00000000
01000000
00001000
00000000
00011000
00000000
00000000
00000000
00001000
00010000
00001000
00010000
,
00011000
00000000
00000000
00000000
00010000
00000000
00000010
00000000
00001000
00000000
00000010
00000000
00010000
00000000
00001000
00000000
00100000
00000000
00010000
0M000000
00010000
00000000
00001000
00000000
00202000
00000000
00000000
00000000
00000000
00000000
00303000
00000000
,
00011000
00000000
00000000
00000000
00001000
00000000
01000000
00000000
00010000
00000000
01000000
00000000
00001000
00000000
00010000
00000000
00000100
00000000
00001000
00M00000
00001000
00000000
00010000
00000000
00000020
00000000
00002000
00000000
00000000
00000000
00003030
00000000
,
00001000
00000100
00000010
00000001
00000100
00001000
00000100
00000010
00000100
00000001
00001000
00000001
00002002
00000000
00000000
00003003
,
00001000
00000000
00000000
00001000
00000100
00000000
00000100
00010000
00000000
00010000
00001000
00000000
00022000
00000000
00000000
00033000
,
00001000
00000000
00101000
00000000
00100000
00000000
00110000
00000000
00010000
00000000
01010000
00000000
00010000
01000000
00001000
00000000
,
00010000
00000000
00010100
00000000
00000100
00000000
00001100
00000000
00001000
00000010
00000100
00000000
00000001
00000010
00000100
00000000
,
00001000
00000000
00001100
00000000
00000100
00000000
00010100
00000000
00010000
00000000
00011000
00000000
00001000
00100000
00010000
00000000
,
01000000
00010000
10000000
00000000
01000000
00000000
10000000
00010000
00100000
00010000
10000000
00000000
00100000
00000000
01000000
00000000
,
01010000
01010000
00110000
01010000
01000000
01001000
00001000
00011000
,
00010000
00000000
00001000
00100000
00001000
00000000
00010000
00000100
00000000
00000100
00001000
00000000
00000010
00000000
00001000
00000000
,
00001100
00001100
00000110
00001100
00010100
01001000
00010100
00011000
;
