#TITLE:peace-out;
#SUBTITLE:;
#ARTIST:dj nagureo;
#TITLETRANSLIT:;
#SUBTITLETRANSLIT:;
#ARTISTTRANSLIT:;
#GENRE:;
#CREDIT:;
#MUSIC:peace-out.ogg;
#BANNER:peace-out-bn.png;
#BACKGROUND:peace-out-bg.png;
#CDTITLE:;
#SAMPLESTART:42.809;
#SAMPLELENGTH:9.463;
#SELECTABLE:YES;
#OFFSET:0.000;
#BPMS:0.000=133.150;
#STOPS:;
#BGCHANGES:;
#FGCHANGES:;

//--------------- dance-single - EmeraldX ----------------
#NOTES:
     dance-single:
     EmeraldX:
     Beginner:
     1:
     0,0,0,0,0:
0000
0000
0000
0000
,
0000
0000
0000
0000
,
0000
0000
0000
0000
,
0000
0000
0000
0000
,
0000
0010
0000
0000
,
0000
0010
0000
0000
,
0000
0100
0000
0000
,
0000
0100
0000
0000
,
0000
0010
0000
0000
,
0000
0010
0000
0000
,
0000
0100
0000
0000
,
0000
0100
0000
0000
,
0000
0001
0000
0000
,
0000
0000
0000
0000
,
0000
0001
0000
0000
,
0000
0000
0000
0000
,
0000
1000
0000
0000
,
0000
0000
0000
0000
,
0000
1000
0000
0000
,
0000
0000
0000
0000
,
0000
0010
0000
0000
,
0000
0100
0000
0000
,
0000
0010
0000
0000
,
0000
0000
0000
0000
,
0000
1000
0000
0000
,
0000
1000
0000
0000
,
0000
0001
0000
0000
,
0000
0001
0000
0000
,
0000
1000
0000
0000
,
0000
1000
0000
0000
,
0000
0001
0000
0000
,
0000
0001
0000
0000
,
0000
0000
0100
0000
,
0000
0000
0100
0000
,
0000
0000
0010
0000
,
0000
0000
0010
0000
,
0000
0000
1000
0000
,
0000
0000
0001
0000
,
0000
0000
1000
0000
,
0000
0000
0000
0000
,
0000
0010
0000
0000
;

//--------------- dance-single - EmeraldX ----------------
#NOTES:
     dance-single:
     EmeraldX:
     Easy:
     2:
     0,0,0,0,0:
0000
0000
0000
0000
,
0000
0000
0000
0000
,
0000
0000
0000
0000
,
0000
0000
0000
0000
,
0000
0010
0010
0000
,
0000
0100
0100
0000
,
0000
0001
1000
0000
,
0000
0001
1000
0000
,
0000
0100
0100
0000
,
0000
0010
0010
0000
,
0000
0100
0010
0000
,
0000
0100
0010
0000
,
0000
0002
0000
0000
,
0000
0003
0000
1000
,
0000
2000
0000
0000
,
0000
3000
0000
0010
,
0000
0020
0000
0030
,
0000
0100
0000
0100
,
0000
0200
0000
0300
,
0000
0001
0000
1000
,
0000
0001
0000
1000
,
1000
0000
0000
0001
,
0001
0000
0000
1000
,
1000
0000
0000
0000
,
0000
0010
0010
0000
,
0000
1000
0100
0000
,
0000
0010
0010
0000
,
0000
0001
0100
0000
,
0000
0010
1000
0000
,
0000
0001
0010
0000
,
0000
0100
1000
0000
,
0000
0001
0100
0000
,
0000
0000
0010
0010
,
0010
0000
1000
1000
,
1000
0000
0001
0001
,
0001
0000
0100
0100
,
0100
0000
0001
1000
,
0001
0000
0010
0100
,
0010
0000
0001
0100
,
0010
1000
0000
0001
,
0000
0010
0000
0000
;

//--------------- dance-single - EmeraldX ----------------
#NOTES:
     dance-single:
     EmeraldX:
     Medium:
     6:
     0,0,0,0,0:
0000
0000
0000
0000
,
0000
0000
0000
0000
,
0000
0000
0000
0000
,
0000
0000
0000
0000
,
0000
0010
1100
0001
,
0101
1000
0010
0100
,
0001
0010
0011
1000
,
1100
0001
0100
0010
,
1000
0001
1001
1000
,
1001
0001
0100
1000
,
0100
0010
0110
0100
,
0110
0010
1000
0100
,
0010
0000
0002
0000
0000
0000
1000
1000
,
1003
0001
0100
0001
,
1000
0020
1000
0130
,
0001
2000
0100
3001
,
1000
0000
0020
0000
0000
0000
0100
0100
,
0130
0001
1000
0100
,
1000
0020
1000
0130
,
1000
0002
0010
1003
,
0001
0000
1000
0000
0000
0001
0000
0100
,
0001
0000
1000
0000
0000
0010
0000
1000
,
0010
0000
0100
0000
0000
0001
0000
1000
,
0001
0000
0000
0020
,
0130
1000
1100
0010
,
0110
0001
1000
0100
,
1000
0001
0101
0010
,
0110
1000
0010
0100
,
0001
0000
1000
0000
1100
0000
0001
0100
,
0001
0000
0010
0000
0110
0000
0001
1000
,
0001
0000
0100
0000
0101
0000
1000
0010
,
1000
0000
0001
0000
0101
0000
1000
0100
,
1000
0000
0000
0001
0000
0100
0000
0001
,
0000
1000
0000
0100
0000
1000
0000
0001
,
1000
0001
0000
0010
0000
0001
0000
1000
,
0000
0010
0000
1000
0000
0001
0000
0100
,
0010
0100
0000
0001
0000
1000
0000
0100
,
0000
0010
0000
0001
0000
1000
0000
0010
,
0100
0010
0000
1000
0000
0001
0000
0010
,
0000
0100
0000
1000
0000
0001
1000
0000
,
0001
1001
0000
0000
;

//--------------- dance-single - EmeraldX ----------------
#NOTES:
     dance-single:
     EmeraldX:
     Hard:
     10:
     0,0,0,0,0:
0000
0000
0000
0000
,
0000
0000
0000
0000
,
0000
0000
0000
0000
,
0000
0000
0000
0000
,
0000
0000
0000
0000
0000
0000
0010
0000
0000
1000
0000
0000
0100
0000
0000
0000
0000
0000
0010
0000
0000
0000
0000
0001
,
1000
0000
0000
0000
0000
0000
0001
0000
0000
0100
0000
0000
0010
0000
0000
0000
0000
0000
1000
0000
0000
0000
0000
0100
,
0010
0000
0000
0000
0000
0000
0001
0000
0000
1000
0000
0000
0100
0000
0000
0000
0000
0000
1000
0000
0000
0000
0000
0010
,
0100
0000
0000
0000
0000
0000
0001
0000
0000
0010
0000
0000
0100
0000
0000
0000
0000
0000
1000
0000
0000
0000
0000
0001
,
0100
0100
0010
1000
1100
0000
0001
0100
,
0101
0001
0010
0100
0110
0000
1000
0001
,
0011
0001
0100
0010
1010
0000
1000
0100
,
0110
0100
1000
0001
1001
0000
0010
0100
,
0101
0001
2000
0000
3100
0010
0100
1000
,
0001
0000
1000
0000
0010
0000
0000
0010
0100
0000
0010
0000
1000
0001
0000
1000
,
0001
0000
0100
0000
0000
0000
0001
0000
0010
0001
0000
0000
1000
0100
0000
1000
,
0100
0000
0010
0000
0000
0000
0001
0000
0100
0001
0000
0000
1000
0010
0000
1000
,
0010
0100
0002
0000
0103
0010
0100
0001
,
1000
0000
0001
0000
0010
0000
0000
0010
0100
0000
0010
0000
0001
1000
0000
0001
,
1000
0000
0100
0000
0000
0000
1000
0000
0010
0100
0000
0000
0001
0010
0000
0001
,
0100
0000
0010
0000
0000
0000
1000
0000
0100
0010
0000
0000
0001
1000
0000
0001
,
0100
0010
2000
0000
3000
0001
0010
0001
,
0100
0001
0000
0000
1000
0000
0000
0000
0000
0000
0010
0000
0100
0000
0010
0000
,
1000
0001
0000
0000
0100
0000
0000
0000
0000
0000
0001
0000
1000
0000
0001
0000
,
0100
0010
0000
0000
0000
0000
0000
0000
0000
0000
0000
0000
0010
0000
0000
0000
,
1001
0000
0000
0000
0000
0000
0010
0000
0000
0001
0000
0000
0100
0000
0000
0000
0000
0000
0010
0000
0000
0000
0000
1000
,
0001
0000
0000
0000
0000
0000
1000
0000
0000
0100
0000
0000
0010
0000
0000
0000
0000
0000
0001
0000
0000
0000
0000
0100
,
0010
0000
0000
0000
0000
0000
1000
0000
0000
0001
0000
0000
0100
0000
0000
0000
0000
0000
0001
0000
0000
0000
0000
0010
,
0100
0000
0000
0000
0000
0000
1000
0000
0000
0010
0000
0000
0100
0000
0000
0000
0000
0000
0001
0000
0000
0000
0000
1000
,
0100
0000
0000
0100
0000
0000
0010
0000
0000
0001
0000
0000
0101
0000
0000
0100
0000
0000
0010
0000
0000
0000
0000
1000
,
0001
0000
0000
1000
0000
0000
0010
0000
0000
0100
0000
0000
0110
0000
0000
0010
0000
0000
1000
0000
0000
0000
0000
0001
,
0010
0000
0000
0001
0000
0000
0100
0000
0000
0010
0000
0000
1010
0000
0000
1000
0000
0000
0001
0000
0000
0000
0000
1000
,
0100
0000
0000
0010
0000
0000
0001
0000
0000
1000
0000
0000
1001
0000
0000
0001
0000
0000
0010
0000
0000
0000
0000
0100
,
1000
0001
0100
0000
0010
2000
0000
3001
,
0010
0002
0000
1003
0010
0200
0000
0301
,
0010
0001
0000
1000
0001
0200
0000
0310
,
1000
0002
0000
0013
0001
0200
0000
0310
,
1000
0001
1000
0100
0010
0010
0000
0001
,
0100
0100
0000
0010
1000
1000
0000
0001
,
0010
0001
0100
0010
1000
1000
0000
0001
,
0010
0000
0001
0000
1000
0000
0010
0000
0100
0000
0001
0000
1000
0000
0000
0001
,
1000
1001
0000
0000
;

//--------------- dance-single - EmeraldX ----------------
#NOTES:
     dance-single:
     EmeraldX:
     Challenge:
     13:
     0,0,0,0,0:
0000
0000
0000
0000
,
0000
0000
0000
0000
,
0000
0000
0000
0000
,
0000
0000
0000
0000
,
0000
0000
0000
0000
0001
0000
0010
0001
1000
0000
0100
0000
1000
0000
0001
0000
,
0101
0000
0000
0000
0001
0000
0100
0010
1000
0000
0001
0000
1000
0000
0100
0000
,
1100
0000
0000
0000
1000
0000
0100
1000
0001
0000
0100
0000
0001
0000
0010
0000
,
0011
0000
0000
0000
0001
0000
1000
0010
0100
0000
0010
0000
1000
0000
0001
0000
,
0101
0000
0000
0000
0000
0000
0100
0000
0000
0000
0000
0000
0101
0000
0000
0000
0000
0000
1000
0000
0000
0010
0000
0000
1000
0000
0000
0000
0000
0000
0010
0000
0000
0000
0000
0000
1000
0000
0000
0000
0000
0000
0001
0000
0000
0000
0010
0000
,
0100
0000
0000
0000
0000
0000
0000
0000
0000
0000
0000
0000
0001
0000
0000
0000
0000
0000
0100
0000
0000
0010
0000
0000
0100
0000
0000
0000
0000
0000
1000
0000
0000
0000
0000
0000
0001
0000
0000
0000
0000
0000
0100
0000
0000
0000
0010
0000
,
1000
0000
0000
0000
0000
0000
0000
0000
0000
0000
0000
0000
0010
0000
0000
0000
0000
0000
0001
0000
0000
0010
0000
0000
0001
0000
0000
0000
0000
0000
0010
0000
0000
0000
0000
0000
1000
0000
0000
0000
0000
0000
0001
0000
0000
0000
0010
0000
,
0100
0000
0000
0000
0000
0000
0000
0000
0000
0000
0000
0000
0001
0000
0000
0000
0000
0000
0100
0000
0000
0010
0000
0000
0100
0000
0000
0000
0000
0000
1000
0000
0000
0000
0000
0000
0001
0000
0000
0000
0000
0000
1000
0000
0000
0000
0001
0000
,
0100
0000
0100
0000
0200
0000
0000
0010
0000
0000
1000
0000
0000
1000
0000
0000
,
0010
0000
0000
0302
0000
0000
0010
0000
0000
2003
0000
0000
0010
0000
0000
0001
,
3001
0000
0000
0001
1000
0000
0020
0000
0000
0100
0000
0000
0230
0000
0000
0010
,
0000
0000
0310
0000
1000
0000
0002
0000
0000
0010
0000
0000
0203
0000
0000
0010
,
0000
0000
0301
0000
2000
0000
0000
0010
0000
0000
0001
0000
0000
0001
0000
0000
,
0010
0000
0000
3200
0000
0000
0010
0000
0000
2300
0000
0000
0010
0000
0000
0001
,
3001
0000
0000
0001
1000
0000
0200
0000
0000
0010
0000
0000
0320
0000
0000
0100
,
0000
0000
0130
0000
1000
0000
0002
0000
0000
0100
0000
0000
0023
0000
0000
0100
,
0000
0031
1000
0000
0000
0100
1000
0001
,
0100
0001
0000
0000
1000
0000
0000
0000
0000
0000
0001
0000
0010
0000
0001
0000
,
1000
0010
0000
0000
0100
0000
0000
0000
0000
0000
0010
0000
1000
0000
0001
0000
,
0010
0100
0000
0000
0000
0000
0000
0000
0000
0000
0000
0000
0110
0000
0000
0000
,
1001
0000
0000
0000
0001
0000
0100
0001
1000
0000
0010
0000
1000
0000
0001
0000
,
0011
0000
0000
0000
0001
0000
0010
0100
1000
0000
0001
0000
1000
0000
0010
0000
,
1010
0000
0000
0000
1000
0000
0010
1000
0001
0000
0010
0000
0001
0000
0100
0000
,
0101
0000
0000
0000
0001
0000
1000
0100
0010
0000
0100
0000
1000
0000
0001
0000
,
0011
0000
0000
0000
0000
0000
1000
0000
0000
0000
0000
0000
1001
0000
0000
0000
0000
0000
1000
0000
0000
0100
0000
0000
1000
0000
0000
0000
0000
0000
0100
0000
0000
0000
0000
0000
1000
0000
0000
0000
0000
0000
0001
0000
0000
0000
0100
0000
,
0020
0000
0000
0000
0000
0000
0001
0000
0000
0000
0000
0000
1030
0000
0000
0000
0000
0000
0010
0000
0000
0100
0000
0000
0010
0000
0000
0000
0000
0000
1000
0000
0000
0000
0000
0000
0001
0000
0000
0000
0000
0000
0010
0000
0000
0000
0100
0000
,
2000
0000
0000
0000
0000
0000
0100
0000
0000
0000
0000
0000
3001
0000
0000
0000
0000
0000
0001
0000
0000
0100
0000
0000
0001
0000
0000
0000
0000
0000
0100
0000
0000
0000
0000
0000
0001
0000
0000
0000
0000
0000
1000
0000
0000
0000
0100
0000
,
0020
0000
0000
0000
0000
0000
1000
0000
0000
0000
0000
0000
0031
0000
0000
0000
0000
0000
0010
0000
0000
0100
0000
0000
0010
0000
0000
0000
0000
0000
0001
0000
0000
0000
0000
0000
1000
0000
0000
0000
0000
0000
0001
0000
0000
0000
1000
0000
,
0100
0100
0000
1000
0001
0200
0300
0010
,
1000
0002
0003
0010
0001
0200
0300
0010
,
1000
0010
0000
0010
0100
0002
0003
0010
,
0100
2000
3000
0001
0100
0020
0030
1000
,
0001
0000
1000
0000
0000
0000
1000
0001
1000
0000
0200
0000
0300
0000
1000
0001
,
1000
0000
0020
0000
0030
0000
0100
0001
0100
0000
0002
0000
0003
0000
1000
0100
,
0010
0000
0200
0000
0300
0000
0010
0100
0010
0000
0002
0000
0003
0000
0100
0010
,
0100
0000
0020
0000
1030
0000
0001
0010
0100
0000
1000
0000
0001
0000
0000
1000
,
0001
1001
0000
0000
;
