#TITLE:over there;
#SUBTITLE:;
#ARTIST:vox;
#TITLETRANSLIT:;
#SUBTITLETRANSLIT:;
#ARTISTTRANSLIT:;
#GENRE:PROGRESSIVE;
#CREDIT:;
#BANNER:over there.png;
#BACKGROUND:over there-bg.png;
#LYRICSPATH:;
#CDTITLE:;
#MUSIC:over there.ogg;
#OFFSET:2.204756;
#SAMPLESTART:56.089920;
#SAMPLELENGTH:12.000000;
#LASTBEATHINT:1.847610;
#SELECTABLE:YES;
#BPMS:0.000000=96.000000
,76.000000=250.001022
;
#STOPS:
;
#BGCHANGES:0.000=over there.mp4=1.000=0=0=0=StretchNoLoop====,
99999=-nosongbg-=1.000=0=0=0 // don't automatically add -songbackground-
;
#KEYSOUNDS:;
#ATTACKS:;

//---------------dance-single - ----------------
#NOTES:
     dance-single:
     :
     Hard:
     16:
     0.746989,1.073813,0.273855,0.308087,0.081301,611.000000,579.000000,32.000000,36.000000,12.000000,0.000000,0.746989,1.073813,0.273855,0.308087,0.081301,611.000000,579.000000,32.000000,36.000000,12.000000,0.000000:
// measure 0
0000
0000
0000
0000
,  // measure 1
0000
0000
0000
0000
,  // measure 2
0000
0000
0000
0000
,  // measure 3
0000
0000
0000
0000
,  // measure 4
0000
0000
0000
0000
0000
0000
0000
0002
,  // measure 5
1003
0010
0100
0001
0101
0100
0010
1000
,  // measure 6
0001
0010
0100
1000
1100
0100
0010
0001
,  // measure 7
1000
0010
0100
0001
1001
0001
0010
0100
,  // measure 8
1100
0100
1000
0000
0001
0000
1001
0000
0000
0001
0100
0000
0010
1000
0001
0000
,  // measure 9
0011
0001
0010
0000
0100
0000
1100
0000
0100
1000
0001
0100
0001
0010
0001
0000
,  // measure 10
1001
0001
0100
1000
1100
1000
0100
0001
,  // measure 11
1000
0100
0001
0100
0101
0001
0100
1000
,  // measure 12
0001
0010
1000
0010
1010
1000
0010
0001
,  // measure 13
1000
0000
0010
0000
0001
0000
0010
0000
0011
0000
0010
0000
1000
0010
0100
0001
,  // measure 14
1000
0100
0001
0100
0110
0010
0001
1000
,  // measure 15
0001
0100
1000
0100
0110
0010
1000
0001
,  // measure 16
1000
0000
0100
0000
0001
0000
1000
0000
1010
0000
0010
0000
0001
0000
1000
0010
,  // measure 17
0100
0001
0100
0000
0010
0000
1010
0000
0000
1000
0001
0000
1000
0100
0010
0000
,  // measure 18
0011
0001
0100
0000
0010
0000
2002
0000
0000
0000
0000
0000
0000
0000
3003
0000
,  // measure 19
0001
0100
0010
1000
0001
1000
0100
0010
,  // measure 20
0001
1000
0010
1000
0001
0010
0100
0010
,  // measure 21
1000
0010
0100
1000
0001
0100
0001
1000
,  // measure 22
0002
0010
1003
2000
,  // measure 23
0100
0000
3001
0000
1000
0010
0100
0010
,  // measure 24
0001
0010
2000
0010
0000
0001
0000
3100
,  // measure 25
1000
0000
1001
0000
0002
0100
0000
1000
,  // measure 26
0000
0013
0001
1000
0001
1000
0002
0000
,  // measure 27
2003
0100
0000
3002
0010
0000
2003
0010
,  // measure 28
0000
3001
0020
0000
0000
0000
0031
1000
,  // measure 29
0001
1000
0001
1000
0001
1000
0001
1000
,  // measure 30
0001
1000
0001
0010
0001
1000
0001
0100
,  // measure 31
2000
0000
3200
0000
0320
0000
1030
0010
,  // measure 32
0000
0010
0M00
0010
0001
0000
1000
0000
,  // measure 33
1001
0000
0001
0010
0001
1000
0001
0100
,  // measure 34
2000
0000
3200
0000
0320
0000
1030
0010
,  // measure 35
0000
0010
0M00
0010
0001
0000
1000
0000
,  // measure 36
1001
0000
1000
0100
1000
0001
1000
0010
,  // measure 37
0002
0000
0023
0000
0230
0000
0301
0100
,  // measure 38
0000
0100
00M0
0100
1000
0000
0001
0000
,  // measure 39
1001
0000
2000
0000
3002
0100
0000
2003
,  // measure 40
0010
0000
3002
0010
0000
1003
0001
0100
,  // measure 41
0000
0100
00M0
0100
1000
0000
0001
0000
,  // measure 42
1001
0000
0001
0010
0000
0010
0M00
0010
,  // measure 43
1000
0000
0001
0000
1001
0000
1000
0010
,  // measure 44
0000
0010
0M00
0010
0001
0010
0100
1000
,  // measure 45
0100
0010
0000
0001
0010
0100
0001
0100
,  // measure 46
0010
0001
1000
0010
0100
0001
0010
0100
,  // measure 47
1000
0010
0100
0001
2000
0000
0000
0000
,  // measure 48
3010
0100
0010
0100
0010
0100
0010
0100
,  // measure 49
0010
0100
0010
0100
0001
0010
0000
0010
,  // measure 50
0M00
0010
0100
0000
0001
0000
1001
0000
,  // measure 51
1000
0100
0000
0100
00M0
0100
0010
0000
,  // measure 52
1000
0000
1001
0000
1000
0010
0000
0010
,  // measure 53
0M00
0010
0100
0000
1000
0000
1001
0000
,  // measure 54
0001
0100
0000
0100
00M0
0100
0010
0000
,  // measure 55
0001
0000
1001
0001
2000
0000
3001
0000
,  // measure 56
1000
0010
1000
0100
1000
0001
1000
0010
,  // measure 57
0100
0001
1000
0001
0010
0001
0100
0001
,  // measure 58
1000
0001
0010
0001
1000
0010
0100
0001
,  // measure 59
0100
0010
1000
0100
0010
0001
0010
0100
,  // measure 60
1000
0010
0100
0001
1000
0100
0010
0001
,  // measure 61
1000
0001
0010
0100
1000
0100
0000
0100
,  // measure 62
00M0
0100
0010
0000
1000
0000
1010
0000
,  // measure 63
0001
0010
0000
0010
0M00
0010
0100
0000
,  // measure 64
0001
0000
0101
0001
2000
0000
3002
0010
,  // measure 65
0000
1003
0001
0100
0010
1000
0100
0010
,  // measure 66
0001
0010
0100
0001
0000
0100
0010
0001
,  // measure 67
0100
0010
1000
0001
1000
0100
1000
0100
,  // measure 68
1000
0000
0100
0000
1000
0100
1000
0000
0200
0000
0000
0000
0310
0000
0000
0000
,  // measure 69
0001
0000
0100
0000
0001
0000
0100
0000
0001
0000
0100
0000
0001
0100
0001
0000
,  // measure 70
0200
0000
0000
0000
0310
0000
0000
0000
1000
0000
0010
0000
1000
0010
1000
0000
,  // measure 71
0010
0000
1000
0000
0001
0000
0100
0000
0001
0100
0001
0000
0100
0000
0001
0000
,  // measure 72
1000
0000
0100
0000
1000
0100
1000
0000
0100
0000
0010
0000
0002
0000
0000
0000
,  // measure 73
0203
0000
0310
0000
1000
0100
0010
0001
,  // measure 74
1000
0001
0100
0010
1000
0001
0010
0001
,  // measure 75
1000
0010
0100
0010
0001
0010
0100
0001
,  // measure 76
1000
0100
1000
0001
1000
0010
0100
0001
,  // measure 77
1000
0001
0010
0100
1000
0001
0100
0001
,  // measure 78
1000
0100
0010
0100
0001
0100
0010
0001
,  // measure 79
1000
0010
1000
0001
1000
0100
0010
0001
,  // measure 80
1000
0001
0100
0010
1000
0001
0010
0001
,  // measure 81
1000
0010
0100
0010
0001
0010
1000
0010
,  // measure 82
0001
1000
0100
0001
1000
0010
0100
0001
,  // measure 83
1000
0001
0010
0100
1000
0001
0100
0001
,  // measure 84
1000
0100
0010
0100
0001
0100
2000
0010
,  // measure 85
0000
0001
0000
3100
1000
0000
1001
0000
,  // measure 86
0002
0010
0000
1000
0000
0103
0001
0010
,  // measure 87
0100
1000
0002
0100
0000
1000
0000
0013
,  // measure 88
0001
0000
1001
0000
1000
0100
0010
1000
,  // measure 89
0010
0100
0001
0100
0010
0001
0000
0000
;

//---------------dance-single - ----------------
#NOTES:
     dance-single:
     :
     Medium:
     14:
     0.651629,0.920411,0.196834,0.154044,0.051348,533.000000,510.000000,23.000000,18.000000,0.000000,0.000000,0.651629,0.920411,0.196834,0.154044,0.051348,533.000000,510.000000,23.000000,18.000000,0.000000,0.000000:
// measure 0
0000
0000
0000
0000
,  // measure 1
0000
0000
0000
0000
,  // measure 2
0000
0000
0000
0000
,  // measure 3
0000
0000
0000
0000
,  // measure 4
0000
0000
0000
0000
0000
0000
0000
0002
,  // measure 5
1003
0010
0100
0001
0101
0100
0010
1000
,  // measure 6
0001
0010
0100
1000
1100
0100
0010
0001
,  // measure 7
1000
0010
0100
0001
1001
0001
0010
0100
,  // measure 8
1000
0100
1000
0000
0001
0000
1001
0000
0000
0001
0100
0000
0010
1000
0001
0000
,  // measure 9
0010
0001
0010
0000
0100
0000
1100
0000
1000
0000
0001
0000
0100
0010
0100
0000
,  // measure 10
1001
0001
0100
1000
1100
1000
0100
0001
,  // measure 11
1000
0100
0001
0100
0101
0001
0100
1000
,  // measure 12
0001
0010
1000
0010
1010
1000
0010
0001
,  // measure 13
1000
0000
0010
0000
0001
0000
0010
0000
0011
0000
0010
0000
1000
0010
0100
0001
,  // measure 14
1000
0100
0001
0100
0110
0010
0001
1000
,  // measure 15
0001
0100
1000
0100
0110
0010
1000
0001
,  // measure 16
1000
0000
0100
0000
0001
0000
1000
0000
1010
0000
0010
0000
0001
0000
1000
0010
,  // measure 17
0100
0001
0100
0000
0010
0000
1010
0000
0000
1000
0001
0000
1000
0100
0010
0000
,  // measure 18
0001
0100
0010
0000
0100
0000
2002
0000
0000
0000
0000
0000
0000
0000
3003
0000
,  // measure 19
0001
0010
0001
1000
0001
0000
1000
0010
,  // measure 20
1000
0001
1000
0000
0001
0100
0001
1000
,  // measure 21
0010
1000
0001
0010
0000
0100
1000
0000
,  // measure 22
0001
0100
0001
1000
0001
0000
1000
0100
,  // measure 23
1000
0001
1000
0000
0001
0010
0001
1000
,  // measure 24
0010
1000
0002
0010
0000
0010
0000
0010
,  // measure 25
0013
0000
1100
0000
2000
0010
0000
0010
,  // measure 26
0000
0010
3010
0000
0101
0000
1000
0000
,  // measure 27
1000
0100
0000
0100
0010
0000
0010
0001
,  // measure 28
0000
0001
2000
0000
0000
0000
0010
0000
,  // measure 29
0001
0010
0001
0010
,  // measure 30
3100
0000
1000
0010
0100
0000
0010
0000
,  // measure 31
0001
0000
0010
0000
0100
0000
0001
0010
,  // measure 32
0000
0010
0000
0001
0010
0000
0100
0000
,  // measure 33
1000
0000
0001
0100
0010
0000
0100
0000
,  // measure 34
1000
0000
0100
0000
0010
0000
1000
0100
,  // measure 35
0000
0100
0000
1000
0100
0000
0010
0000
,  // measure 36
0001
0000
1000
0100
0010
0000
0100
0000
,  // measure 37
0001
0100
0010
0001
,  // measure 38
0001
0100
0000
0100
0010
0000
0010
0100
,  // measure 39
0000
0100
1000
0000
1000
0100
0000
0100
,  // measure 40
0010
0000
0010
1000
0000
1000
0001
0000
,  // measure 41
0001
0010
0000
0010
0100
0000
1000
0000
,  // measure 42
0001
2000
0010
3001
,  // measure 43
0002
0100
1003
2000
,  // measure 44
0100
3001
0002
0010
,  // measure 45
1003
0001
0000
1000
0010
1000
0010
0100
,  // measure 46
0010
0100
0010
0100
0001
0100
0001
1000
,  // measure 47
0001
1000
0001
0010
0200
0000
0000
0000
,  // measure 48
0000
0000
0000
0000
,  // measure 49
0300
0000
0000
0000
0010
0100
0000
0010
,  // measure 50
0000
0100
0010
0000
0100
0000
1000
0000
,  // measure 51
0010
0100
0000
0010
0000
0100
0010
0000
,  // measure 52
0100
0000
0001
0000
1000
0100
0000
1000
,  // measure 53
0000
0100
1000
0000
0001
0000
0010
0000
,  // measure 54
0001
0100
0000
0001
0000
0100
0001
0000
,  // measure 55
1000
0010
2000
3100
,  // measure 56
0010
0001
0010
0000
0001
0100
0001
0000
,  // measure 57
0100
0010
0100
0000
0010
1000
0010
0000
,  // measure 58
1000
0001
1000
0000
0001
0010
0001
0000
,  // measure 59
0010
1000
0010
0000
1000
0100
1000
0000
,  // measure 60
0100
0001
0100
0000
0001
1000
0001
0000
,  // measure 61
1000
0100
0010
0001
1000
0010
0000
0100
,  // measure 62
0000
0010
1000
0000
0001
0000
1001
0000
,  // measure 63
0001
0010
0000
0100
0000
0010
0001
0000
,  // measure 64
1000
0000
1001
0000
0001
0000
1000
0010
,  // measure 65
0000
0100
0001
0000
1000
0100
0000
0010
,  // measure 66
0001
0000
1000
0010
0000
0100
0001
0000
,  // measure 67
1000
0000
1001
0000
0001
0010
0001
0010
,  // measure 68
0001
0010
0001
0010
0200
0000
1300
0000
,  // measure 69
0001
0100
0001
0100
0001
0100
0001
0100
,  // measure 70
0020
0000
1030
0000
0001
1000
0001
1000
,  // measure 71
0001
1000
0100
0010
0100
0010
0100
0010
,  // measure 72
1000
0001
1000
0001
1000
0001
0200
0000
,  // measure 73
0000
0000
0300
0000
1000
0010
1000
0001
,  // measure 74
1000
0000
0001
0010
0001
1000
0001
0000
,  // measure 75
1000
0100
1000
0001
0010
0001
1000
0010
,  // measure 76
0000
0100
0001
0000
1000
0100
1000
0001
,  // measure 77
1000
0000
0001
0100
0001
1000
0001
0000
,  // measure 78
1000
0010
1000
0001
0010
0001
1000
0010
,  // measure 79
0000
0100
0001
0000
1000
0100
0010
0100
,  // measure 80
1000
0001
1000
0010
0100
0010
1000
0001
,  // measure 81
1000
0100
0010
0001
0010
0100
1000
0010
,  // measure 82
0100
0001
0010
0100
0010
0001
0100
0010
,  // measure 83
1000
0001
0100
0001
0010
0100
1000
0001
,  // measure 84
1000
0010
0100
0001
0100
0010
2000
0100
,  // measure 85
0000
0100
0000
0100
3100
0000
0011
0000
,  // measure 86
0002
0100
0000
0100
0000
0100
0103
0000
,  // measure 87
1010
0000
2000
0001
0000
0001
0000
0001
,  // measure 88
3001
0000
1001
0000
1000
0000
0100
0001
,  // measure 89
0000
0100
1000
0000
0100
0001
0000
0000
;

//---------------dance-single - ----------------
#NOTES:
     dance-single:
     :
     Easy:
     10:
     0.426676,0.651958,0.034232,0.136928,0.017116,349.000000,345.000000,4.000000,16.000000,0.000000,0.000000,0.426676,0.651958,0.034232,0.136928,0.017116,349.000000,345.000000,4.000000,16.000000,0.000000,0.000000:
// measure 0
0000
0000
0000
0000
,  // measure 1
0000
0000
0000
0000
,  // measure 2
0000
0000
0000
0000
,  // measure 3
0000
0000
0000
0000
,  // measure 4
0000
0000
0000
0000
0000
0000
0000
1000
,  // measure 5
0001
0100
0001
0100
0010
0100
0010
0100
,  // measure 6
0010
1000
0010
1000
0001
1000
0001
1000
,  // measure 7
0001
0010
0001
0010
0100
0010
0100
0010
,  // measure 8
0100
0000
0000
1000
0000
0000
0002
0000
0000
0000
0000
0000
0003
0000
0000
0000
,  // measure 9
0100
0000
0000
0001
0000
0000
2000
0000
0000
0000
0000
0000
3000
0000
0000
0000
,  // measure 10
0001
0010
0001
0010
0100
0010
0100
0010
,  // measure 11
0100
1000
0100
1000
0001
1000
0001
1000
,  // measure 12
0001
0100
0001
0100
0010
0100
0010
0100
,  // measure 13
0010
1000
0010
1000
0001
1000
0001
1000
,  // measure 14
0001
0010
0100
1000
0100
0010
0001
1000
,  // measure 15
0001
0100
0010
1000
0010
0100
0001
1000
,  // measure 16
0001
0010
0100
1000
0001
0100
0010
1000
,  // measure 17
0001
0000
0000
1000
0000
0000
0020
0000
0000
0000
0000
0000
0030
0000
0000
0000
,  // measure 18
1000
0000
0000
0001
0000
0000
0020
0000
0000
0000
0000
0000
0030
0000
0000
0000
,  // measure 19
0001
0100
0010
1000
,  // measure 20
0010
0100
0001
0010
,  // measure 21
1000
0010
0100
1000
,  // measure 22
0001
0100
0010
1000
,  // measure 23
0010
0100
0001
0010
,  // measure 24
1000
0000
0010
0000
0000
0001
0000
0000
,  // measure 25
2000
0000
3000
0000
0010
0000
0000
1000
,  // measure 26
0000
0002
0003
0010
,  // measure 27
0000
0100
0000
0000
1000
0000
0000
0001
,  // measure 28
0000
2002
0000
0000
,  // measure 29
0000
0000
0000
3003
,  // measure 30
0000
0001
0100
0010
,  // measure 31
0001
0010
0100
0001
,  // measure 32
0000
0001
0000
0000
0010
0000
0100
0000
,  // measure 33
1000
0001
0010
0100
,  // measure 34
0001
0100
0010
0001
,  // measure 35
0000
0001
0000
0000
0100
0000
0010
0000
,  // measure 36
1000
0001
0100
0010
,  // measure 37
0001
0010
0100
0001
,  // measure 38
0000
0010
0000
0000
1000
0000
0000
0010
,  // measure 39
0000
0000
0001
0000
0000
0100
0000
0000
,  // measure 40
1000
0000
0000
0100
0000
0000
0010
0000
,  // measure 41
0000
1000
0000
0000
0001
0000
0010
0000
,  // measure 42
0100
0000
1000
0000
0000
0100
0000
0000
,  // measure 43
0001
0100
1000
0001
,  // measure 44
0000
0100
0000
0000
1000
0000
0100
0000
,  // measure 45
0001
0000
0010
0001
,  // measure 46
0100
0010
1000
0100
,  // measure 47
0010
0000
0001
1000
0002
0000
0000
0000
,  // measure 48
0000
0000
0000
0000
,  // measure 49
0003
0000
0000
0000
1000
0000
0000
1000
,  // measure 50
0000
0010
0100
1000
,  // measure 51
0100
0000
0000
0100
0000
0000
0001
0000
,  // measure 52
0010
0000
0100
0000
0001
0000
0000
0001
,  // measure 53
0000
0100
0010
0001
,  // measure 54
1000
0000
0000
1000
0000
0000
0010
0000
,  // measure 55
0001
0010
0200
0300
,  // measure 56
0001
0010
1000
0010
,  // measure 57
0001
0100
1000
0100
,  // measure 58
0001
0010
0100
0001
,  // measure 59
0100
0010
0001
1000
,  // measure 60
0010
0100
1000
0100
,  // measure 61
0010
0000
1000
0000
0001
0000
0000
0001
,  // measure 62
0000
0010
0100
0001
,  // measure 63
0100
0000
0000
0100
0000
0000
1000
0000
,  // measure 64
0010
0000
0100
0000
0001
0000
0000
0100
,  // measure 65
0000
0000
1000
0000
0000
0100
0000
0000
,  // measure 66
0001
0000
0000
0010
0000
0000
1000
0000
,  // measure 67
0000
0010
0000
0000
0001
0000
0010
0000
,  // measure 68
0001
0000
0010
0001
0020
0000
0130
0000
,  // measure 69
1000
0000
0010
0000
1000
0000
0010
1000
,  // measure 70
0020
0000
0130
0000
0001
1000
0001
0000
,  // measure 71
1000
0000
0010
0100
0010
0000
0100
0000
,  // measure 72
0001
1000
0001
0000
1000
0000
0200
0000
,  // measure 73
0000
0300
1000
0010
,  // measure 74
0100
0001
0100
0010
,  // measure 75
1000
0100
0001
0100
,  // measure 76
0010
0001
1000
0100
,  // measure 77
0010
0001
0010
0100
,  // measure 78
1000
0010
0001
0010
,  // measure 79
0100
0000
0001
0000
1000
0000
0001
0100
,  // measure 80
0001
0000
1000
0000
0100
1000
0100
0000
,  // measure 81
1000
0000
0001
0010
0001
0000
1000
0000
,  // measure 82
0010
0000
0100
0000
0001
0000
1000
0100
,  // measure 83
1000
0000
0001
0000
0010
0001
0010
0000
,  // measure 84
0001
0000
1000
0010
1000
0000
0001
0010
,  // measure 85
0000
0001
0000
0010
0002
0000
0003
0000
,  // measure 86
1000
0010
0000
1000
0000
0010
2000
0000
,  // measure 87
3000
0000
0001
0100
0000
0001
0000
0100
,  // measure 88
0002
0000
0003
0000
0101
0000
0000
1010
,  // measure 89
0000
0000
1001
0000
1000
0001
0000
0000
;

//---------------dance-single - ----------------
#NOTES:
     dance-single:
     :
     Beginner:
     5:
     0.261630,0.345635,0.042790,0.000000,0.000000,214.000000,209.000000,5.000000,0.000000,0.000000,0.000000,0.261630,0.345635,0.042790,0.000000,0.000000,214.000000,209.000000,5.000000,0.000000,0.000000,0.000000:
// measure 0
0000
0000
0000
0000
,  // measure 1
0000
0000
0000
0000
,  // measure 2
0000
0000
0000
0000
,  // measure 3
0000
0000
0000
0000
,  // measure 4
0000
0000
0000
0000
,  // measure 5
1000
1000
1000
0000
,  // measure 6
0010
0010
0010
0000
,  // measure 7
0100
0100
0100
0000
,  // measure 8
0001
0000
1001
0000
,  // measure 9
1000
0000
1001
0000
,  // measure 10
0001
0001
0001
0000
,  // measure 11
0100
0100
0100
0000
,  // measure 12
0010
0010
0010
0000
,  // measure 13
1000
1000
1000
0000
,  // measure 14
0001
0001
0001
0000
,  // measure 15
0010
0010
0010
0000
,  // measure 16
0100
0100
0100
0000
,  // measure 17
1000
0000
1001
0000
,  // measure 18
0001
0000
1001
0000
,  // measure 19
1000
0000
0000
0010
,  // measure 20
0000
0000
0100
0000
,  // measure 21
0000
0001
0001
0001
,  // measure 22
0001
0000
0000
0010
,  // measure 23
0000
0000
0100
0000
,  // measure 24
0000
1000
0000
1000
,  // measure 25
1000
0000
0001
0000
,  // measure 26
0001
0001
0000
0100
,  // measure 27
0000
0000
0010
0000
,  // measure 28
0000
1001
0000
0000
,  // measure 29
0000
0000
0000
0000
,  // measure 30
0000
0001
0000
0010
,  // measure 31
0000
0100
0000
1000
,  // measure 32
0000
0010
0000
0100
,  // measure 33
0000
0001
0000
0100
,  // measure 34
0000
0010
0000
1000
,  // measure 35
0000
0100
0000
0010
,  // measure 36
0000
0001
0000
1000
,  // measure 37
0000
0010
0000
0100
,  // measure 38
0000
0001
0000
1000
,  // measure 39
0000
0100
0000
0010
,  // measure 40
0000
0001
0000
1000
,  // measure 41
0000
0010
0000
0100
,  // measure 42
0000
0001
0000
0100
,  // measure 43
0000
0010
0000
1000
,  // measure 44
0000
0001
0000
0010
,  // measure 45
0010
0000
0100
0100
,  // measure 46
0100
0100
0100
0100
,  // measure 47
0100
0100
0100
0000
,  // measure 48
0000
0000
0000
0000
,  // measure 49
0000
0000
0010
0000
,  // measure 50
0000
0001
0001
0001
,  // measure 51
0001
0000
0000
0100
,  // measure 52
0100
0100
0100
0000
,  // measure 53
0000
0010
0010
0010
,  // measure 54
0010
0000
0000
1000
,  // measure 55
1000
1000
1000
0000
,  // measure 56
0000
0001
0001
0001
,  // measure 57
0001
0000
0000
0010
,  // measure 58
0010
0010
0010
0000
,  // measure 59
0000
0100
0100
0100
,  // measure 60
0100
0000
0000
1000
,  // measure 61
1000
1000
0000
1000
,  // measure 62
0000
0010
0010
0010
,  // measure 63
0010
0000
0000
0100
,  // measure 64
0100
0100
0100
0000
,  // measure 65
0000
0001
0000
0000
,  // measure 66
0010
0000
0000
0100
,  // measure 67
0000
0000
1000
1000
,  // measure 68
1000
1000
0000
0000
,  // measure 69
0001
0001
0001
0001
,  // measure 70
0000
0000
0100
0100
,  // measure 71
0100
0100
0100
0100
,  // measure 72
0100
0100
0100
0100
,  // measure 73
0000
0000
0010
0000
,  // measure 74
1000
1000
0000
0001
,  // measure 75
0001
0000
0010
0010
,  // measure 76
0010
0010
0010
0000
,  // measure 77
0100
0100
0000
1000
,  // measure 78
1000
0000
0001
0001
,  // measure 79
0001
0001
0001
0000
,  // measure 80
0100
0100
0000
0010
,  // measure 81
0010
0000
1000
1000
,  // measure 82
1000
1000
1000
0000
,  // measure 83
0001
0001
0000
0010
,  // measure 84
0010
0000
0100
0100
,  // measure 85
0100
0100
0100
0000
,  // measure 86
1000
1000
1000
1000
,  // measure 87
0000
0001
0001
0001
,  // measure 88
0001
0000
0010
0010
,  // measure 89
0010
0010
0010
0010
;
