#VERSION:0.83;
#TITLE:Old Gold;
#SUBTITLE:;
#ARTIST:Cranky;
#TITLETRANSLIT:;
#SUBTITLETRANSLIT:;
#ARTISTTRANSLIT:;
#GENRE:RAVE;
#CREDIT:;
#MUSIC:old gold.ogg;
#BANNER:bn.png;
#BACKGROUND:bg.png;
#CDTITLE:cd-title.png;
#SAMPLESTART:81.355;
#SAMPLELENGTH:18.581;
#SELECTABLE:YES;
#OFFSET:-0.839;
#BPMS:0.000=155.000;
#STOPS:;
#SPEEDS:0.000=1.000=0.000=0;
#SCROLLS:0.000=1.000;
#TICKCOUNTS:0.000=4;
#TIMESIGNATURES:0.000=4=4;
#LABELS:0.000=Song Start;
#COMBOS:0.000=1;
#ORIGIN:;
#PREVIEWVID:;
#JACKET:;
#CDIMAGE:;
#DISCIMAGE:;
#BGCHANGES:;
#FGCHANGES:;

//--------------- dance-single - Ladies and gentlemen! ----------------
#NOTEDATA:;
#STEPSTYPE:dance-single;
#DESCRIPTION:Ladies and gentlemen!;
#DIFFICULTY:Beginner;
#METER:4;
#RADARVALUES:0.127876,0.202562,0.02315,0,0,116,113,3,0,0,0,0,0,0,0.127876,0.202562,0.02315,0,0,116,113,3,0,0,0,0,0,0;
#CHARTNAME:;
#CHARTSTYLE:;
#CREDIT:Frondal;
#NOTES:
0000
0000
0000
0000
,
0000
0000
0000
0000
,
0000
0000
0000
0000
,
0000
0000
0000
0000
,
0000
0000
0000
0000
,
0000
0000
0000
0000
,
0000
0000
0000
0000
,
0000
0000
0000
0000
,
0000
0000
0000
0000
,
1000
0000
0000
0000
,
0000
0000
0000
0000
,
0001
0000
0000
0000
,
0000
0000
0000
0000
,
0010
0000
0000
0000
,
0000
0000
0000
0000
,
0100
0000
0000
0000
,
0110
0000
0000
0000
,
0000
0000
0000
0000
,
0000
0000
0000
0000
,
0000
0000
0000
0000
,
1000
0000
1000
0000
,
0010
0000
0000
0000
,
0100
0000
0100
0000
,
0001
0000
1000
0000
,
0001
0000
0001
0000
,
0010
0000
0000
0000
,
0100
0000
0100
0000
,
1000
0000
0000
0000
,
0001
0000
0100
0000
,
0001
0000
0000
0000
,
0010
0000
1000
0000
,
0001
0000
0100
0000
,
1000
0000
0010
0000
,
1000
0000
0000
0000
,
0100
0000
0001
0000
,
1000
0000
0010
0000
,
0001
0000
0100
0000
,
1000
0000
0000
0000
,
0001
0000
0010
0000
,
1000
0000
0001
0000
,
1000
0000
0100
0000
,
0001
0000
0000
0000
,
1000
0000
0010
0000
,
0001
0000
1000
0000
,
0001
0000
0001
0000
,
0100
0000
0100
0000
,
1000
0000
1000
0000
,
0010
0000
0010
0000
,
0001
0000
1000
0000
,
0100
0000
0001
0000
,
0010
0000
1000
0000
,
1001
0000
0000
0000
,
0001
0001
0010
0000
,
0000
0100
0000
0100
,
1000
1000
0010
0000
,
0001
0000
0010
0000
,
1000
1000
0100
0000
,
0000
0001
0000
0100
,
1000
1000
0010
0000
,
0100
0000
0100
0000
,
0001
0010
1000
0000
,
0000
0010
0000
0100
,
1000
0010
0001
0000
,
0010
0000
0100
0000
,
0001
0010
0100
0000
,
1000
0010
0100
0000
,
0001
0000
0001
0000
,
1001
0000
0000
0000
,
1000
0000
1000
0000
,
0100
0000
0000
0000
,
0010
0000
0010
0000
,
0001
0000
1000
0000
,
0001
0000
0001
0000
,
0100
0000
0000
0000
,
0010
0000
0010
0000
,
1000
0000
0000
0000
;

//--------------- dance-single - Old school jams! ----------------
#NOTEDATA:;
#STEPSTYPE:dance-single;
#DESCRIPTION:Old school jams!;
#DIFFICULTY:Easy;
#METER:7;
#RADARVALUES:0.260161,0.349564,0.11575,0,0,236,221,15,0,0,0,0,0,0,0.260161,0.349564,0.11575,0,0,236,221,15,0,0,0,0,0,0;
#CHARTNAME:;
#CHARTSTYLE:;
#CREDIT:Frondal;
#NOTES:
0000
0000
0000
0000
,
0000
0000
0000
0000
,
0000
0000
0000
0000
,
0000
0000
0000
0000
,
0000
0000
0000
0000
,
0000
0000
0000
0000
,
0000
0000
0000
0000
,
0000
0000
0000
0000
,
0000
0000
0000
0000
,
1000
0000
0100
0000
,
0010
0001
0010
0100
,
1000
0000
0010
0001
,
0010
0000
0100
0000
,
0001
0000
0010
0000
,
0100
1000
0100
0010
,
0001
0000
0100
0000
,
0110
0000
0000
0000
,
0000
0000
0000
0000
,
0000
0000
0000
0000
,
0000
0000
0000
0000
,
0001
0001
0010
0100
,
0001
0100
0000
0100
,
1000
1000
0010
0100
,
1000
0000
0100
0000
0000
0010
0000
0010
,
1000
0100
0001
0100
,
1000
0001
0100
0100
,
0001
0010
1000
0100
,
1001
1001
1001
0000
,
1000
0100
1000
0000
,
0001
0100
0001
0001
,
0010
0100
1000
0000
,
0010
0100
0001
0000
,
1000
0010
1000
0000
,
0001
0010
0001
0001
,
0100
1000
0100
0001
,
1000
1000
0100
1001
,
1000
0010
0001
0000
,
1000
0100
0001
0001
,
0010
0100
1000
0000
,
0010
0100
0001
0000
,
1000
1000
0001
0100
,
0001
0001
1000
0100
,
0010
0100
1000
0000
,
0010
0100
0001
0000
,
1001
0000
0100
0010
,
1001
0000
0010
0100
,
1001
0000
0100
0010
,
1001
0000
0001
0010
,
1100
0000
1000
0100
,
0110
0000
0001
0100
,
0110
0000
1000
0100
,
0001
0000
0000
0000
,
1000
0100
0010
0100
,
1000
0010
0100
0010
,
1000
0100
0001
1000
,
0010
1000
0001
0100
,
1000
0010
0100
0100
,
0001
0010
0100
0100
,
0001
0100
1000
0001
,
0000
1000
0100
1000
,
0001
0100
0010
0100
,
0001
0010
0100
0010
,
0001
0100
1000
0001
,
0010
0001
1000
0100
,
0001
0010
0100
0001
,
1000
0100
0001
0010
,
0001
0000
0001
0000
1000
0100
1000
1000
,
0000
0001
0010
0100
,
1000
1000
0010
0100
,
1000
0100
0000
0100
,
0001
0001
0010
0100
,
0001
0000
0100
0000
0000
0010
0000
0010
,
0001
0100
1000
0100
,
0001
1000
0100
0100
,
1000
0010
0001
0100
,
1001
1001
1001
0000
;

//--------------- dance-single - Old school breaks! ----------------
#NOTEDATA:;
#STEPSTYPE:dance-single;
#DESCRIPTION:Old school breaks!;
#DIFFICULTY:Medium;
#METER:11;
#RADARVALUES:0.43103,0.527819,0.370399,0,0.057875,391,343,48,0,0,0,0,0,0,0.43103,0.527819,0.370399,0,0.057875,391,343,48,0,0,0,0,0,0;
#CHARTNAME:;
#CHARTSTYLE:;
#CREDIT:Frondal;
#NOTES:
0000
0000
0000
0000
,
0000
0000
0000
0000
,
0000
0000
0000
0000
,
0000
0000
0000
0000
,
0000
0000
0000
0000
,
0000
0000
0000
0000
,
0000
0000
0000
0000
,
0000
0000
0000
0000
,
0000
0000
0000
0000
,
1000
0100
0001
0000
,
0100
0010
0001
1000
,
0001
0000
0100
0000
1000
0100
0001
0010
,
0000
0011
0000
0000
0000
0000
0000
0000
,
1000
0100
0001
0000
,
0100
1000
0010
0100
,
1000
0000
0100
0000
0001
0010
0100
1000
,
1001
0000
0000
0000
,
0000
0000
0000
0000
,
0000
0000
0000
0000
,
0000
0000
0000
0000
0000
0001
1000
0001
,
0011
0000
1100
0000
1000
0010
1000
0100
,
0110
0000
1100
1000
0000
0010
0001
0010
,
1010
0000
0101
0000
0001
0010
0001
0100
,
0110
0000
0000
0000
0101
0000
0001
0000
0000
0010
0000
0001
0000
1000
0000
0000
,
1100
0000
0011
0000
0001
0100
0001
0010
,
0110
0000
0011
0001
0000
0100
1000
0100
,
0101
0000
1010
0000
1000
0100
1000
0010
,
0100
0000
0100
0000
0001
1000
0100
0010
,
1000
0010
0001
0000
1000
0001
0100
0010
,
0001
0010
1000
0000
0100
0010
1000
0010
,
0100
0000
0000
0100
0000
0000
0100
0000
0000
0000
1000
0000
0010
0000
1000
0000
,
0100
0000
0000
0100
0000
0000
0100
0000
0000
0000
1000
0000
0010
0000
0100
0000
,
1000
0100
0001
0000
1000
0001
0010
0100
,
0001
0100
1000
0000
0010
0100
1000
0100
,
0010
0000
0000
0010
0000
0000
0010
0000
0000
0000
1000
0000
0100
0000
1000
0000
,
0001
0000
0000
0001
0000
0000
1000
0000
0000
1000
0000
0000
0100
0000
0000
0000
,
0001
0100
1000
0100
0010
0000
0001
0100
,
1000
0100
0001
0100
0010
0000
1000
0000
,
0001
0000
0000
0010
0000
0000
0100
0000
0000
0000
1000
0000
0001
0000
1000
0000
,
0010
0000
0000
0100
0000
0000
0001
0000
0000
0000
0010
0000
0011
0000
0000
0000
,
0001
0100
1000
0100
0001
0010
0000
0001
,
1000
0100
0001
0000
1000
0010
0001
1000
,
0010
0000
0000
0010
0000
0000
0010
0000
0000
0000
0100
0000
0001
0000
0100
0000
,
0010
0000
0000
0010
0000
0000
1000
0000
1001
0000
0000
0000
0010
0000
0000
0000
,
1100
1000
0101
0010
,
1100
1000
0101
1000
,
0011
0001
1010
0100
,
0011
0001
1010
0100
,
1010
1000
0011
0100
,
1010
1000
0011
1000
,
0101
0001
1100
0010
,
0101
0000
0100
1000
0100
0001
1000
0000
,
0100
0000
0100
0000
0001
0000
0000
1000
,
0000
1000
0010
0000
0100
0000
0001
0000
,
0100
0000
0100
0000
1000
0000
0001
0010
,
0000
0011
0000
0000
0001
0000
1000
0000
,
0100
0000
0100
0000
0001
0000
0000
1000
,
0000
1000
0010
0000
1000
0000
0100
0000
,
0001
0000
0100
0000
1000
0100
0010
0001
,
0000
0001
0100
0001
0010
0100
1000
0000
,
0010
0000
0010
0000
0001
0000
1000
0010
,
0000
1000
0100
0010
1000
0010
0001
0000
,
0010
0000
0010
0000
1000
0001
0100
1000
,
0000
0100
0001
0000
1000
0000
0010
0000
,
1000
0000
1000
0000
0001
0100
0100
1000
,
0000
0010
0010
0001
1000
0100
0001
0100
,
1000
0000
1000
0000
0001
0100
0010
0001
,
0000
1000
0000
0100
0000
0010
1000
0001
,
0101
0000
1010
0000
1000
0100
1000
0010
,
0110
0000
1010
1000
0000
0100
0001
0100
,
1100
0000
0011
0000
0001
0100
0001
0010
,
0110
0000
0000
0000
0011
0000
0001
0000
0000
0100
0000
0001
0000
1000
0000
0000
,
1010
0000
0101
0000
0001
0010
0001
0100
,
0110
0000
0101
0001
0000
0010
1000
0010
,
0011
0000
1100
0000
1000
0010
1000
0100
,
0010
0000
0010
0000
0001
1000
0010
0100
,
1000
0000
0000
0000
;

//--------------- dance-single - Old school rules! ----------------
#NOTEDATA:;
#STEPSTYPE:dance-single;
#DESCRIPTION:Old school rules!;
#DIFFICULTY:Hard;
#METER:14;
#RADARVALUES:0.56111,0.645112,0.378116,0,0.300949,509,460,49,0,0,0,0,0,0,0.56111,0.645112,0.378116,0,0.300949,509,460,49,0,0,0,0,0,0;
#CHARTNAME:;
#CHARTSTYLE:;
#CREDIT:Frondal as MaXXstepper573;
#NOTES:
0000
0000
0000
0000
,
0000
0000
0000
0000
,
0000
0000
0000
0000
,
0000
0000
0000
0000
,
0000
0000
0000
0000
,
0000
0000
0000
0000
,
0000
0000
0000
0000
,
0000
0000
0000
0000
,
0000
0000
0000
0000
,
1000
0000
0100
0000
0010
0000
0000
1000
,
0000
1000
0010
0100
1000
0100
0010
0001
,
0100
0000
0100
0000
0001
0010
0100
0001
,
0000
0001
0100
0000
0010
0000
0001
0000
,
1000
0000
0010
0000
0100
0000
0000
1000
,
0000
1000
0100
0010
1000
0001
0010
0001
,
0100
0000
0100
0000
1000
0001
0010
1000
,
1001
0000
0000
0000
,
0000
0000
0000
0000
,
0000
0000
0000
0000
,
0000
0000
0000
0000
0000
1000
1000
0001
,
1000
0000
0100
0000
0010
0000
0100
0000
1000
0001
0000
0010
0000
0000
0010
0000
,
0001
0000
0010
0000
0100
0000
1000
0001
0000
0100
0010
0000
1000
0000
1000
0000
,
0001
0000
0100
0000
0010
0000
0100
0000
0001
1000
0000
0010
0000
0000
0010
0000
,
1000
0000
0010
0000
0100
0000
0001
0010
0000
1000
0000
0010
0000
0001
0000
0100
,
0001
0000
0010
0000
0001
0000
0100
0000
0001
0000
0010
0100
0000
1000
0000
0010
,
1000
0000
0100
0000
1000
0000
0010
1000
0000
0100
0010
0000
0010
0000
0001
0000
,
1000
0000
0010
0000
1000
0000
0100
0000
1000
0000
0010
0100
0001
0000
0010
0100
,
1000
0000
0000
0000
1000
0000
0000
0000
0000
0010
0001
0000
0010
0000
0100
0000
,
0001
0000
0010
0000
0010
0000
0000
0000
0001
0000
1000
0010
0000
1000
0000
0000
,
0001
0000
0100
0000
0100
0000
0010
1000
0000
0000
0100
0000
0010
0000
0100
0000
,
1100
0000
0000
1100
0000
0000
1100
0000
0000
0000
1000
0000
0001
0000
0100
0000
,
0101
0000
0000
0101
0000
0000
0101
0000
0000
0000
0001
0000
0010
0000
0100
0000
,
1000
0000
0010
0000
0001
0000
0000
0000
0010
0000
0100
0001
0000
0010
0000
0000
,
0010
0000
0100
1000
0000
0000
0010
0100
0001
0000
0010
0000
0001
0000
1000
0000
,
1010
0000
0000
1010
0000
0000
1010
0000
0000
0000
1000
0000
0001
0000
0010
0000
,
0011
0000
0000
0011
0000
0000
0011
0000
0000
0011
0000
0000
0100
0000
1000
0000
,
0001
0000
0100
0000
0010
1000
0000
0001
0000
0001
0000
0000
0010
0000
0001
0000
,
1000
0000
0010
0000
0100
0000
1000
0100
0000
0000
0010
0000
1000
0000
0001
0000
,
0101
0000
0000
1100
0000
0000
0101
0000
0000
0000
1000
0000
0100
0000
1000
0000
,
1100
0000
0000
0101
0000
0000
1100
0000
0000
0000
0101
0000
0010
0000
0001
0000
,
1000
0000
0100
0000
0001
0000
0100
1000
0100
0000
0010
0000
0000
0000
0001
0000
,
0100
0000
0010
0000
0001
0000
0010
0100
0010
0000
1000
0000
0001
0000
0010
0000
,
0011
0000
0000
1100
0000
0000
0011
0000
0000
0001
1000
0000
0001
0000
0100
0000
,
0101
0000
0000
1100
0000
0000
0011
0000
0000
0000
0010
0000
0001
0000
1000
0000
,
0010
0000
0100
0000
1000
0000
0000
0000
0100
0010
0000
1000
0000
0000
1000
0000
,
0100
0000
0010
0000
1000
0000
0000
0000
0010
0100
0000
1000
0001
0000
0001
0000
,
0100
0000
0010
0000
0001
0000
0000
0000
0010
0100
0000
0001
0000
0000
0001
0000
,
0010
0000
0100
0000
0001
0000
0000
0000
0100
0010
0000
0100
1000
0000
0001
0000
,
0001
0000
0100
0000
1000
0000
0000
0000
0100
0001
0000
0001
0010
0000
0100
0000
,
1000
0000
0100
0000
0001
0000
0000
0000
0100
1000
0000
1000
0001
0000
0100
0000
,
0010
0000
0001
0000
0010
0000
0000
0000
0100
0001
0000
0001
0010
0000
0100
0000
,
0010
0000
0000
0000
1000
0010
0100
0000
1000
0000
0010
0000
1000
0000
1000
0000
,
1010
0000
0011
0000
0110
0000
0100
0001
,
0000
0001
0010
1000
0010
0001
1000
0100
,
0101
0000
1100
0000
1000
0001
0100
1000
,
0000
1000
0100
0010
1000
0001
0100
0010
,
1010
0000
0011
0000
0110
0000
0100
0001
,
0001
1000
0001
0010
0100
1000
0010
1000
,
1100
0000
0011
0000
0001
0010
1000
0001
,
0000
0000
1000
0000
0010
0100
1000
0000
0001
0000
1000
0000
0010
0100
0001
0000
,
0011
0000
1010
0000
0110
0000
0100
1000
,
0001
1000
0010
0001
0010
1000
0001
0100
,
1100
0000
0101
0000
0001
0010
1000
0100
,
0000
1000
0010
0001
1000
0100
1000
0010
,
1010
0000
0011
0000
0001
0010
1000
1100
,
0000
0100
0001
0100
1000
0010
1000
0100
,
1100
0000
0000
0000
0011
0000
0000
0000
0001
1000
0010
0000
1000
0001
0010
0000
,
0000
0001
1000
0000
0010
0001
0010
1000
,
0001
0000
0100
0000
0001
0000
0010
0000
0001
0100
0000
0100
0000
0000
1000
0000
,
0100
0000
0001
0000
0010
0000
0001
0100
0000
0100
0001
0000
0011
0000
0000
0000
,
1000
0000
0100
0000
1000
0000
0010
0000
1000
0100
0000
0100
0000
0000
0001
0000
,
0100
0000
1000
0000
0001
0000
1000
0010
0000
0001
0000
0010
0000
1000
0000
0001
,
1000
0000
0100
0000
0010
0000
0100
1000
0001
0000
0100
0000
0010
0000
0100
0001
,
1000
0000
0100
0000
0010
0000
1000
0010
0000
0100
1000
0000
1000
0000
0001
0000
,
0001
0000
0100
0000
0010
0000
0100
0001
1000
0000
0100
0000
0010
0000
0100
1000
,
0001
0000
0100
0000
0010
0000
0001
0010
0000
0100
0001
0000
0010
0000
1000
0000
,
1001
0000
0000
0000
;
