#TITLE:n/a;
#ARTIST:Blacklolita;
#BANNER:n_a.png;
#BACKGROUND:n_a-bg.png;
#JACKET:n_a-jacket.png;
#CDTITLE:./CDTITLES/BEATMANIA IIDX.PNG;
#MUSIC:n_a.ogg;
#SAMPLESTART:79.132;
#SAMPLELENGTH:15;
#BPMS:0=170,160=85,176=170,180=180,184=190,188=200,192=210,196=220,200=230,204=240,208=255;

//---------------dance-single - Princess Pamela/t7r----------------
#NOTES:
     dance-single:
     Princess Pamela/t7r:
     Beginner:
     6:
     :
0000
0000
0000
0000
,
0000
0000
0000
0000
,
0000
0000
0000
0000
,
0000
0000
0000
0000
,
0000
0000
0000
0000
,
0000
0000
0000
0000
,
1000
0000
0000
0000
,
1000
0000
0000
0000
,
0001
0000
0000
0000
,
0010
0000
0100
0000
,
1000
0000
0000
0000
,
0000
0000
0000
0000
,
0000
0000
0000
0000
,
0000
0000
0000
0000
,
0001
0000
0000
0000
,
0001
0000
0100
0000
,
0010
0000
1000
0000
,
0001
0000
0000
0000
,
0001
0000
0001
0000
,
1000
0000
1000
0000
,
0010
0000
0010
0000
,
0100
0100
0100
0000
,
2002
0000
0000
0000
,
0000
0000
0000
0000
,
3003
0000
0001
0000
,
0001
0001
0001
0000
,
0000
0000
1000
0000
,
1000
1000
1000
0000
,
0000
0000
0010
0000
,
0010
0010
0010
0000
,
0000
0000
0100
0000
,
0100
0100
0100
0000
,
0000
0010
0000
0010
,
0010
0000
0010
0000
,
0000
0100
0000
0100
,
0100
0000
0100
0000
,
0001
0000
1001
0000
,
0000
0000
1001
0000
,
0001
0000
0010
0000
,
0100
0000
1000
0000
,
0001
0000
1000
0000
,
0100
0000
0010
0000
,
0001
0000
1000
0000
,
0010
0000
0100
0000
,
0001
0000
0000
0000
,
0001
0000
0000
0000
,
1000
0000
0000
0000
,
1000
0000
0000
0000
,
0010
0000
0000
0000
,
0010
0000
0000
0000
,
0100
0000
0000
0000
,
0100
0000
0000
0000
,
0001
0000
0000
0000
,
0000
0000
0000
0000
,
1001
0000
0000
0000
,
1000
0000
0000
0000
,
0100
0000
0100
0000
,
1000
0000
0000
0000
,
0001
0000
0001
0000
,
0010
0000
0000
0000
,
0001
0000
0100
0000
,
0010
0000
0000
0000
,
1000
0000
0000
0000
,
0000
0000
0000
0000
,
0100
0000
0100
0000
,
0100
0100
0100
0000
,
0010
0000
0010
0000
,
0001
0001
0001
0000
,
1000
1000
1000
0000
,
0010
0000
0000
0000
,
0110
0000
0000
0000
,
1001
0000
0000
0000
,
0001
1000
0001
0000
,
1000
0000
0010
0000
,
0110
0000
0000
0000
,
1001
0000
1000
0000
,
0010
0010
0010
0010
,
0100
0000
0001
0000
,
1000
0000
0000
0000
,
0000
0000
0000
0000
,
0001
0000
0001
0000
,
0001
0001
0001
0000
,
0010
0000
0100
0000
,
1000
1000
1000
0000
,
0010
0000
0100
0000
,
0010
0000
0000
0000
,
1000
0000
1000
0000
,
0010
0000
0010
0000
,
0100
0000
0100
0000
,
0001
0000
0001
0000
,
1000
0000
1000
0000
,
0100
0000
0100
0000
,
0010
0010
0010
0000
,
0001
0001
0001
0000
,
1001
0000
0000
0000
;

//---------------dance-single - Princess Pamela/t7r----------------
#NOTES:
     dance-single:
     Princess Pamela/t7r:
     Easy:
     11:
     :
0000
0000
0000
0000
,
0000
0000
0000
0000
,
0000
0000
0000
0000
,
0000
0000
0000
0000
,
0000
0000
0000
0000
,
0000
0000
0000
0000
,
1000
0100
0010
0001
,
0100
0000
0010
1000
0001
0000
1000
0000
,
0001
0010
0100
1000
,
0010
0100
0220
0330
,
2002
0000
0000
0000
,
0000
0000
0000
0000
,
0000
0000
0000
0000
,
0000
0000
3003
0000
,
1000
0000
0100
1000
0100
0000
1000
0001
,
1000
0000
0001
0100
0001
0000
1000
0001
,
1000
0000
0001
0010
0001
0000
1000
0000
,
0020
0000
0130
0010
2000
0000
3001
0000
,
1000
1000
0000
0000
0010
0010
0000
0000
,
0100
0100
0000
0000
0001
0001
0000
0000
,
1000
0100
1000
0000
0001
0100
0001
0000
,
0010
0100
0010
0000
0220
0000
0330
0000
,
1000
1000
0001
0001
,
0100
0100
0010
1001
,
1100
0000
0100
1000
0001
0000
0001
1000
,
0010
0000
0010
0100
0001
0000
1000
0000
,
0101
0000
0100
0001
1000
0000
1000
0001
,
0010
0000
0010
0100
2000
0000
3000
0000
,
1001
0000
0001
0010
0001
0000
1000
0010
,
1000
0000
0001
0010
0001
0000
1000
0000
,
0001
0000
0100
0010
1000
0000
0001
0000
,
1000
0000
0100
0010
0001
0000
1000
0000
,
1001
0101
1000
1100
,
0001
0000
0101
0000
1000
0001
1000
0000
,
1001
1100
0001
0101
,
1000
1100
0220
0330
,
1001
0000
0000
1000
0000
0000
0100
0000
0100
0000
0010
0000
,
0001
1000
0020
0230
,
0301
0000
1000
0001
0010
0000
0001
0000
,
1000
0000
0001
1000
0010
0000
1000
0000
,
0001
0000
0010
0000
,
0100
0000
1000
0000
,
0010
0000
0100
0000
,
0001
0000
0010
0000
,
1001
0000
0001
0010
,
0100
0000
0100
1000
,
1001
0000
0001
0000
,
1000
0000
0010
0000
,
0100
0100
0001
0100
,
0001
0001
1000
0000
,
0010
0010
1000
1000
,
0001
0001
0010
0010
,
0200
0000
0000
0000
,
0000
0000
0000
1300
,
0001
0000
1000
0000
0001
0000
1000
0100
,
1000
0001
1000
0000
,
0001
0010
0001
0000
1000
0000
0000
0000
,
0001
0100
0010
1000
,
0001
0000
1000
0100
0000
0000
1000
0000
,
0001
0000
0100
0001
0000
0000
0000
0000
,
1000
0010
1000
0000
0001
0000
0010
0000
,
0001
1000
0200
0000
,
0310
0010
0001
0010
,
1000
0010
0001
0000
,
1000
0001
1000
0000
0010
0000
0100
0010
,
0100
0001
1000
0100
,
0010
0000
0010
0100
0000
0100
0000
0000
,
1000
0001
1001
0000
,
0002
0023
0230
2300
,
3020
0000
0000
0030
,
2000
0000
3001
0010
0000
0000
0001
0000
,
2000
0000
3001
0010
0000
0000
0001
0000
,
1000
0010
0001
0010
,
1000
0100
0001
0100
,
0020
0000
0130
1000
0000
0000
0001
0000
,
0200
0000
0310
1000
0000
0000
0000
0000
,
0001
0011
0001
1001
,
2000
3020
0230
0302
,
1003
1000
0001
1000
,
0001
0001
1000
0000
,
0010
0100
0010
0000
0100
0000
0001
0000
,
0010
0000
0001
0010
0000
0000
0100
0000
,
1000
0000
1000
0001
0000
0001
0000
0000
,
0100
0010
0100
0000
0110
0000
0000
0000
,
1000
0001
0100
0000
0001
0000
0010
0000
,
0200
0000
0000
0300
,
1000
1000
0100
0100
,
0010
0010
0001
0001
,
0100
0100
0010
0010
,
1000
0001
2001
3001
,
1000
0010
0001
0010
,
1000
0100
0001
0100
,
1000
1001
0001
1001
,
0100
0110
0010
0110
,
2002
0000
0000
0000
,
0000
0000
0000
0000
,
3003
0000
0000
0000
;

//---------------dance-single - Princess Pamela/t7r----------------
#NOTES:
     dance-single:
     Princess Pamela/t7r:
     Medium:
     14:
     :
0000
0000
0000
0000
,
0000
0000
0000
0000
,
0000
0000
0000
0000
,
0000
0000
0000
0000
,
0000
0000
0000
0000
,
0000
0000
0000
0000
,
1100
0000
0001
0010
0100
0010
0001
0000
,
0101
0000
1000
0010
0100
0010
1000
0000
,
0011
1000
1010
0001
,
0200
0310
2002
3003
,
2000
0000
0100
0000
0000
0100
0000
0000
,
0001
0000
0000
0001
0000
0001
3000
0000
,
0000
0000
0002
0000
0000
0100
0000
0000
,
1000
0000
0000
1000
0000
1000
0003
0000
,
0001
0010
0001
0010
0100
1000
0100
1000
,
0010
0100
0001
0100
0010
1000
0001
0000
,
0010
0010
0100
0100
1000
1000
0001
0001
,
0200
0000
0000
0301
2000
0000
3000
0000
,
0100
0100
0020
0000
0031
0001
2000
0000
,
3010
0010
0200
0000
0301
0001
2000
0000
,
3100
0100
0010
0010
0100
1000
0001
1000
,
0001
0100
0020
0000
1030
0001
0100
0100
,
0002
0010
2003
0010
,
3200
0000
0010
0000
0010
0000
1300
0001
,
1000
0000
0001
0100
1000
0100
0001
0100
,
1000
0100
0001
0100
1000
0100
0010
0000
,
1001
0000
1000
0100
0001
0100
1000
0100
,
0001
0100
1000
0100
0010
0010
0001
1000
,
1001
0000
0001
0100
1000
0100
0001
0100
,
0010
0100
1000
0100
0001
1000
0010
0000
,
1001
0000
1000
0100
0001
0100
1000
0100
,
0010
0100
0001
0100
1000
0001
0010
0000
,
1001
0000
0000
1000
0100
0000
0010
0000
0100
0000
0001
0000
0100
0000
0010
0000
,
0100
1000
0010
0100
0001
1000
0010
0000
,
1001
0000
0000
0001
0100
0000
0010
0000
0100
0000
1000
0000
0100
0000
0010
0000
,
0100
0001
0010
0100
1000
0001
0100
0001
,
2002
0000
0000
3003
0000
0000
0001
0100
0001
0100
0001
0100
,
0010
0000
0000
0000
1000
0000
0000
0000
0010
0000
0000
0000
2000
0000
0000
0000
0000
0000
0000
0000
0000
0000
0000
0000
3001
0000
0000
0000
0000
0000
0000
0000
0000
0010
0000
0000
0100
0000
0000
0000
0000
0000
0000
0000
0000
1000
0000
0000
,
0001
0100
0010
0100
0001
1000
0010
1000
,
0001
0010
1000
0010
0001
1000
1000
0100
,
2000
0010
3002
0010
,
2003
0000
0000
0000
0100
0000
0000
0000
3002
0000
0000
0000
0103
0001
1000
0000
,
0002
0010
0010
0003
0020
0100
0100
0030
,
0200
1000
1000
0300
2002
0000
0000
3003
,
1001
1000
0100
0010
,
1001
0001
0100
0010
,
1100
0010
0101
0010
,
0101
1000
1100
0001
,
1000
0100
1000
0000
0001
0100
0001
0000
,
1000
0010
1000
0000
0001
0010
0001
1000
,
0001
0010
0100
0010
0001
0100
0010
0000
,
1000
0100
0010
0100
1000
0010
0100
0000
,
0020
0000
0000
0000
,
0000
0000
0030
0110
,
1001
0000
0001
0100
0010
0000
0100
0000
,
0110
0000
0001
0010
0100
0000
1000
0000
,
0010
1000
0010
0000
0100
0001
0100
0001
,
1000
0000
0000
1000
0000
0000
0100
0000
1000
0000
0000
0000
0010
0000
0000
0000
,
0100
0000
0100
0001
0000
0001
1000
0000
,
0100
0010
0100
0010
0110
0000
0000
0000
,
0001
1000
0001
0000
0100
0010
1000
0010
,
0200
1000
0010
0301
,
1000
0100
0001
0100
,
1000
0010
0001
0020
,
1030
0001
0100
0000
0001
1000
0100
1000
,
0001
0010
0001
0000
1000
0010
1000
0000
,
0001
0000
0100
1000
0000
0100
0010
0000
,
1000
0100
1000
0100
0020
0000
0030
0000
,
0001
1000
0001
0000
1000
0010
1000
0000
,
0100
0000
0001
0000
0100
1000
0001
0000
,
1100
0000
0001
0010
0000
0100
0010
0000
,
0101
0000
1000
0010
0000
0100
0010
0000
,
1000
0100
1000
0000
0001
0100
0001
0100
,
0010
0000
0000
0010
0000
0000
1000
0000
0010
0000
0000
0000
0200
0000
0000
0000
,
0301
0000
0001
0010
0000
0100
0010
0000
,
0100
1000
0100
1000
1100
0000
0000
0000
,
0001
0000
0100
0000
0010
0000
1000
0000
0010
0000
0100
0000
,
0002
0000
0023
0000
,
0031
0010
1000
0010
,
0001
0100
1000
0200
,
0310
1000
0010
0000
0100
0001
0100
0001
,
1000
0100
0020
0000
0031
1000
0010
0000
,
0100
0000
1000
0100
0000
0001
1000
0000
,
0001
0010
0100
0001
0200
0000
0300
0000
,
1000
0010
0100
0000
0001
0010
0100
1000
,
0002
0000
0000
0003
,
1100
0000
0001
0010
,
0011
0000
0001
0100
,
0101
0000
1010
0000
,
0110
0000
1001
0000
,
1000
1000
0100
1100
,
0001
0001
0100
0101
,
0001
1000
0001
1000
0010
0100
0001
0000
,
1000
0001
1000
0001
1000
0100
0010
0001
,
0200
0000
0000
0000
,
0000
0000
0000
0000
,
0300
0000
0000
0000
;

//---------------dance-single - Princess Pamela/t7r----------------
#NOTES:
     dance-single:
     Princess Pamela/t7r:
     Hard:
     17:
     :
0000
0000
0000
0000
,
0000
0000
0000
0000
,
0000
0000
0000
0000
,
0000
0000
0000
0000
,
0000
0000
0000
0000
,
0000
0000
0000
0000
,
1000
0000
0000
0001
0100
0000
0010
0000
1000
0100
0000
0010
0001
0000
1000
0000
,
0001
0000
0000
0100
0010
0000
1000
0000
0001
0010
0000
0100
1000
0000
0001
0000
,
0100
0000
0000
0010
1000
0000
0001
0000
0010
0001
0000
1000
0010
0000
0100
0000
,
0010
0110
2002
3003
,
1200
0000
0010
0000
0000
0010
0000
0000
,
0010
0000
0000
0010
0000
0320
0000
0000
,
0000
0000
0001
0000
0000
0001
0000
0000
,
0001
0000
0000
0001
0000
0001
0030
0000
,
1000
0100
0010
0100
0001
0100
0010
0100
,
1000
0010
0100
0010
0001
0010
0100
0010
,
1000
0000
0100
1000
0100
0000
1000
0000
0001
0000
0100
0001
0100
0000
0010
0000
,
0200
0000
0000
0000
1000
0000
0310
0100
0001
1000
0001
1000
0010
0000
0000
0000
,
0100
0001
0021
0000
0130
1000
1020
0000
,
1030
0100
0021
0000
0031
0100
1020
0000
,
0130
0000
0001
0000
0010
0000
0001
0000
0100
0010
0100
0010
1000
0010
1000
0010
,
0200
0000
0000
0000
0301
0000
0010
0100
1000
0000
0010
0000
0100
0000
0001
0000
,
1000
0000
0000
0001
0100
0000
0000
0000
0001
0000
0000
1000
0100
0000
0000
0000
,
0020
0000
0000
0031
1000
0000
0010
0000
0100
0000
0000
0000
0110
0000
0000
0000
,
1001
0000
0000
0000
0001
1000
0001
1000
0001
0100
0001
0100
0001
0100
0001
0100
,
0010
1000
0010
1000
0010
1000
0010
1000
0001
0000
0010
0100
1000
0000
0000
0000
,
1001
0000
0000
0000
0001
0010
0001
0010
0100
0010
0100
0010
0100
1000
0100
1000
,
0010
0100
0010
0100
0001
1000
0001
1000
0020
0000
0100
0000
0130
0000
0100
0000
,
0001
0000
0000
0000
1000
0001
1000
0001
1000
0010
1000
0010
1000
0010
1000
0010
,
0100
0001
0100
0001
0100
0001
0100
0001
1000
0001
0100
0001
1000
0000
0001
1000
,
0001
0000
0000
0000
0100
0001
1000
0000
0100
1000
0001
1000
0001
1000
0001
1000
,
0010
0000
0100
0001
0000
0100
1000
0000
0100
0001
1000
0100
0010
0001
1000
0000
,
0010
0000
0000
0100
0001
0000
0010
0100
1000
0000
0100
0010
0001
0000
0100
0010
,
1000
0000
0010
0100
0001
0000
0010
0001
0100
0000
0010
1000
0100
0000
0010
0000
,
1001
0000
0000
1000
0010
0000
0100
0001
0010
0000
0100
1000
0010
0000
0100
0001
,
1000
0000
0100
1000
0001
0000
0010
0100
1000
0100
0010
0000
0001
0000
0000
0000
,
1001
0000
0000
0000
0000
0000
0000
0000
0000
0000
0000
0000
0001
0000
0000
0000
0000
0000
0100
0000
0000
0001
0000
0000
1000
0000
0000
0000
0010
0000
0000
0000
1000
0000
0000
0000
0001
0000
0000
0000
0010
0000
0000
0000
0001
0000
0000
0000
,
1000
0000
0000
0000
0100
0000
0000
0000
1000
0000
0000
0000
0002
0000
0000
0000
0000
0000
0103
0000
0000
0001
0000
0000
1000
0000
0000
0100
0000
0000
0010
0000
0000
0001
0000
0000
2000
0000
0000
0000
0000
0000
0000
0000
0000
0000
0000
0000
,
3010
0100
1000
0100
0001
0010
1000
0010
,
0100
0001
0100
1000
0010
0100
0100
0001
,
2000
0000
0100
3100
0200
0000
0010
0310
,
0020
0000
0001
0031
0002
0000
1000
1003
,
1000
0010
0100
0000
0000
0000
0000
0000
0001
0010
0100
0000
0000
0000
0000
0000
,
1000
0001
0010
0000
0000
0000
0000
0000
1002
0000
0100
0000
1000
0000
0013
0000
,
0102
1000
0010
1003
,
2100
0001
0010
3001
,
1001
0000
1000
0100
0001
0100
1000
0000
,
1001
0000
0001
0100
1000
0100
0001
0000
,
0101
0000
0100
0010
0110
0000
1010
0000
,
1100
0000
0100
0010
0110
0000
0011
0000
,
1000
0010
1000
0010
0100
0001
0100
0001
,
1000
0000
0100
0000
0010
0000
0001
0000
1000
0000
0001
1000
0001
0000
1000
0000
,
0020
0000
0100
0000
,
1000
1000
1030
0000
,
1100
0000
1100
0000
1100
0000
1000
0001
,
0100
0001
1000
0000
0001
0100
0010
0100
,
0001
0001
0001
0000
0010
0100
0010
0010
,
0001
0000
0000
1000
0010
0000
0100
0000
0001
0000
1000
0000
0100
0000
0010
0000
,
0011
0000
0001
0200
0000
1300
0100
0001
,
1000
1000
1000
0100
0010
0100
0001
0100
,
0010
0010
0010
0000
0001
1000
0001
0001
,
1000
0010
0100
0001
1000
0100
0010
0001
,
1000
0000
1000
0100
0001
0100
1000
0000
,
0001
0000
0001
0100
1000
0100
0001
0000
,
0010
0010
0010
0000
0001
0100
0010
0100
,
0001
1000
0010
0010
1000
0100
0010
0000
,
0011
0000
0000
0000
0001
0010
0001
0000
0000
0000
0010
0001
0010
0000
0001
0000
,
0100
0100
0100
0010
1001
0000
0000
0000
,
1000
0100
1000
0010
0100
0001
0010
0001
,
0200
0000
1000
0000
0010
0000
0301
1000
,
0002
0000
0013
0100
0000
0010
1000
0010
,
0002
0000
0013
0100
0000
0010
1000
0010
,
0001
0001
0001
0000
0001
0001
0100
0010
,
1000
0000
0000
0100
0010
0000
0001
0000
1000
0000
0010
0000
0100
0000
0001
0000
,
2000
0000
3010
0100
0000
0010
0001
0010
,
1000
1000
1000
0010
0100
0010
0001
0010
,
1000
0001
1000
0001
1000
0001
1000
0001
1000
0001
1000
0001
,
2000
0100
3002
0010
,
1003
0000
1000
0010
0001
0010
1000
0000
,
0001
0000
0001
0010
1000
0010
0001
0000
,
0100
0100
0100
0000
0010
1000
0100
1000
,
0001
0001
0010
1000
0010
0001
1000
0000
,
1010
0000
0000
0000
0010
1000
0010
0000
0000
0000
1000
0010
1000
0000
0001
0000
,
0010
0010
0010
0100
1001
0000
0000
0000
,
0001
0100
0010
1000
0100
0010
0001
0100
,
0020
0000
0000
0030
,
1100
0001
0010
1000
,
0101
1000
0010
0001
,
1100
0010
1001
0010
,
0101
0000
0010
0000
1001
0000
1000
0001
,
1000
1100
1010
0101
,
0011
1001
0110
1001
,
1000
0100
0010
0001
0100
0010
1000
0100
,
0001
0100
1000
0010
0001
0010
1000
0100
,
2002
0000
0000
0000
,
0000
0000
0000
0000
,
3003
0000
0000
0000
;

//---------------dance-double - Princess Pamela/t7r----------------
#NOTES:
     dance-double:
     Princess Pamela/t7r:
     Easy:
     11:
     :
00000000
00000000
00000000
00000000
,
00000000
00000000
00000000
00000000
,
00000000
00000000
00000000
00000000
,
00000000
00000000
00000000
00000000
,
00000000
00000000
00000000
00000000
,
00000000
00000000
00000000
00000000
,
00010000
00000100
00001000
00000000
,
00000001
00000100
00001000
00000000
,
00010000
00100000
01000000
00000000
,
00010000
10000000
02000000
03000000
,
00022000
00000000
00000000
00000000
,
00000000
00000000
00000000
00000000
,
00000000
00000000
00000000
00000000
,
00000000
00000000
00033000
00000000
,
00001000
00001000
00010000
00010000
,
00000100
00000100
00000010
00000010
,
00000001
00000100
00001000
00010000
,
00200000
00000000
00000000
10300000
00010000
00000000
10000000
00000000
,
01000000
01000000
00000000
00000000
00100000
00100000
00000000
00000000
,
00001000
00001000
00000000
00000000
00010000
00010000
00000000
00000000
,
00000100
00001000
00000000
00000000
00000001
00001000
00000000
00000000
,
00000010
00000100
00000000
00000000
00000001
00001000
00000000
00000000
,
00001000
00000100
00000010
00000001
,
00000100
00001000
00010000
00011000
,
00001000
00000000
00010000
00001000
00010000
00000000
00001000
00100000
,
00001000
00000000
00100000
00010000
00100000
00000000
01000000
00000000
,
01100000
00000000
10000000
01000000
10000000
00000000
00100000
10000000
,
00100000
00000000
01000000
00100000
01000000
00000000
00010000
00000000
,
10000000
00000000
01000000
00100000
00002000
00000000
00013000
00000000
,
00001000
00000000
00010000
00000100
00002000
00000000
00003001
00000000
,
00000100
00000000
00001000
00010000
00001000
00000000
00010000
00000000
,
00001000
00000000
01000000
00010000
01000000
00000000
00010000
00000000
,
00100000
00110000
00001000
00011000
,
00000100
00001100
00001000
00000010
,
00001000
00001100
00010000
00011000
,
00100000
00110000
00001000
00000000
,
00011000
00000000
00000000
00001000
00000000
00000000
00010000
00000000
00010000
00000000
00001000
00000000
,
01000000
01100000
20000000
30020000
,
10030000
00000000
01000000
00100000
01000000
00000000
00010000
00000000
,
00001000
00000000
00000100
00000010
00000100
00000000
00000001
00000000
,
00000010
00000000
00000001
00000000
,
00000100
00000000
00000010
00000000
,
00001000
00000000
01000000
00000000
,
00100000
00000000
10010000
00000000
,
10010000
00010000
01000000
00001000
,
00011000
00100000
00001000
00010000
,
00011000
00010000
00000010
00001000
,
00000001
00000100
00001000
00010000
,
00011000
00001000
00100000
00010000
,
01000000
10000000
01000000
00010000
,
10010000
10000000
00100000
00010000
,
00001000
00000010
00000100
00010000
,
00002000
00000000
00000000
00000000
,
00000000
00000000
00000000
00013000
,
00000100
00000000
00001000
00000000
00000001
00000000
00000100
00000001
,
00000100
00000001
00001000
00000000
,
00000001
00000010
00001000
00010000
,
00001000
00000000
01000000
00010000
01000000
00000000
00100000
00000000
,
10000000
00000000
01000000
00100000
00000000
00000000
00001000
00000000
,
00010000
00000000
00000010
00000100
00000010
00000000
00000000
00000000
,
00001000
00000001
00001000
00000000
00000001
00000000
00000000
00000010
,
00001000
00010000
00002000
00000000
,
00013000
01000000
10000000
01000000
,
00010000
00001000
00000100
00000000
,
00000010
00000100
00000010
00000000
00001000
00000000
00000001
00000000
,
00000010
00000000
00000001
00000010
00000100
00000000
00010000
00000000
,
00001000
00000000
00001000
00010000
00000000
00010000
00001000
00000000
,
00100000
00010000
00100000
00000000
00110000
00000000
00000000
00000000
,
00001000
00010000
00001000
00000000
01000000
00010000
00100000
00000000
,
00002000
00000000
00010000
00013000
,
00020000
00000000
00030100
00010000
00000000
00000000
00001000
00000000
,
00020000
00000000
00030100
00010000
00000000
00000000
00001000
00000000
,
00010000
00001000
00000010
00000001
,
00000100
00001000
00010000
00011000
,
00002000
00000000
01003000
00001000
00000000
00000000
00010000
00000000
,
00002000
00000000
01003000
00001000
00000000
00000000
00010000
00000000
,
00001000
00010000
00100000
10000000
,
01000000
00010000
00002000
00023000
,
00031000
00000100
00000001
00000100
,
00001000
00010000
00001000
00000000
,
00010000
00001000
00100000
00000000
00100000
00010000
00100000
00000000
,
01000000
00000000
00100000
00010000
10000000
00000000
00100000
00000000
,
01000000
00000000
01000000
00001000
00000000
00001000
00010000
00000000
,
00000100
00001000
00000100
00000000
00000110
00000000
00000000
00000000
,
00000020
00000032
00002003
00003200
,
00000320
00000000
00000000
00000030
,
00000001
00000010
00001000
00010000
,
01000000
10000000
00100000
00010000
,
00001000
00000100
00000001
00000010
,
00001000
00010000
00012000
01003000
,
00001000
00010000
01000000
10000000
,
00100000
00010000
00001000
00000100
,
00000001
00000010
00001000
00010000
,
00100000
10000000
01000000
00010000
,
00022000
00000000
00000000
00000000
,
00000000
00000000
00000000
00000000
,
00033000
00000000
00000000
00000000
;

//---------------dance-double - Princess Pamela/t7r----------------
#NOTES:
     dance-double:
     Princess Pamela/t7r:
     Medium:
     14:
     :
00000000
00000000
00000000
00000000
,
00000000
00000000
00000000
00000000
,
00000000
00000000
00000000
00000000
,
00000000
00000000
00000000
00000000
,
00000000
00000000
00000000
00000000
,
00000000
00000000
00000000
00000000
,
00011000
00000000
00010000
00000100
00001000
00000010
00000100
00000000
,
00000110
00000000
00000010
00001000
00000100
00010000
00001000
00000000
,
00011000
00000000
00010000
01000000
00100000
01000000
10000000
00000000
,
01000000
00100000
00001000
00000000
00022000
00000000
00033000
00000000
,
00020000
00000000
00000100
00000000
00000000
00000100
00000000
00000000
,
00001000
00000000
00000000
00001000
00000000
00001000
00030000
00000000
,
00002000
00000000
01000000
00000000
00000000
01000000
00000000
00000000
,
00010000
00000000
00000000
00010000
00000000
00010000
00003000
00000000
,
00001000
00010000
00000100
00010000
00000100
00001000
00000010
00001000
,
00000010
00000100
00000001
00000100
00000001
00000010
00000100
00001000
,
00000010
00010000
00001000
00010000
00001000
01000000
00010000
10000000
,
00200000
00000000
00000000
00310000
00002000
00000000
00003000
00000000
,
01000000
01000000
00200000
00000000
10300000
10000000
02000000
00000000
,
03010000
00010000
00000200
00000000
00001300
00001000
00000020
00000000
,
00000130
00000100
00000001
00000000
00001000
00001000
00000100
00000000
,
00010000
00001000
02000000
00000000
03100000
00100000
10000000
00000000
,
02000000
03020000
00032000
00003000
,
00000200
00002300
00023000
00030000
,
00011000
00000000
00001000
01000000
00010000
10000000
01000000
00010000
,
00001000
00000000
00000100
00000001
00001000
00000000
00000100
00000000
,
00011000
00000000
00010000
00000100
00001000
00000001
00000010
00001000
,
00010000
00000000
00100000
10000000
00010000
00010000
00100000
00000000
,
01100000
00000000
01000000
10000000
00100000
01000000
00001000
00000000
,
00010000
00000010
00001000
00000001
00000010
00001000
00010000
00000000
,
00011000
00000000
00001000
00100000
00010000
10000000
01000000
00010000
,
00001000
00000000
00000000
00001000
00000000
00000000
00000010
00000000
00000002
00000000
00000000
00000000
00000003
00000000
00000000
00000000
,
00001001
00000000
00000000
00000001
00000100
00000000
00000010
00000000
00001000
00000000
00000000
00000100
00010000
00000000
00000000
00000000
,
00001000
01000000
00010000
10000000
01000000
00100000
00001000
00010000
,
00000100
00000000
00000000
00001000
00000001
00000000
00000100
00000000
00001000
00000000
00000000
00010000
00001000
00000000
01000000
00000000
,
00010000
10000000
00100000
00000000
00020000
00001000
00030100
00000000
,
00002200
00000000
00000000
00003300
00000000
00000000
00010000
00001000
00010000
00001000
00010000
00001000
,
00100000
00000000
00000000
00000000
00010000
00000000
00000000
00000000
00100000
00000000
00000000
00000000
00020000
00000000
00000000
00000000
00000000
00000000
00000000
00000000
00000000
00000000
00000000
00000000
01030000
00000000
00000000
00000000
00000000
00000000
00000000
00000000
00000000
00100000
00000000
00000000
10000000
00000000
00000000
00000000
00000000
00000000
00000000
00000000
00000000
00000000
00000000
00000000
,
01000000
00100000
01000000
00010000
00001000
00010000
00001000
00000010
,
00000100
00000010
00000001
00001000
00000001
00000100
00001000
00000000
,
00020000
00000100
00032000
01000000
,
00023000
00000010
00032000
00100000
,
00023000
01000000
00032000
00000100
,
00023000
00000000
00100000
00000000
00002000
00000000
00000000
00033000
,
00011000
00010000
00000100
00001000
,
00000001
00000100
00001000
00010000
,
00011000
00001000
01000000
00010000
,
10000000
01000000
00010000
00001000
,
00011000
00001000
00000010
00000001
,
00000100
00001000
00010000
00100000
,
10000000
01000000
00010000
00001000
,
00000100
00000001
00000010
00000100
,
00002000
00000000
00000000
00000000
,
00000000
00000000
00003000
00001001
,
00000001
00000000
00000100
00000010
00001000
00000000
00000100
00000000
,
00001100
00000000
00010000
00001000
00100000
00000000
00010000
00100000
,
01000000
00100000
01000000
00000000
10000000
00010000
10000000
00000000
,
00100000
00000000
00000000
00100000
00000000
00000000
01000000
00000000
00100000
00000000
00000000
00000000
00010000
00000000
00000000
00000000
,
00011000
00000000
00001000
00000100
00000000
00000100
00000001
00000000
,
00000100
00000010
00000100
00000010
00010000
00000000
00000000
00000000
,
00001000
01000000
00001000
00000000
01000000
00010000
01000000
00100000
,
20000000
32000000
03020000
00032000
,
00013000
00001000
01000000
00100000
,
10000000
01000000
00010000
00000000
,
00001000
00010000
00001000
00000000
00010000
00000000
00000010
00000000
,
00001000
00000001
00001000
00000000
00000001
00000000
00000100
00000000
,
00000010
00000000
00001000
00000100
00000000
00010000
00001000
00000000
,
01000000
00000000
00010000
10000000
00200000
00000000
00300000
00000000
,
10000000
00010000
10000000
00000000
01000000
00000000
00010000
00000000
,
00001000
00010000
00001000
00000100
,
00000110
00000000
00000010
00001000
00000000
00001000
00000100
00000000
,
00010100
00000000
00010000
00001000
00000000
00001000
00100000
00000000
,
00010000
00100000
00010000
00000000
10000000
00100000
10000000
00000000
,
01000000
00000000
00000000
01000000
00000000
00000000
00100000
00000000
01000000
00000000
00000000
00000000
00010000
00000000
00000000
00000000
,
00001000
00000000
00001000
00000010
00000000
00000010
00000001
00000000
,
00000010
00000100
00000010
00000100
00010000
00000000
00000000
00000000
,
00001000
00000000
00001000
00000000
00100000
00000000
00100000
00000000
00010000
00000000
00010000
00000000
,
02000000
03200000
20300000
30020000
,
10030000
00100000
00010000
00001000
,
00000100
00000001
00002001
00000000
,
00003001
00000010
00000001
00000000
00000100
00000000
00000010
00001000
,
00000001
00000000
00000020
00000000
00001030
00010000
00001000
00000000
,
00010000
00000000
00100000
01000000
00000000
00010000
10000000
00000000
,
01000000
00100000
00001000
00010000
00002000
00000000
00003000
00000000
,
00010000
00000000
00001000
00000000
00000100
00000001
00001000
00000000
,
00000200
00000000
00000000
00000300
,
00000110
00000010
00000001
00000100
,
00000110
00000010
00010000
00001000
,
00011000
00010000
01000000
10000000
,
00100000
00010000
00011000
00000000
,
00010000
00000100
00001000
00001001
,
00000001
00000100
00001000
00011000
,
00010000
00100000
01000000
00000000
00100000
10000000
00010000
00000000
,
00100000
00001000
00010000
00000000
00001000
00000010
00000100
00010000
,
00002000
00000000
00000000
00000000
,
00000000
00000000
00000000
00000000
,
00003000
00000000
00000000
00000000
;

//---------------dance-double - Princess Pamela/t7r----------------
#NOTES:
     dance-double:
     Princess Pamela/t7r:
     Hard:
     17:
     :
00000000
00000000
00000000
00000000
,
00000000
00000000
00000000
00000000
,
00000000
00000000
00000000
00000000
,
00000000
00000000
00000000
00000000
,
00000000
00000000
00000000
00000000
,
00000000
00000000
00000000
00000000
,
00001000
00000000
00000000
00100000
00010000
00000000
10000000
00000000
00100000
01000000
00000000
00010000
10000000
00000000
01000000
00000000
,
00100000
00000000
00000000
00001000
00010000
00000000
00000100
00000000
00001000
00000010
00000000
00001000
00000001
00000000
00000100
00000000
,
00000001
00000000
00000000
00000010
00000100
00000000
00001000
00000000
00000001
00000100
00000000
00001000
00010000
00000000
00001000
00000000
,
01000000
01100000
20020000
30030000
,
01010000
00000000
00010000
00000000
00000000
00010000
00000000
00000000
,
00010000
00000000
00000000
00100000
00000000
00100000
00000000
00000000
,
00010000
00000000
00001000
00000000
00000000
00001000
00000000
00000000
,
00000010
00000000
00000000
00000010
00000000
00000010
00010000
00000000
,
00001000
00010000
00000100
00010000
00001000
00010000
00000010
00010000
,
00001000
00000100
00000001
00000100
00000010
00010000
00001000
00010000
,
01000000
10000000
01000000
00100000
01000000
00010000
00001000
00010000
,
00000020
00000000
00000000
00000000
00000100
00000000
00001030
00000001
00001000
00000000
00000100
00000000
00000010
00000000
00000000
00000000
,
00000001
00000100
00002000
00000000
00013000
01000000
20000000
00000000
,
30100000
00010000
00002000
00000000
00003010
00001000
00020000
00000000
,
00130000
00000000
01000000
00000000
00100000
00000000
00010000
00000000
00001000
00010000
00001000
00010000
00001000
00010000
00001000
00000000
,
00000200
00000000
00000000
00000000
00001300
00000000
00010000
00001000
01000000
00000000
00010000
00000000
00100000
00000000
00000000
00000000
,
00020000
00000000
00000000
00000000
01000000
00000000
00000000
00000000
10000000
00000000
00000000
00100000
00000000
00000000
00000000
00000000
,
00032000
00000100
00003001
00000110
,
00001001
00000000
00000000
00000000
00001000
00000100
00001000
00000100
00001000
00000000
00000100
00000000
00010000
00001000
00010000
00001000
,
00010000
00000000
00001000
00000000
00100000
00010000
00100000
00010000
00100000
00000000
01000000
00000000
10000000
00000000
00010000
00000000
,
02000000
00000000
00000000
00000000
03010000
01000000
00010000
01000000
00010000
00000000
01000000
00000000
00001000
00010000
00001000
00010000
,
00001000
00000000
00010000
00000000
00000100
00001000
00000100
00001000
00000200
00000000
00000000
00000000
00010300
00000000
00000000
00000000
,
00011000
00000000
00000000
00000000
00000100
00001000
00000100
00001000
00000100
00000000
00010000
00000000
00001000
00010000
00001000
00010000
,
00001000
00000000
00010000
00000000
01000000
10000000
01000000
10000000
01000000
00000000
10000000
00000000
00100000
00000000
01000000
00010000
,
10000000
00000000
00000000
00000000
01000000
00100000
00010000
00000000
01000000
00001000
01000000
00001000
01000000
00000000
00001000
00010000
,
00001000
00000000
00000100
00000001
00000000
00000100
00001000
00000000
00000100
00000000
00000010
00001000
00000001
00000000
00001000
00000000
,
00000200
00000000
00000000
00000000
00000310
00000000
00000001
00000010
00000100
00000000
00001000
00000100
00010000
00000000
00001000
00100000
,
00001000
00000000
00010000
00001000
01000000
00000000
00010000
01000000
00100000
00000000
10000000
01000000
00100000
00000000
00010000
00000000
,
10010000
00000000
00000000
00000000
10000000
00000000
00100000
01000000
00010000
00000000
00100000
00010000
00100000
00000000
00001000
00010000
,
00000100
00000000
00001000
00000001
00000100
00000000
00000010
00001000
00000002
00000000
00000000
00000013
00000100
00000000
00000010
00000000
,
00001001
00000000
00000000
00000000
00000000
00000000
00000000
00000000
00000000
00000000
00000000
00000000
00000001
00000000
00000000
00000000
00000000
00000000
00000010
00000000
00000000
00000100
00000000
00000000
00010000
00000000
00000000
00000000
00001000
00000000
00000000
00000000
00010000
00000000
00000000
00000000
00000100
00000000
00000000
00000000
00001000
00000000
00000000
00000000
00000100
00000000
00000000
00000000
,
00010000
00000000
00000000
00000000
00001000
00000000
00000000
00000000
00010000
00000000
00000000
00000000
00001000
00000000
00000000
00000000
00000000
00000000
00000000
00000000
00000000
00000000
00000000
00000000
01000000
00000000
00000000
00000000
00000000
00000000
00100000
00000000
00000000
10000000
00000000
00000000
00010000
00000000
00000000
10000000
00000000
00000000
00100000
00000000
00000000
00000000
00000000
00000000
,
10000000
01000000
10000000
00100000
00010000
00001000
00000100
00000001
,
00000010
00000100
00001000
00000001
00000100
00001000
00001000
00010000
,
00011000
00000000
00000000
00000000
00000000
00000000
00000000
00000000
00000010
00001000
00000001
00000000
00000000
00000000
00000000
00000000
,
00000010
00000100
00001000
00000000
00000000
00000000
00000000
00000000
00000010
00010000
00001000
00000000
00000000
00000000
00000000
00000000
,
10000000
01000000
00100000
00000000
00000000
00000000
00000000
00000000
00001000
00010000
00000010
00000000
00000000
00000000
00000000
00000000
,
00001000
00000100
00000010
00000000
00000000
00000000
00000000
00000000
00002002
00000000
00000000
00000000
00000000
00000000
00003003
00000000
,
00002000
00000100
00000001
00000010
,
00023000
01000000
10000000
00100000
,
00032000
00000010
00000001
00000100
,
00023000
00100000
10000000
01000000
,
00032000
00000100
00000001
00000010
,
00023000
01000000
10000000
00100000
,
00031000
00000100
00010000
00001000
00000100
00000010
00010000
00001000
,
00010000
01000000
00100000
00001000
00010000
00100000
10000000
01000000
,
00010000
00000000
00000000
00000000
,
00000000
00000000
00000000
00000000
,
00011000
00000000
00011000
00000000
00011000
00000000
00010000
01000000
,
00100000
00000000
00110000
00000000
10000000
00100000
01000000
00010000
,
10000000
10000000
10000000
00000000
01000000
00100000
00010000
00010000
,
10000000
00000000
00000000
00100000
00010000
00000000
00001000
00000000
01000000
00000000
00010000
00000000
10000000
00000000
00000000
00000000
,
01000000
00000000
00010000
00002000
00000000
00003100
00000001
00001000
,
00000100
00000100
00000100
00010000
00001000
01000000
00010000
10000000
,
00100000
00100000
00100000
00000000
10000000
00010000
10000000
10000000
,
01000000
00100000
00010000
00000000
00001000
00000000
00000001
00000000
,
00000200
00000000
00000001
00000000
00000010
00000000
00001300
00010000
,
00200000
01000000
10300000
01100000
,
00010000
00010000
00010000
00000000
00100000
01000000
10000000
01000000
,
00010000
00001000
00100000
00100000
00001000
00010000
00000100
00000000
,
00000110
00000000
00000000
00000000
00000010
00000100
00000010
00000000
00000000
00000000
00000100
00000010
00000100
00000000
00001000
00000000
,
00000001
00000001
00000001
00000100
00001001
00000000
00000000
00000000
,
00000001
00000100
00000010
00000000
00000100
00001000
00010000
00001000
,
00200000
00000000
02300000
00000000
03020000
00000000
00031000
00000010
,
00000002
00000000
00000013
00000100
00000000
00000010
00001000
00000010
,
00000002
00000000
00000013
00000100
00000000
00000010
00001000
00000010
,
00000001
00000001
00000001
00000000
00000100
00000100
00000000
00001000
,
00010000
00000000
00000000
01000000
10000000
00000000
00010000
00000000
01000000
00000000
00000000
00000000
01100000
00000000
00000000
00000000
,
20000000
00000000
30100000
01000000
00000000
00100000
00010000
00100000
,
20000000
00000000
30100000
01000000
00000000
00100000
00010000
00100000
,
10000000
00000000
00010000
00001000
00000000
00000001
00001000
00000001
00001000
00000001
00000000
00001000
,
00000002
00000203
00002300
00023000
,
00230000
00000000
10000000
00000000
01000000
00000000
00310000
00001000
,
00000200
00000010
00000301
00000110
,
00001000
00001000
00001000
00000000
00000010
00000100
00000001
00000100
,
00001000
00001000
00010000
00100000
01000000
00100000
10000000
00000000
,
11000000
00000000
00000000
00000000
01000000
00100000
01000000
00000000
00000000
00000000
00100000
01000000
00100000
00000000
00010000
00000000
,
01000000
01000000
01000000
00001000
00011000
00000000
00000000
00000000
,
00000010
00000100
00001000
00010000
00001000
00010000
00100000
01000000
,
00020000
00000000
00000000
00030000
,
10010000
10000000
01000000
00010000
,
00011000
00001000
00000010
00000001
,
00001001
00000001
00000100
00001000
,
00011000
00000000
00010000
00000000
00110000
00000000
00100000
10000000
,
01000000
01100000
00101000
00011000
,
00010010
00000110
00000101
00000011
,
00000010
00000100
00001000
00000010
00010000
00001000
00100000
00010000
,
01000000
00100000
00010000
00001000
00010000
00000010
00000100
00001000
,
00022000
00000000
00000000
00000000
,
00000000
00000000
00000000
00000000
,
00033000
00000000
00000000
00000000
;
