#VERSION:0.83;
#TITLE:m1dy Deluxe;
#SUBTITLE:;
#ARTIST:m1dy;
#TITLETRANSLIT:;
#SUBTITLETRANSLIT:;
#ARTISTTRANSLIT:;
#GENRE:TOKYO STYLE SPEEDCORE;
#CREDIT:;
#MUSIC:m1dy Deluxe.ogg;
#BANNER:m1dy Deluxe.png;
#BACKGROUND:m1dy Deluxe-bg.png;
#CDTITLE:;
#SAMPLESTART:14.580;
#SAMPLELENGTH:18.732;
#SELECTABLE:YES;
#OFFSET:-0.239;
#BPMS:0.000=205.000
,1.000=410.000
,7.000=205.000
,8.000=410.000
,14.000=205.000
,15.000=410.000
,23.000=205.000
;
#STOPS:23.000=0.878;
#DISPLAYBPM:*;
#BGCHANGES:0.000=m1dy Deluxe.avi=1.000=0=0=0=StretchNoLoop====,
99999.000=-nosongbg-=1.000=0=0=0=StretchNoLoop====
;
#FGCHANGES:;

//--------------- dance-single - ----------------
#NOTEDATA:;
#STEPSTYPE:dance-single;
#DESCRIPTION:;
#DIFFICULTY:Beginner;
#METER:8;
#RADARVALUES:0,0,0,0,0;
#OFFSET:-0.239;
#BPMS:0.000=205.000;
#STOPS:4.000=0.147
,7.500=0.147
,12.000=0.878
,41.000=0.878
,198.000=0.878
,227.000=0.878
,256.000=0.293
,257.000=0.293
,286.000=0.878
,290.000=0.147
,293.500=0.147
,297.000=0.147
,300.500=0.147
,313.000=0.878
,374.000=0.878
;
#DISPLAYBPM:*;
#NOTES:
0000
1000
0100
0010
,
0000
0001
0000
0100
0000
0010
0000
0000
,
1000
0100
0010
0001
,
2002
3003
0002
0000
0000
0000
0000
0000
,
0000
0203
0000
0000
,
0000
0320
0000
0000
,
0000
2030
0000
0000
,
0000
3200
0000
0000
,
0000
0320
0000
0000
,
0000
0032
0000
0000
,
0000
0003
2002
3003
1000
0000
0010
0000
,
1000
0000
0001
0010
,
0001
0000
1000
0100
,
1000
0000
0001
0100
,
0001
0000
1000
0100
,
0010
0001
1000
0010
,
0100
0001
1000
0100
,
0010
0000
0100
0000
1000
0000
0000
0001
,
0000
0000
1000
0010
,
1000
0001
0010
0100
,
0010
0001
1000
0100
,
1000
0001
0100
1000
,
0100
0001
1000
0100
,
1000
0001
0100
0010
,
0100
0001
1000
0100
,
0010
0001
2000
3020
,
0032
0203
1300
0001
,
0010
1000
0100
0001
,
0010
1000
0100
0001
,
0010
1000
0100
0001
,
0010
0001
0100
1000
,
0010
0001
0100
1000
,
0010
0001
0100
1000
,
0010
0001
0110
0000
,
0000
1001
1000
0010
,
0001
0010
1000
1000
,
1000
1000
0001
0010
,
0100
1000
0100
0010
,
0001
1000
0001
0010
,
1000
0010
0001
0001
,
0001
0001
1000
0010
,
0100
0001
0100
0010
,
1000
0000
0001
0100
,
1000
0100
0001
0001
,
0001
0001
1000
0100
,
0010
0001
0010
0100
,
1000
0001
1001
0000
,
0000
0000
0110
0000
,
0000
0000
1000
1000
,
0001
0001
1001
1000
,
0000
1000
0000
0100
,
0000
0100
0000
0001
,
0000
0001
0000
0010
,
0000
0010
0000
1000
,
1000
1000
1000
1000
,
1000
1000
1000
1000
,
1000
1000
1000
0000
,
0001
0001
0001
0001
,
0001
0001
0010
1000
,
0010
0010
0010
0010
,
0001
0001
1000
1000
,
0001
0001
0001
0001
,
0001
0001
0100
1000
,
0100
0100
0100
0100
,
0001
0000
1000
0000
,
0100
0000
0010
0000
,
0001
0000
1000
0000
,
0010
0000
0100
0000
,
0001
0000
1000
0000
,
0100
0010
0001
0000
,
0100
0010
1000
0000
,
0001
0000
1001
1000
,
0100
0000
0010
0000
0000
0001
0000
0100
,
0000
0010
0000
0000
1000
0000
0100
0000
,
0010
0000
0000
0001
0000
0100
0000
0010
,
0000
1000
0100
0010
,
0001
0001
0100
0010
,
1000
1000
0100
0010
,
0001
1001
1000
0100
,
0001
0100
1000
0001
,
0100
0010
0001
0010
,
1000
0100
1000
0001
,
0010
0001
0010
0000
0001
0000
0100
0000
,
1000
0100
0001
1000
,
0100
0010
1000
0010
,
0001
0000
1000
0000
1001
0000
0000
0110
,
0000
1001
1000
0010
,
0001
0010
1000
0001
,
0010
0000
0001
1000
0001
0000
0010
0000
,
1000
0010
0001
1000
,
0010
0000
1000
0000
0002
0000
0000
0003
1001
0000
0000
0000
0000
0000
0000
0000
,
0000
0000
0110
0000
,
0000
0000
1001
0000
,
0000
0000
0000
0000
0000
0000
0000
0000
0020
0000
0000
0030
1001
0000
0000
0000
;

//--------------- dance-single - ----------------
#NOTEDATA:;
#STEPSTYPE:dance-single;
#DESCRIPTION:;
#DIFFICULTY:Easy;
#METER:13;
#RADARVALUES:0,0,0,0,0;
#OFFSET:-0.239;
#BPMS:0.000=205.000
,1.000=410.000
,7.000=205.000
,8.000=410.000
,14.000=205.000
,15.000=410.000
,23.000=205.000
,52.000=410.000
,174.000=205.000
,178.000=410.000
,362.000=205.000
,391.000=410.000
,449.000=205.000
,480.000=410.000
,488.000=205.000
,489.000=410.000
,495.000=205.000
,496.000=410.000
,502.000=205.000
,503.000=410.000
,509.000=205.000
,510.000=410.000
;
#STOPS:23.000=0.878
,52.000=0.878
,362.000=0.878
,391.000=0.878
,451.000=0.293
,480.000=0.878
,534.000=0.878
,656.000=0.878
;
#DISPLAYBPM:*;
#NOTES:
0000
1000
0010
0001
,
0000
0010
0000
0000
1000
0000
0000
0000
,
0001
0000
0010
0000
1000
0000
0000
0010
,
0000
0001
0000
1000
,
0010
0000
0001
0000
0000
0010
0000
0000
,
1000
0000
0002
0000
0000
0003
2002
3003
,
1000
0000
0000
1000
0000
0000
1000
0000
,
0001
0000
0000
0001
0000
0000
0001
0000
,
0100
0000
0000
0100
0000
0000
0100
0000
,
0010
0000
0000
0010
0000
0000
0010
0000
,
1000
0000
0000
0100
0000
0000
0010
0000
,
0001
0000
0000
0100
0000
0000
0010
0000
,
1000
0000
0000
0001
0000
0000
1000
0000
,
2002
3003
1000
0000
,
0100
0000
0010
0001
,
1000
0000
0001
0000
,
0100
0010
1000
0001
,
1000
0000
0001
0000
,
0010
0000
0100
1000
,
0001
0000
1000
0010
,
0100
0001
0000
0010
,
0100
0000
1000
0010
,
1000
0000
0001
0010
,
0100
0000
0010
0001
,
1000
0000
0010
0100
,
0001
1000
0001
0010
,
0001
0000
0100
0010
,
1000
0000
0000
0000
1100
0000
0000
0100
,
0000
0000
0110
0000
0000
0010
0000
0000
,
0000
0000
0001
0000
,
0010
0000
0001
1000
,
0010
0000
0001
0000
,
0010
0100
0001
1000
,
0100
0000
0010
0000
,
0100
0000
1000
0001
,
0100
0000
0010
0100
,
0001
0100
0010
1000
,
0100
0000
1000
0000
,
0001
0100
0010
0100
,
0001
0000
1000
0000
,
0100
1000
0001
0010
,
0001
1000
0100
0010
,
0001
0000
0100
0010
,
1000
0000
0001
0000
2000
3200
0302
0000
,
0023
2030
3001
0010
,
1000
0000
0010
0000
,
0001
0000
1000
0000
,
0010
0001
0010
0000
,
1000
0001
1000
0100
,
0001
0000
0100
0000
,
1000
0000
0001
0000
,
0100
0000
1000
0100
,
0001
0000
1000
0010
,
0001
0000
0010
0000
,
1000
0000
0001
0000
,
0010
1000
0010
0000
,
0001
1000
0001
0010
,
0100
1000
0100
0010
,
0001
0000
0000
0000
1001
0000
0000
0001
,
0000
0000
0101
0000
0000
0100
0000
0000
,
0000
0000
0010
1000
,
0010
1000
0001
0000
,
0010
0000
0100
1000
,
0100
1000
0100
1000
,
0001
0000
0000
0000
0100
0000
0000
0100
,
0000
0000
0100
0000
0000
0100
0000
0000
,
0010
0010
1000
0000
,
0001
0010
0100
0010
,
0001
0000
0100
0001
,
0100
0001
1000
0000
,
0100
0000
0010
0001
,
0010
0001
0010
0001
,
1000
0000
0000
0000
0010
0000
0000
0010
,
0000
0000
0010
0000
0000
0010
0000
0000
,
0100
0100
0001
0000
,
0100
0000
1000
0100
,
0001
0000
0010
0001
,
0010
0001
1000
0000
,
0010
0000
0100
0001
,
0100
0001
0100
0001
,
1000
0000
0000
0000
0100
0000
0000
0010
,
0000
0000
1000
0000
0000
0010
0000
0000
,
0001
0001
1000
0000
,
0010
0000
0001
0010
,
1000
0000
1001
0000
,
0000
0000
0000
0000
,
0100
0000
1001
0000
,
0000
0000
0000
0000
,
0010
0000
1001
0000
,
0001
0000
1000
0100
,
0010
0000
0000
0000
0000
0000
0000
0000
0001
0000
0000
0000
0000
0000
0000
0000
2002
3003
0000
0000
0000
0000
0000
0000
1000
0000
0000
0000
0000
0000
0000
0000
,
1000
1000
0000
0001
,
0001
0001
0000
0100
,
0100
0100
0000
0010
,
0010
0010
0000
1000
,
1000
1000
1000
1000
,
1000
1000
1000
1000
,
1000
0000
1000
0001
1000
0001
0000
0000
,
0000
1000
0100
1000
,
0100
1000
0100
1000
,
0100
1000
0100
1000
,
0100
1000
0000
0001
,
0000
0100
0001
0100
,
0001
0100
0001
0100
,
0001
1000
0001
1000
,
0000
0010
0100
0010
,
0000
1000
0010
1000
,
0010
1000
0010
1000
,
0010
1000
0010
1000
,
0010
1000
0000
0001
,
0000
0010
0001
0010
,
0001
0010
0001
0010
,
0001
1000
0001
0000
,
1100
0000
0101
0000
,
1100
0000
0101
0000
,
1010
0000
0011
0000
,
1010
0000
0011
0000
,
1000
0100
0010
0001
,
1000
0010
0100
0001
,
1000
0100
0010
0001
,
1001
0000
0001
0010
,
1000
0000
0000
0010
0000
0000
0001
0000
,
0000
1000
0010
0001
,
0000
0010
0000
0000
1000
0000
0000
0000
,
0001
0000
0100
0000
1000
0000
0000
0100
,
0000
0001
0000
1000
,
0100
0000
0001
0000
0000
0100
0000
0000
,
1000
0002
1003
0010
,
0001
0000
0000
0010
0000
0000
0100
0000
,
1000
0100
0001
0010
,
1000
0000
0000
0010
0000
0000
0100
0000
,
0001
0100
1000
0010
,
0001
0000
0000
0010
0000
0000
1000
0000
,
0001
0000
2002
3003
,
1000
0000
0100
1000
,
0001
0100
0010
0000
,
1000
0010
0001
0000
,
0001
0010
0100
0001
,
1000
0100
1000
0000
,
0001
0100
0010
0000
,
1000
0010
1000
0001
,
0010
1000
0010
0000
,
0001
0000
0100
0001
,
1000
0100
0010
0000
,
0001
0100
1000
0000
,
1000
0100
0010
1000
,
0001
0010
0001
0000
,
1000
0010
0100
0000
,
0001
0010
0100
0010
,
1000
0010
0001
0000
,
1000
0010
1000
0001
,
0010
0100
0010
0001
,
1000
0010
1000
0100
,
1000
0001
0100
1000
,
0100
0010
0100
0001
,
1000
0100
1000
0001
,
0100
0010
1000
0010
,
0001
0000
0000
0000
0010
0000
0000
0000
2000
0000
0000
0000
0000
0000
0000
3000
,
1001
0000
0000
0000
,
0000
0000
0010
0000
,
1001
0000
0000
0000
,
0000
0000
0100
0000
,
1001
0000
0000
0000
,
0000
0000
0000
0000
,
0020
0000
0000
0030
1001
0000
0000
0000
;

//--------------- dance-single - ----------------
#NOTEDATA:;
#STEPSTYPE:dance-single;
#DESCRIPTION:;
#DIFFICULTY:Medium;
#METER:15;
#RADARVALUES:0,0,0,0,0;
#OFFSET:-0.239;
#BPMS:0.000=205.000
,1.000=410.000
,7.000=205.000
,8.000=410.000
,14.000=205.000
,15.000=410.000
,23.000=205.000
,52.000=410.000
,173.000=205.000
,177.000=410.000
,359.000=205.000
,388.000=410.000
,446.000=205.000
,465.000=410.000
,485.000=205.000
,486.000=410.000
,492.000=205.000
,493.000=410.000
,499.000=205.000
,500.000=410.000
,506.000=205.000
,507.000=410.000
,652.000=205.000
;
#STOPS:23.000=0.878
,52.000=0.878
,116.000=0.147
,239.000=0.147
,302.000=0.147
,359.000=0.878
,388.000=0.878
,448.000=0.293
,465.000=0.073
,465.500=0.073
,466.000=0.147
,467.000=0.073
,467.500=0.073
,468.000=0.073
,468.500=0.073
,469.000=0.073
,469.500=0.073
,470.000=0.147
,471.000=0.073
,471.500=0.073
,472.000=0.073
,472.500=0.073
,473.000=0.073
,473.500=0.073
,474.000=0.147
,475.000=0.147
,476.000=0.147
,477.000=0.878
,531.000=0.878
,595.000=0.147
,652.000=0.878
;
#DISPLAYBPM:*;
#NOTES:
0000
1000
0010
0100
,
0001
0010
0000
0010
0100
0000
0000
0000
,
1000
0000
0010
0000
0100
0000
0001
0010
,
0000
0010
0100
0000
0000
0000
1000
0000
,
0010
0000
0100
0000
0001
0010
0000
0010
,
0100
0000
1000
0000
0001
0000
2002
3003
,
1000
0000
0000
0100
0000
0000
1000
0000
0000
0001
0000
0000
0100
0000
0000
0000
,
0001
0000
0000
0000
0010
0000
0000
0100
0000
0000
1000
0000
0001
0000
0000
0000
,
1000
0000
0000
0010
0000
0000
1000
0000
0000
0001
0000
0000
0010
0000
0000
0000
,
0001
0000
0000
0000
0100
0000
0000
0010
0000
0000
1000
0000
0001
0000
1000
0000
,
0001
0000
0000
0010
0000
0000
0001
0000
0000
1000
0000
0000
0010
0000
0000
0000
,
1000
0000
0000
0000
0100
0000
0000
0010
0000
0000
0001
0000
1000
0000
0000
0000
,
0001
0000
0000
0100
0000
0000
0001
0000
0000
1000
0000
0000
0100
0000
0000
0000
,
2002
3003
1000
0100
,
0010
0100
1000
1000
,
0001
0000
1000
0010
,
0100
0001
1000
0001
,
0010
0000
0001
0100
,
0010
0100
0001
0001
,
1000
0000
0001
0010
,
1000
0020
0000
0031
,
1000
0000
0001
0010
,
0100
0010
0001
1000
,
0010
0010
1000
0001
,
0010
0100
1000
0010
,
0100
0010
1000
0100
,
0010
0100
1000
0001
,
0100
0000
0100
0000
0101
0000
0000
0001
,
1000
0000
1100
0000
0000
1000
0001
0000
,
2000
3001
0010
0001
,
1000
0010
0100
0001
,
0001
1000
0100
0010
,
0100
1000
0010
0100
,
0010
1000
0100
1000
,
0001
0100
0010
1000
,
1000
0000
0001
0000
0000
0001
0010
0000
,
0100
0000
0010
0001
1000
0000
0010
0000
,
0001
0010
1000
0001
,
0010
0001
0001
1000
,
0010
1000
0001
0010
,
1000
0010
0010
0001
,
1000
0001
0010
0100
,
1000
0001
0001
0100
,
0010
0000
2000
3200
0302
0203
0320
2030
,
3020
0031
0010
1000
,
0010
0001
0010
1000
,
0010
0001
0001
1000
,
1000
0010
0100
0010
,
1000
0010
0001
0010
,
1000
0010
0001
0010
,
1000
0001
0010
0010
,
0001
1000
0010
0100
,
0001
1000
0100
0001
,
0100
1000
0100
0001
,
0100
1000
1000
0001
,
0100
0001
1000
0010
,
0100
0001
0001
0010
,
0010
0100
0100
2000
,
0000
3000
1001
0000
0000
1000
0010
0000
,
0110
0000
0000
0100
0001
0000
2000
0000
,
3001
0010
0010
0010
,
0001
1000
0010
1000
,
0001
0010
0010
0010
,
0010
0010
0001
1000
,
0100
0010
0001
0010
,
0100
1000
0001
0001
,
1000
0010
0001
0010
,
0010
0010
1000
0001
,
1000
0010
0010
0010
,
1000
0001
0010
0001
,
1000
0010
0010
0010
,
0010
0010
1000
0001
,
0100
0010
1000
0010
,
0100
0001
1000
1000
,
1100
0000
0100
0010
,
1000
0010
0002
1003
,
0100
0100
0100
1000
,
0001
0100
0001
1000
,
0100
0100
0100
0100
,
0100
1000
0001
0010
,
0100
1000
0100
0010
,
0001
1000
1000
0001
,
0100
1000
0100
0100
,
0100
0000
0002
0000
0000
0003
1001
0000
,
0000
0000
0000
0000
,
0000
0100
0000
1001
,
0000
0000
0000
0000
,
0000
0010
0000
1001
,
0001
0000
1000
0000
1000
0000
0001
1000
,
0001
0000
0000
0000
1000
0000
0000
0000
0002
0000
0000
0000
0000
0000
0003
0000
0002
0000
0000
0000
0000
0000
0003
0000
2002
3003
0000
0000
0000
0000
0000
0000
,
1000
0010
0000
0010
1000
0010
1000
0010
,
0100
0001
0000
0001
0100
0001
1000
0001
,
1000
0100
0000
0100
1000
0100
1000
0001
,
0010
0001
0000
0001
0010
0001
0100
0001
,
1000
0010
0000
0001
0010
0100
0010
1000
,
0001
0010
0000
1000
0010
0001
0010
0100
,
1000
0100
0000
0001
0100
0010
0100
1000
,
0000
0000
1000
1000
,
0010
0010
0100
0100
,
0001
0001
0010
0010
,
0100
0100
1000
0010
,
0001
0010
1000
1000
,
0100
0100
0010
0010
,
0001
0001
0010
0010
,
0010
0010
0100
0100
,
0100
0100
1000
1000
,
0100
0100
0010
0010
,
0001
0001
0100
0100
,
0010
0010
1000
0100
,
0001
0100
1000
1000
,
0010
0010
0100
0100
,
0001
0000
0000
0000
0001
0000
0000
0000
1000
0000
0001
1000
0001
0000
1000
0000
,
0000
0011
0000
0101
,
0000
1100
0000
1010
,
0000
0011
0000
1010
,
0000
1100
0000
0101
,
1001
0000
2000
3200
2300
3000
0002
0203
,
0320
2030
3002
0023
0032
0003
2000
3020
,
0230
0302
2003
3200
2300
3000
0020
0030
,
0200
0000
0000
0000
0300
0000
0000
0000
2002
3003
0000
0000
0000
0000
0000
0000
0000
0000
0000
0000
0000
0000
0000
0000
1000
0000
0000
0000
0000
0000
0000
0000
,
0010
0000
0100
0000
0001
0010
0000
0010
,
0100
0000
1000
0010
,
0100
0000
0001
0010
0000
0010
0100
0000
,
0000
1000
0010
0100
,
0001
0010
0000
0010
0100
0000
0000
0000
,
1000
0000
0010
0000
0100
0000
0001
0010
,
0000
0010
0100
0000
2000
0000
3001
0000
,
0010
0000
0100
0000
1000
0010
0000
0010
,
0100
0010
1000
0001
,
0010
0000
0100
0000
1000
0010
0000
0010
,
0100
0010
1000
0001
,
0010
0000
0100
0000
1000
0010
0000
0010
,
0100
0010
1000
2002
,
0000
3003
1100
0000
0100
0000
0010
0000
,
0001
1000
0010
0100
,
0010
1000
0001
0010
,
0100
0010
0001
0000
1000
0000
0010
0000
,
0001
0010
1000
0001
,
0010
0001
1000
0010
,
1000
0001
1000
0000
0001
0000
0010
0000
,
1000
0000
0010
0001
0010
0001
0010
0000
,
0100
1100
1000
0001
,
0100
0010
0100
0000
0001
0000
1000
0000
,
0100
1000
0001
0010
,
0100
0010
0001
0000
1000
0000
0010
0000
,
0001
0010
0100
0001
,
1000
0000
0100
0000
0010
0000
0001
1000
,
0000
0000
1001
0000
0001
0010
0100
0000
,
0110
0000
0100
0010
0100
1000
0002
0003
,
1010
0010
0100
0001
,
1000
0100
1000
0000
0001
0000
0100
0000
,
0001
0000
1000
0000
0010
0000
1000
0100
,
1000
0000
0001
0000
0100
0000
0010
0100
,
0001
1000
0100
0010
,
0001
0010
0001
0000
1000
0000
0010
0000
,
1000
0001
0010
1000
,
0010
0000
0001
0000
0010
0000
0001
0000
2000
0000
0000
0000
3002
0000
0000
0003
,
1001
0000
0000
0000
,
0000
0000
0010
0000
,
1001
0000
0000
0000
,
0000
0000
0100
0000
,
1001
0000
0000
0000
,
0000
0000
0000
0000
,
0020
0000
0000
0030
1001
0000
0000
0000
0000
0000
0000
0000
0000
0000
0000
0000
;

//--------------- dance-single - ----------------
#NOTEDATA:;
#STEPSTYPE:dance-single;
#DESCRIPTION:;
#DIFFICULTY:Hard;
#METER:18;
#RADARVALUES:0,0,0,0,0;
#OFFSET:-0.239;
#BPMS:0.000=205.000
,1.000=410.000
,7.000=205.000
,8.000=410.000
,14.000=205.000
,15.000=410.000
,23.000=205.000
,52.000=820.000
,56.000=410.000
,175.000=205.000
,179.000=410.000
,361.000=205.000
,390.000=820.000
,394.000=410.000
,450.000=205.000
,469.000=410.000
,489.000=205.000
,490.000=410.000
,496.000=205.000
,497.000=410.000
,503.000=205.000
,504.000=410.000
,535.000=820.000
,539.000=410.000
,658.000=820.000
,662.000=410.000
;
#STOPS:23.000=0.878
,52.000=0.878
,118.000=0.147
,241.000=0.147
,304.000=0.147
,361.000=0.878
,390.000=0.220
,391.000=0.220
,392.000=0.220
,393.000=0.220
,452.000=0.293
,469.000=0.073
,469.500=0.073
,470.000=0.147
,471.000=0.073
,471.500=0.073
,472.000=0.073
,472.500=0.073
,473.000=0.073
,473.500=0.073
,474.000=0.147
,475.000=0.073
,475.500=0.073
,476.000=0.073
,476.500=0.073
,477.000=0.073
,477.500=0.073
,478.000=0.147
,479.000=0.147
,480.000=0.147
,481.000=0.878
,510.000=0.019
,510.125=0.018
,510.250=0.019
,510.375=0.018
,510.500=0.019
,510.625=0.018
,510.750=0.019
,510.875=0.018
,535.000=0.878
,601.000=0.147
,658.000=0.878
;
#DISPLAYBPM:*;
#NOTES:
0000
0000
0001
0010
0100
1000
0001
0000
,
0100
1000
0000
0100
0001
0000
0000
0000
,
1000
0100
0010
0001
1000
0000
0010
0001
,
0000
0010
1000
0000
0000
0000
0001
0010
,
0100
1000
0001
0000
0100
1000
0000
0100
,
0001
0000
0000
0000
0020
0000
0000
0000
0230
0000
0000
0300
2002
0000
3003
0000
,
1000
0000
0000
0010
1000
0000
0010
1000
0000
0010
1000
0000
0001
0000
0000
0000
,
0010
0000
0000
0000
0001
0000
0010
0001
0000
0010
0001
0000
0100
0000
0010
0000
,
1000
0000
0000
0100
1000
0000
0100
1000
0000
0100
1000
0000
0001
0000
0000
0000
,
0100
0000
0000
0000
0001
0000
0100
0001
0000
0000
0010
0100
0010
0000
0000
0000
,
0001
0000
0000
1000
0010
0000
1000
0001
0000
1000
0010
0000
1000
0000
0000
0000
,
0001
0000
0000
0000
0010
0000
0001
1000
0000
0001
0100
0000
0010
0000
1000
0000
,
0001
0000
0000
0010
0001
0000
1000
0001
0000
0100
0001
0000
1000
0000
0000
0000
,
2002
0000
0000
3003
,
1000
0000
0100
0010
0100
0000
1000
0000
,
0001
0100
0001
0000
1000
0000
0010
0100
,
0001
0000
1000
0100
1000
0000
0001
0100
,
0001
0100
0001
0000
0010
0000
0100
1000
,
0001
0000
0100
0010
0100
0000
0001
0000
,
1000
0100
1000
0000
0001
0000
0100
0010
,
1000
0000
0001
0010
0001
0010
0001
0000
,
0000
0010
0100
0010
0200
0000
0000
0000
,
1300
0000
0010
0100
0010
0000
1000
0000
,
0001
0010
0001
0000
1000
0000
0100
0010
,
0001
0000
1000
0010
1000
0010
1000
0000
,
0001
0010
0001
0000
0100
0000
0010
1000
,
0001
0000
0010
0100
0010
0000
0001
0000
,
1000
0010
1000
0000
0001
0000
0000
0000
,
1001
0000
1000
0010
1000
0000
1001
0000
,
0000
0001
0010
0001
0020
0000
0031
0000
,
0100
0010
0100
0000
0001
0000
1000
0100
,
1000
0000
0001
0000
0010
0100
1000
0000
,
0001
0100
0010
0100
0001
0000
1000
0100
,
1000
0000
0001
0000
0100
0010
1000
0000
,
0100
0010
0100
0000
1000
0000
0001
0100
,
0001
0000
1000
0000
0100
0010
0001
0000
,
1000
0010
1000
0000
0001
0000
0010
0100
,
0010
0001
1000
0000
0001
0000
1000
0000
,
0010
0100
0010
0000
1000
0001
0010
0001
,
0010
0000
0100
0000
1000
0001
0100
0000
,
0010
1000
0010
1000
0010
0000
0100
0001
,
0100
0000
0001
0000
0010
0100
1000
0000
,
0001
0100
0001
0000
1000
0000
0100
0010
,
0001
0000
0000
0000
1000
0000
0001
0000
1000
0000
0000
0000
0002
0203
0320
2030
,
3200
0000
0320
0032
2003
0000
3020
2030
3002
0000
0000
0000
1003
0000
0000
0000
,
0100
1000
0100
0000
0010
0001
0010
0000
,
0100
1000
0100
0000
0010
0001
1000
0001
,
1000
0000
0010
0100
0010
0100
0010
0100
,
0010
0000
1000
0000
0001
1000
0001
0100
,
0001
0100
0001
0000
1000
0010
1000
0000
,
0001
0100
0001
0000
1000
0010
1000
0001
,
0100
0010
0100
0010
1000
0000
0100
0010
,
0100
0010
0001
0000
1000
0000
0001
0000
,
0100
0001
0100
0000
0010
1000
0010
0000
,
0100
0001
0100
0000
0010
1000
0010
0000
,
0100
0001
1000
0001
1000
0001
0100
0010
,
0100
0000
0010
0000
1000
0001
1000
0100
,
1000
0100
0010
0001
0010
0001
1000
0010
,
0100
0001
1000
0002
0000
0003
1001
0000
,
0001
0010
0100
0000
0110
0000
0010
0100
,
1000
0000
0002
0000
1003
0000
0010
0100
,
0001
0100
0010
0000
0100
0000
0001
0000
,
1000
0000
1000
0000
0100
0000
1000
0100
,
1000
0100
1000
0100
1000
0100
1000
0000
,
0001
0000
0100
0010
1000
0000
0001
0010
,
0000
0010
0100
0000
0100
1000
0000
1000
,
0010
0010
0100
1000
,
0100
0000
0001
1000
0100
1000
0100
1000
,
0001
0000
0000
0000
1000
0000
0100
0010
,
0001
0010
0100
0000
0010
0000
0001
0000
,
1000
0000
1000
0000
0010
0000
0100
0001
,
0100
0001
0100
0001
0100
0001
0100
0000
,
0001
0000
0010
0100
1000
0000
0001
0100
,
0000
0100
0010
0000
0010
1000
0000
1000
,
0001
0001
1001
0001
,
0010
0000
1000
0010
0100
0000
1000
0000
,
2002
3003
0001
0000
0100
0010
1000
0010
,
0100
0010
1000
0001
,
0001
0000
0010
0000
0001
0010
0001
0010
,
0001
0010
0001
0010
0001
0000
1000
0000
,
0010
0100
0001
0000
1000
0100
0000
0100
,
0010
0000
0010
0001
0000
0001
0100
0000
,
0100
0000
0010
0000
1000
0001
0010
0000
,
1000
0000
0010
0001
1000
0000
0002
0000
,
0000
0003
1001
0000
0000
0000
0000
0000
,
0000
0000
0000
0010
,
0000
1001
0000
0000
,
0000
0000
0000
0100
,
0000
1001
1000
1001
,
0001
0000
1000
0100
0010
0001
0200
0000
,
0320
0000
0000
0000
0000
0000
0030
0000
2002
3003
0000
0000
0000
0000
0000
0000
1000
0000
0000
0000
0100
0000
1000
0000
0100
0000
0000
0000
1000
0000
0000
0000
,
0100
0000
1000
0000
0100
0000
0010
0000
0001
0000
0100
0001
0100
0000
0001
0000
,
0100
0000
0001
0000
1000
0000
0001
0000
1000
0000
0010
1000
0010
0000
1000
0000
,
0010
0000
1000
0000
0010
0000
0100
0000
0001
0000
0010
0001
0010
0000
0001
0000
,
0010
0001
1000
0100
1100
0000
1010
0000
,
0101
0011
0110
1001
,
0011
0101
1010
1100
,
0110
0000
0000
0001
1000
0000
0001
0000
M000
0000
0000
0000
MM00
0000
0000
0000
,
MMM0
MMMM
1100
1000
,
1100
1000
1100
1000
,
1100
1000
1100
1000
,
1100
1000
1100
1000
,
0010
0100
0101
0001
,
0101
0001
0101
0001
,
0101
0000
0001
0000
1001
0000
1000
0001
,
1000
1000
1001
0001
,
1001
1000
1010
1000
,
1010
1000
1010
1000
,
1010
1000
1010
1000
,
1010
1000
1010
1000
,
0100
0010
0011
0001
,
0011
0001
0011
0001
,
0011
0000
0000
0000
0001
0000
0000
0000
1000
0000
0001
1000
0001
0000
1000
0000
,
0000
1100
0100
0110
,
0010
1010
0010
0011
,
0001
1001
1000
1010
,
0010
0000
0000
0000
0011
0000
0000
0000
0010
0000
0000
0000
1010
0000
0000
1000
,
0001
1000
0002
0023
2030
3000
0020
0032
,
2003
3020
2030
3200
0302
0003
0200
2300
,
3002
0203
0302
0023
2030
3000
0020
0030
,
0002
0000
0000
0000
0003
0000
0000
0000
2002
3003
0000
0000
0000
0000
0000
0000
0000
0000
0000
0000
0000
0000
0000
0000
0001
0000
0000
0000
0010
0000
0000
0000
,
0100
1000
0001
0000
0100
1000
0000
0100
,
0001
0000
0000
0000
1000
0100
0010
0001
,
1000
0000
0010
0001
0000
0010
1000
0000
,
0000
0000
0001
0010
0100
1000
0001
0000
,
0100
1000
0000
0100
0001
0000
0000
0000
,
1000
0100
0010
0001
1000
0000
0010
0001
,
0000
0010
1000
0000
0200
0320
0031
0100
,
0010
1000
0001
0000
0010
1000
0000
0010
,
0001
0000
0010
0000
0100
0000
1000
0010
,
0100
0001
1000
0000
0100
0001
0000
0100
,
1000
0000
0100
0000
0010
0000
0001
0100
,
0010
1000
0001
0000
0010
1000
0000
0010
,
0001
0010
0100
2002
,
0000
0000
3003
1000
,
0010
0100
0010
0000
1000
0000
0001
0010
,
0100
0000
0010
0000
0001
1000
0010
0000
,
1000
0001
0100
0000
0010
1000
0010
1000
,
0010
0000
0010
0000
1000
0001
1000
0000
,
0100
0010
0100
0000
1000
0000
0010
0100
,
0001
0000
1000
0000
0100
0010
0001
0000
,
1000
0010
1000
0000
0001
0000
0010
0100
,
0010
0100
0010
0000
0100
0000
1000
0000
,
0010
0100
0010
0000
1000
0001
0010
0100
,
0010
0001
1000
0010
,
0001
0000
0010
1000
0001
0000
0010
0001
,
0010
0000
0001
0000
0010
0100
1000
0000
,
0010
0000
0010
0000
1000
0001
0010
0001
,
1000
0000
0010
0200
0000
0300
1001
0000
,
0001
0010
0100
1000
0010
0000
0000
0100
,
0001
1000
0002
0000
1003
0000
0100
0010
,
0100
0000
1000
0000
0001
0100
0001
0000
,
0010
0000
0100
0010
0001
0000
1000
0010
,
0100
0001
0100
0010
0100
0001
1000
0000
,
0100
0000
0010
0001
1000
0000
0010
0100
,
0010
0000
1000
0001
0010
0100
1000
0000
,
0001
0000
1000
0000
0010
0000
0001
0010
,
1000
0010
1000
0001
0010
0100
0010
0001
,
2000
0000
0000
0000
3002
0000
0000
0003
1001
0000
0000
0000
0000
0000
0000
0000
,
0000
0000
0000
0000
,
0010
0000
1001
0000
,
0000
0000
0000
0000
,
0100
0000
1001
0000
,
0000
0000
0000
0000
,
0000
0000
0020
0000
,
0000
0000
0000
0030
1001
0000
0000
0000
;

//--------------- dance-single - ----------------
#NOTEDATA:;
#STEPSTYPE:dance-single;
#DESCRIPTION:;
#DIFFICULTY:Challenge;
#METER:18;
#RADARVALUES:0,0,0,0,0;
#OFFSET:-0.239;
#BPMS:0.000=205.000
,1.000=410.000
,7.000=205.000
,8.000=410.000
,14.000=205.000
,15.000=410.000
,24.000=205.000
,40.000=1640.000
,64.000=820.000
,68.000=410.000
,70.000=205.000
,71.000=102.500
,71.500=51.250
,71.750=25.625
,71.875=12.813
,71.938=6.406
,72.000=820.000
,76.000=410.000
,138.000=820.000
,140.000=410.000
,196.000=205.000
,199.500=410.000
,200.000=820.000
,201.000=410.000
,255.500=820.000
,257.500=410.000
,264.000=820.000
,266.000=410.000
,328.000=820.000
,330.000=410.000
,360.000=820.000
,364.000=410.000
,388.000=205.000
,417.000=820.000
,421.000=410.000
,477.000=820.000
,481.000=205.000
,498.000=410.000
,518.000=205.000
,519.000=410.000
,525.000=205.000
,526.000=410.000
,532.000=205.000
,533.000=410.000
,564.000=820.000
,568.000=410.000
,630.000=820.000
,632.000=410.000
,688.000=205.000
,691.000=1640.000
,699.000=410.000
;
#STOPS:23.000=1.025
,72.000=0.878
,138.000=0.147
,264.000=0.147
,328.000=0.147
,388.000=0.878
,417.000=0.220
,418.000=0.220
,419.000=0.220
,420.000=0.220
,477.000=0.074
,478.000=0.037
,478.500=0.037
,479.000=0.074
,480.000=0.074
,481.000=0.293
,498.000=0.073
,498.500=0.073
,499.000=0.147
,500.000=0.073
,500.500=0.073
,501.000=0.073
,501.500=0.073
,502.000=0.073
,502.500=0.073
,503.000=0.147
,504.000=0.073
,504.500=0.073
,505.000=0.073
,505.500=0.073
,506.000=0.073
,506.500=0.073
,507.000=0.147
,508.000=0.147
,509.000=0.147
,510.000=0.878
,539.000=0.019
,539.125=0.018
,539.250=0.019
,539.375=0.018
,539.500=0.019
,539.625=0.018
,539.750=0.019
,539.875=0.018
,564.000=0.878
,630.000=0.147
;
#SPEEDS:0.000=1.000=0.000=0,
691.000=100.000=7.000=0,
699.000=1.000=0.000=0
;
#SCROLLS:0.000=1.000,
688.000=0.500,
691.000=0.125,
699.000=1.000
;
#DISPLAYBPM:*;
#NOTES:
0000
0000
1000
0100
0010
0001
1000
0000
,
0010
0001
0000
0010
1000
0000
0000
0000
,
0001
0010
0100
1000
0001
0000
0100
1000
,
0000
0100
0001
0000
0000
0000
1000
0100
,
0010
0001
1000
0000
0010
0001
0000
0010
,
1000
0000
0000
0000
0200
0000
0000
0000
0320
0000
0000
0030
2002
0000
3003
0000
,
1000
0000
0000
0100
1000
0000
0100
1000
0000
0100
1000
0000
0100
0000
0010
0000
,
0001
0000
0000
0000
0100
0000
0001
0100
0000
0001
0010
0000
0100
0000
1000
0000
,
0001
0000
0000
0010
0001
0000
0010
0001
0000
0010
0001
0000
0010
0000
0100
0000
,
1000
0000
0000
0000
0010
0000
1000
0010
0000
0100
0000
0001
1000
0000
0000
0000
,
2002
0000
0000
0000
,
0000
0000
0000
0000
,
0000
0000
0000
0000
,
0000
0000
0000
0000
,
0000
0000
0000
0000
,
0000
0000
0000
0000
,
0000
0000
0000
0000
,
0000
0000
0000
0000
0000
0000
0000
0000
0000
0000
0000
0000
0000
0000
0000
0000
0000
0000
0000
0000
0000
0000
0000
0000
0000
0000
0000
0000
0000
0000
0000
0000
0000
0000
0000
0000
0000
0000
0000
0000
0000
0000
0000
0000
0000
0000
0000
0000
0000
0000
0000
0000
0000
0000
0000
0000
0000
0000
0000
0000
0000
0000
0000
0000
0000
0000
0000
0000
0000
0000
0000
0000
0000
0000
0000
0000
0000
0000
0000
0000
0000
0000
0000
0000
0000
0000
0000
0000
0000
0000
0000
0000
0000
0000
0000
0000
0000
0000
0000
0000
0000
0000
0000
0000
0000
0000
0000
0000
0000
0000
0000
0000
0000
0000
0000
0000
0000
0000
0000
0000
0000
0000
0000
0000
0000
0000
0000
0000
0000
0000
0000
0000
0000
0000
0000
0000
0000
0000
0000
0000
0000
0000
0000
0000
0000
0000
0000
0000
0000
0000
0000
0000
0000
0000
0000
0000
0000
0000
0000
0000
0000
0000
0000
0000
0000
0000
0000
0000
0000
0000
0000
0000
0000
0000
0000
0000
0000
0000
0000
0000
0000
0000
0000
0000
0000
0000
0000
0000
0000
0000
0000
3003
,
2002
0000
0000
3003
,
1000
0000
0100
0010
0001
0000
1000
0000
,
0010
0001
0010
0000
0100
0000
0001
0010
,
0001
0000
0100
0010
1000
0000
0010
1000
,
0001
0100
0001
0000
1001
0000
1000
0100
,
1000
0000
0010
0100
0001
0000
0010
0000
,
1000
0010
0100
0000
1000
0000
0010
0100
,
0001
0000
0010
0100
1000
0100
0010
0000
,
0000
0001
1000
0010
0200
0000
0302
0003
,
1001
0000
1000
0100
0010
0000
0001
0100
,
0010
0100
0001
0000
0010
0000
0100
1000
,
0001
0000
0100
0010
0100
1000
0100
0000
,
0010
1000
0001
0000
0010
0000
0100
1000
,
0001
0000
0010
0100
0010
0000
0001
1000
,
0010
0100
0010
0000
1000
0001
0000
0000
,
1001
0000
1000
0100
0010
0000
0110
0000
,
0100
1000
0001
0100
0020
0000
0000
0030
,
1010
0000
1000
0001
0010
0000
1000
0000
,
0010
0001
1000
0000
0010
0000
0100
0001
,
1000
0000
0100
0010
0100
0001
0100
0000
,
0010
0001
1000
0000
0010
0000
0001
0010
,
1000
0000
0001
1000
0010
0000
0001
0000
,
0010
1000
0001
0000
0010
0000
0100
1000
,
0001
0000
0100
0010
0100
0001
1000
0000
,
0100
0001
0100
1000
0001
0000
1000
0000
,
1100
0000
1000
0001
0100
0000
1000
0000
,
0100
0001
1000
0000
0100
0000
0010
0001
,
1000
0000
0010
0100
0010
0001
0010
0000
,
0100
0001
1000
0000
0100
0000
0001
0100
,
1000
0000
0001
1000
0100
0000
0001
0000
,
0100
1000
0001
0000
0200
0000
0320
0000
,
2030
3200
0302
0203
2300
0000
3002
0203
2300
0000
3002
0023
2030
0000
0000
0000
,
0000
0000
3001
0000
0010
0100
1000
0000
,
0010
0100
0001
0000
0010
0100
0010
0000
,
0001
1000
0010
1000
0010
0000
0010
0000
,
0010
0100
0001
0010
0100
0000
0010
0001
,
1000
0001
1000
0010
1000
0001
0010
0000
,
0100
1000
0010
0000
0100
0001
0010
0000
,
0001
1000
0010
0000
0100
0001
0100
0001
,
1000
0000
0100
0001
0100
1000
0001
0000
,
1000
0000
0001
0010
0100
0010
0001
0000
,
0100
0010
1000
0000
0100
0010
0001
0000
,
0100
0010
1000
0000
0100
0010
0001
0010
,
0001
0010
0100
1000
0001
0000
0100
1000
,
0100
0001
1000
0100
0010
0100
1000
0001
,
0100
0010
1000
0100
0010
0001
1000
0020
,
0000
0000
0000
0030
1010
0000
1000
0100
,
0010
0000
0011
0000
0000
0001
1000
0001
,
2000
0000
0000
0000
3001
0000
1000
0100
,
0010
0001
0010
0001
0010
0000
0100
0000
,
1000
0010
1000
0000
0001
0000
0010
0001
,
0010
0100
0010
0001
0010
0100
0010
0000
,
0001
0000
0010
0100
1000
0000
0001
0100
,
0001
0000
1000
0010
1000
0001
0010
0001
,
0100
0000
0100
0000
0010
0000
1000
0001
,
0010
0000
0010
0001
0100
0010
0100
0001
,
1000
0000
0100
0000
1000
0000
0001
0100
,
0010
1000
0010
1000
0010
0000
0100
0000
,
0001
0010
0001
0000
1000
0010
0100
0010
,
1000
0010
0100
0010
1000
0010
0100
0010
,
1000
0000
0001
0010
0100
0000
0010
0001
,
0010
0100
1000
0100
1000
0001
0100
0000
,
0010
0000
0010
1000
0001
0000
0010
0000
,
1000
0010
0001
1000
0010
0000
0100
0000
,
2002
0000
0000
3003
0001
0000
1000
0010
,
0100
0001
0100
0001
0100
0000
0010
0000
,
1000
0100
1000
0000
0001
0000
0100
0010
,
0100
0001
0100
0010
0100
0001
0100
0000
,
0001
0000
0100
0010
1000
0000
0001
0010
,
0001
0000
1000
0100
1000
0001
0100
0001
,
0010
0000
0010
0000
0100
0000
1000
0001
,
0100
0000
0100
0001
0010
0100
1000
0000
,
0002
0000
0000
0003
,
1001
0000
0000
0000
,
0000
0000
0100
0000
,
1001
0000
0000
0000
,
0000
0000
0010
0000
,
1001
1100
1001
0101
,
0100
0000
0010
0000
1000
0000
0100
0000
0020
0000
0000
0000
0032
0000
0000
0003
,
2002
3003
0000
0000
0000
0000
0000
0000
1000
0000
0000
0000
0010
0000
1000
0000
0010
0000
0000
0000
1000
0000
0000
0000
0001
0000
0000
0000
0010
0000
0000
0000
,
0100
0000
0010
0000
0001
0000
0100
0001
0100
0000
0010
0000
1000
0000
0100
0000
,
0010
0000
0100
0000
1000
0000
0100
1000
0100
0000
0010
0000
0001
0000
0100
0000
,
0010
0000
0100
0000
0001
0000
0010
0001
0010
0000
0001
0010
0100
0000
1000
0010
,
0100
0001
0101
0000
1100
0000
1010
0000
,
0011
0101
0011
1010
,
1100
0000
0000
0000
0101
0000
0000
0000
0011
0000
0000
0000
0110
0000
0000
1000
,
0001
0001
M000
0000
MM00
0000
MMM0
0000
,
MMMM
1001
1100
1001
,
0101
1001
1100
1001
,
0101
1001
1100
1001
,
0101
1001
1100
1010
,
1100
0000
1001
0000
0001
0010
0100
0000
,
1000
0010
0100
0000
0001
0010
0100
0000
,
1000
0000
1100
0000
0100
0001
0100
0000
,
1000
1100
0110
0011
,
0001
1000
1001
0000
0011
0000
1001
0000
,
1010
1001
0011
1001
,
1010
1001
0011
1001
,
1010
1001
0011
0101
,
0011
0000
1001
0000
1000
0100
0010
0000
,
0001
0100
0010
0000
1000
0100
0010
0000
,
0001
0000
2000
0000
3002
2003
3002
0000
,
2003
3000
1100
0010
,
0101
1000
0011
0100
,
1010
0001
0110
1000
,
0101
0010
1001
0100
,
1010
0000
0000
0100
0001
0000
0001
0000
2000
0000
3200
0000
0302
0000
0003
0000
,
0200
2300
3002
0203
0302
0023
2030
3000
,
0020
0032
2003
3020
2030
3200
0302
0003
,
2200
0000
0000
0000
3300
0000
0000
0000
2020
0000
0000
0000
3030
0000
0000
0000
2002
3003
0000
0000
0000
0000
0000
0000
0000
0000
0000
0000
0000
0000
0000
0000
,
1000
0100
0010
0001
1000
0000
0010
0001
,
0000
0010
1000
0000
0000
0000
0001
0010
,
0100
1000
0001
0000
0100
1000
0000
0100
,
0001
0000
0000
0000
1000
0010
0100
0001
,
1000
0000
0100
0001
0000
0100
1000
0000
,
0000
0000
0001
0100
0010
1000
0001
0000
,
0010
1000
0000
0010
0001
0000
0200
0320
,
1030
0100
0010
0001
0100
0000
1000
0100
,
0000
0001
0010
0000
0100
0000
1000
0000
,
0001
0100
0010
1000
0100
0000
0001
0100
,
0000
1000
0010
0000
0100
0000
0001
0000
,
1000
0100
0010
0001
0100
0000
1000
0001
,
0000
0010
1000
0000
0100
0000
0010
0000
,
2002
0000
0000
3003
,
1100
0000
0100
0010
0001
0000
0100
0010
,
0100
1000
0100
0000
0001
0000
1000
0100
,
0010
0000
0001
0100
0001
0000
0010
0100
,
1000
0001
0100
0000
1000
0000
0100
0001
,
1000
0000
0010
0100
0010
0000
1000
0000
,
0001
0010
1000
0000
0010
0000
0001
1000
,
0010
0000
0001
0010
0100
0010
1000
0000
,
0001
0010
1000
0010
0001
0000
1000
0000
,
1010
0000
0010
0100
0001
0000
0010
0100
,
0010
1000
0010
0000
0001
0000
1000
0010
,
0100
0000
0001
0000
0010
0001
0100
0010
,
1000
0001
0010
0000
1000
0000
0010
0001
,
1000
0000
0100
0010
0100
0000
1000
0000
,
0001
0100
1000
0000
0100
0002
0000
0000
,
1003
0100
0010
0001
0100
0010
0001
0010
,
0100
0001
0010
0100
2000
0000
0000
3000
,
1001
0000
0001
0010
0100
0000
1000
0100
,
0001
0100
0010
0000
0001
0000
0001
1000
,
0010
0000
0001
0010
0100
0010
1000
0001
,
0010
0100
0010
0000
0110
0000
0010
0100
,
1000
0000
0010
0100
0001
0000
0010
0001
,
0100
0010
0100
0000
1000
0000
0100
0001
,
1000
0000
1000
0100
0001
0100
1000
0001
,
0100
0010
0001
0010
1000
0001
1000
0001
,
1001
0000
0000
0000
,
0000
0000
0100
0000
,
1001
0000
0000
0000
,
0000
0000
0010
0000
,
1001
0000
0000
0000
,
0000
0000
0000
0000
,
0110
0000
0000
0020
,
0000
0000
0000
0000
,
0000
0000
0030
1001
;

//--------------- dance-double - ----------------
#NOTEDATA:;
#STEPSTYPE:dance-double;
#DESCRIPTION:;
#DIFFICULTY:Challenge;
#METER:19;
#RADARVALUES:0,0,0,0,0;
#OFFSET:-0.239;
#BPMS:0.000=205.000
,1.000=410.000
,7.000=205.000
,8.000=410.000
,14.000=205.000
,15.000=410.000
,24.000=205.000
,40.000=1640.000
,64.000=820.000
,68.000=410.000
,70.000=205.000
,71.000=102.500
,71.500=51.250
,71.750=25.625
,71.875=12.813
,71.938=6.406
,72.000=820.000
,76.000=410.000
,138.000=820.000
,140.000=410.000
,196.000=205.000
,199.500=410.000
,200.000=820.000
,201.000=410.000
,255.500=820.000
,257.500=410.000
,264.000=820.000
,266.000=410.000
,328.000=820.000
,330.000=410.000
,360.000=820.000
,364.000=410.000
,388.000=205.000
,417.000=820.000
,421.000=410.000
,477.000=820.000
,481.000=205.000
,498.000=410.000
,518.000=205.000
,519.000=410.000
,525.000=205.000
,526.000=410.000
,532.000=205.000
,533.000=410.000
,564.000=820.000
,568.000=410.000
,630.000=820.000
,632.000=410.000
,688.000=205.000
,691.000=1640.000
,699.000=410.000
;
#STOPS:23.000=1.025
,72.000=0.878
,138.000=0.147
,264.000=0.147
,328.000=0.147
,388.000=0.878
,417.000=0.220
,418.000=0.220
,419.000=0.220
,420.000=0.220
,477.000=0.074
,478.000=0.037
,478.500=0.037
,479.000=0.074
,480.000=0.074
,481.000=0.293
,498.000=0.073
,498.500=0.073
,499.000=0.147
,500.000=0.073
,500.500=0.073
,501.000=0.073
,501.500=0.073
,502.000=0.073
,502.500=0.073
,503.000=0.147
,504.000=0.073
,504.500=0.073
,505.000=0.073
,505.500=0.073
,506.000=0.073
,506.500=0.073
,507.000=0.147
,508.000=0.147
,509.000=0.147
,510.000=0.878
,539.000=0.019
,539.125=0.018
,539.250=0.019
,539.375=0.018
,539.500=0.019
,539.625=0.018
,539.750=0.019
,539.875=0.018
,564.000=0.878
,630.000=0.147
;
#SPEEDS:0.000=1.000=0.000=0,
691.000=100.000=7.000=0,
699.000=1.000=0.000=0
;
#SCROLLS:0.000=1.000,
688.000=0.500,
691.000=0.125,
699.000=1.000
;
#DISPLAYBPM:*;
#NOTES:
00000000
00000000
10000000
01000000
00100000
00010000
00100000
00000000
,
00001000
00010000
00000000
00000010
00000100
00000000
00000000
00000000
,
00000001
00000010
00000100
00001000
00000100
00000000
00010000
00001000
,
00000000
01000000
00100000
00000000
00000000
00000000
10000000
01000000
,
00100000
00010000
00100000
00000000
00001000
00010000
00000000
00000010
,
00000100
00000000
00000000
00000000
00002000
00000000
00000000
00000000
00023000
00000000
00000000
00030000
00022000
00000000
00033000
00000000
,
00010000
00000000
00000000
00001000
00100000
00000000
00001000
00010000
00000000
00001000
01000000
00000000
00001000
00000000
00000000
00000000
,
00010000
00000000
00000000
00000000
00001000
00000000
00010000
00001000
00000000
00000100
00001000
00000000
00010000
00000000
00001000
00000000
,
00010000
00000000
00000000
00001000
01000000
00000000
00001000
00010000
00000000
00001000
00100000
00000000
00001000
00000000
00000000
00000000
,
00010000
00000000
00000000
00000000
00100000
00000000
00010000
00001000
00000000
00000100
00000000
00001000
00010000
00000000
00000000
00000000
,
00022000
00000000
00000000
00000000
,
00000000
00000000
00000000
00000000
,
00000000
00000000
00000000
00000000
,
00000000
00000000
00000000
00000000
,
00000000
00000000
00000000
00000000
,
00000000
00000000
00000000
00000000
,
00000000
00000000
00000000
00000000
,
00000000
00000000
00000000
00000000
00000000
00000000
00000000
00000000
00000000
00000000
00000000
00000000
00000000
00000000
00000000
00000000
00000000
00000000
00000000
00000000
00000000
00000000
00000000
00000000
00000000
00000000
00000000
00000000
00000000
00000000
00000000
00000000
00000000
00000000
00000000
00000000
00000000
00000000
00000000
00000000
00000000
00000000
00000000
00000000
00000000
00000000
00000000
00000000
00000000
00000000
00000000
00000000
00000000
00000000
00000000
00000000
00000000
00000000
00000000
00000000
00000000
00000000
00000000
00000000
00000000
00000000
00000000
00000000
00000000
00000000
00000000
00000000
00000000
00000000
00000000
00000000
00000000
00000000
00000000
00000000
00000000
00000000
00000000
00000000
00000000
00000000
00000000
00000000
00000000
00000000
00000000
00000000
00000000
00000000
00000000
00000000
00000000
00000000
00000000
00000000
00000000
00000000
00000000
00000000
00000000
00000000
00000000
00000000
00000000
00000000
00000000
00000000
00000000
00000000
00000000
00000000
00000000
00000000
00000000
00000000
00000000
00000000
00000000
00000000
00000000
00000000
00000000
00000000
00000000
00000000
00000000
00000000
00000000
00000000
00000000
00000000
00000000
00000000
00000000
00000000
00000000
00000000
00000000
00000000
00000000
00000000
00000000
00000000
00000000
00000000
00000000
00000000
00000000
00000000
00000000
00000000
00000000
00000000
00000000
00000000
00000000
00000000
00000000
00000000
00000000
00000000
00000000
00000000
00000000
00000000
00000000
00000000
00000000
00000000
00000000
00000000
00000000
00000000
00000000
00000000
00000000
00000000
00000000
00000000
00000000
00000000
00000000
00000000
00000000
00000000
00000000
00033000
,
00022000
00000000
00000000
00033000
,
00011000
00000000
00001000
00000010
00000001
00000000
00000100
00000000
,
00000010
00010000
00001000
00000000
00010000
00000000
00000000
00000000
,
00011000
00000000
00010000
00100000
10000000
00000000
00010000
01000000
,
00001000
00010000
00000100
00000000
00010000
00000000
00001000
00010000
,
00011000
00000000
00001000
00000100
00000001
00000000
00000010
00000000
,
00000100
00010000
00001000
00000000
00010000
00000000
00000000
00000000
,
00011000
00000000
00010000
01000000
10000000
00000000
00100000
00010000
,
00000000
00001000
00000100
00001000
00010000
00000000
00000000
00000000
,
00011000
00000000
00001000
00000100
00000001
00000000
00000100
00000001
,
00001000
00000100
00010000
00000000
00001000
00000000
00010000
01000000
,
10000000
00000000
00100000
10000000
00010000
00100000
00010000
00000000
,
00001000
00000100
00001000
00000000
00000010
00000000
00000100
00001000
,
00010000
00000000
00001000
00000010
00000001
00000000
00001000
00000010
,
00010000
00001000
00100000
00000000
01000000
10000000
00000000
00000000
,
10010000
00000000
10000000
01000000
00010000
00000000
00001000
00010000
,
00000010
00000100
00001000
00010000
00000000
00000000
00000000
00000000
,
00011000
00000000
00010000
00100000
10000000
00000000
00010000
00100000
,
00001000
00010000
00000100
00000000
00000010
00000000
00001000
00010000
,
00001000
00000000
00001000
00000010
00000001
00000000
00000100
00000001
,
00001000
00000100
00010000
00000000
00100000
00000000
01000000
00001000
,
00010000
00000000
00010000
01000000
10000000
00000000
00100000
10000000
,
00010000
00100000
00001000
00000000
00000010
00000000
00000100
00010000
,
00001000
00000000
00001000
00000100
00000001
00000000
00000010
00000000
,
00001000
00010000
01000000
00010000
00001000
00000000
00010000
00000000
,
00011000
00000000
00001000
00000100
00000001
00000000
00000100
00000010
,
00010000
00001000
00100000
00000000
10000000
00000000
00100000
00001000
,
00010000
00000000
00010000
01000000
10000000
00000000
00100000
01000000
,
00010000
00001000
00000010
00000000
00000100
00000000
00001000
00010000
,
00001000
00000000
00001000
00000010
00000001
00000000
00000100
00000000
,
00001000
00010000
00100000
00000000
10000000
00020000
00000000
00000000
,
20030000
32000000
03020000
00032000
00003020
00000000
00000032
00000203
00002300
00000000
00023000
02030000
23000000
00000000
00000000
00000000
,
00000000
00000000
30100000
00000000
00010000
00001000
00000100
00000000
,
00001000
00010000
01000000
00000000
00010000
00001000
00000010
00000000
,
00000001
00000000
00000010
00001000
00000010
00000000
00000001
00000000
,
00000100
00001000
00010000
00001000
00100000
00000000
00010000
00001000
,
00010000
00100000
01000000
00000000
00010000
00001000
00000010
00000000
,
00001000
00010000
00100000
00000000
00010000
00001000
00000100
00000000
,
00000001
00000100
00001000
00000000
00000100
00000001
00000010
00000000
,
00001000
00000000
00010000
01000000
10000000
01000000
00010000
00000000
,
00001000
00000000
00010000
00100000
10000000
00100000
00010000
00000000
,
00001000
00000100
00000001
00000000
00000010
00001000
00010000
00000000
,
00100000
00010000
00001000
00000000
00000100
00000000
00001000
00000000
,
00010000
01000000
10000000
01000000
00010000
00000000
01000000
00000000
,
10000000
00100000
00010000
00001000
00010000
00000100
00001000
00000001
,
00000100
00000010
00010000
00001000
00010000
00001000
00010000
00002000
,
00000000
00000000
00000000
00003000
00011000
00000000
00010000
00100000
,
10000000
00000000
10010000
00000000
10000000
01000000
00010000
00001000
,
00000000
00000000
00000000
00000000
00010000
00001000
00000010
00000001
,
00000010
00000001
00000010
00000001
00000100
00000000
00000000
00000000
,
00001000
00010000
00001000
00000000
00100000
01000000
10000000
01000000
,
00100000
01000000
10000000
01000000
00100000
01000000
10000000
01000000
,
00100000
00000000
00001000
00010000
00001000
00000000
00100000
00010000
,
00000000
00001000
00000100
00000010
00001000
00010000
00001000
00000000
,
01000000
01000000
10000000
01000000
,
00001000
00000000
00010000
00000100
00000010
00000100
00010000
00001000
,
00010000
00000000
00000000
00000000
00001000
00010000
00100000
10000000
,
00100000
10000000
00100000
10000000
01000000
00000000
00000000
00000000
,
00010000
00001000
00010000
00000000
00000100
00000010
00000001
00000010
,
00000100
00000010
00000001
00000010
00000100
00000010
00000001
00000010
,
00000100
00000000
00010000
00001000
00010000
00000000
00000100
00001000
,
00010000
00100000
00000000
01000000
00010000
00001000
00010000
00000000
,
00000100
00000100
00000001
00000100
,
00001000
01000000
10000000
00001000
,
00022000
00000000
00000000
00033000
00010000
00001000
00000100
00000001
,
00000100
00000001
00000100
00000001
00000010
00000000
00000000
00000000
,
00001000
00010000
00001000
00000000
01000000
00100000
10000000
00100000
,
01000000
00100000
10000000
00100000
01000000
00100000
10000000
00100000
,
01000000
00000000
00001000
00010000
00001000
00000000
01000000
00010000
,
00000000
00001000
00000010
00000100
00001000
00010000
00001000
00000000
,
00100000
00000000
00100000
00000000
10000000
00000000
00100000
00001000
,
00010000
00000000
00000010
00000100
00000010
00010000
00001000
00000000
,
00020000
00000000
00000000
00000000
00000000
00000000
00000000
00030000
,
00011000
00000000
00000000
00000000
,
00000000
00000000
00000100
00000000
,
00011000
00000000
00000000
00000000
,
00000000
00000000
01000000
00000000
,
00011000
00101000
00011000
00010010
,
00010000
00000000
00001000
00000000
00100000
00000000
00010000
00000000
20000000
00000000
00000000
00000000
30020000
00000000
00000000
00030000
,
10010000
00000000
00000000
00000000
10000000
00000000
01000000
10000000
01000000
00000000
00100000
00000000
00010000
00000000
00100000
00000000
,
00010000
00000000
00001000
00000000
00000100
00000000
00001000
00000100
00001000
00000000
00000100
00000000
00000010
00000000
00000001
00000000
,
00001000
00000000
00000001
00000000
00000100
00000000
00000001
00000100
00000001
00000000
00001000
00000000
00000010
00000000
00001000
00000000
,
00000010
00000000
00001000
00000000
00010000
00000000
01000000
00010000
01000000
00000000
00100000
10000000
00100000
00000000
10000000
00000000
,
00010000
10000000
11000000
00000000
00110000
00000000
00001100
00000000
,
00000011
00000101
00001010
01010000
,
10100000
00000000
00000000
00000000
10010000
00000000
00000000
00000000
00011000
00000000
00000000
00000000
00001001
00000000
00000000
00010000
,
00001000
00010000
M0000000
00000000
MM000000
00000000
MMM00000
00000000
,
0000MMMM
00011000
00001100
00011000
,
00110000
00011000
00001100
00011000
,
00110000
00011000
00001100
00011000
,
00110000
00011000
00001100
00000101
,
00001100
00011000
00110000
00011000
,
00001100
00011000
00110000
00011000
,
00001100
00000000
00011000
00000000
00010000
00100000
10000000
00000000
,
10010000
01100000
01100000
01100000
,
00001000
00010000
00011000
00000000
00001010
00000000
00011000
00000000
,
01010000
00011000
00001010
00011000
,
01010000
00011000
00001010
00011000
,
01010000
00011000
00001010
00000011
,
00001010
00011000
01010000
00011000
,
00001010
00011000
01010000
00011000
,
00001010
00000000
00020000
00000000
00032000
00023000
00032000
00000000
,
00023000
00030000
00011000
00001000
,
00001010
00000010
00000011
00000001
,
00000101
00000100
00001100
00001000
,
00011000
00010000
01010000
01000000
,
11000000
00000000
00000000
10000000
00010000
00000000
00001000
00000000
00000002
00000000
00000023
00000000
00002030
00000000
00003000
00000000
,
00020000
00230000
20300000
30002000
20003000
32000000
03020000
00030000
,
00002000
00003200
00000302
00020003
00030002
00000203
00002300
00003000
,
00022000
00000000
00000000
00000000
00033000
00000000
00000000
00000000
02200000
00000000
00000000
00000000
03300000
00000000
00000000
00000000
20020000
30030000
00000000
00000000
00000000
00000000
00000000
00000000
00000000
00000000
00000000
00000000
00000000
00000000
00000000
00000000
,
10000000
01000000
00100000
00010000
00100000
00000000
00001000
00010000
,
00000000
00000010
00000100
00000000
00000000
00000000
00000001
00000010
,
00000100
00001000
00000100
00000000
00010000
00001000
00000000
01000000
,
00100000
00000000
00000000
00000000
10000000
00100000
01000000
00010000
,
01000000
00000000
00001000
00010000
00000000
00000100
00000010
00000000
,
00000000
00000000
00000001
00000100
00000010
00001000
00000010
00000000
,
00010000
00001000
00000000
00100000
01000000
00000000
20000000
30020000
,
10030000
00100000
01000000
00010000
00100000
00000000
00001000
00000010
,
00000000
00000001
00000100
00000000
00000010
00000000
00001000
00000000
,
00000001
00000010
00000100
00001000
00000010
00000000
00010000
00100000
,
00000000
10000000
01000000
00000000
00100000
00000000
00010000
00000000
,
10000000
00100000
01000000
00010000
00100000
00000000
00001000
00000010
,
00000000
00000001
00000100
00000000
00001000
00000000
00010000
00000000
,
00022000
00000000
00000000
00033000
,
00011000
00000000
00001000
00000010
00000001
00000000
00000100
00000010
,
00010000
00001000
00100000
00000000
01000000
00000000
00010000
00001000
,
00010000
00000000
00010000
00100000
10000000
00000000
01000000
00001000
,
01000000
10000000
00010000
00000000
00100000
00000000
00001000
00010000
,
00011000
00000000
00010000
01000000
10000000
00000000
00100000
01000000
,
00001000
00010000
00000100
00000000
00000010
00000000
00001000
00010000
,
00001000
00000000
00001000
00000100
00000001
00000000
00000010
00001000
,
00010000
01000000
10000000
01000000
00010000
00000000
00001000
00000000
,
00011000
00000000
00001000
00000100
00000001
00000000
00000010
00000100
,
00010000
00001000
01000000
00000000
00100000
00000000
00010000
00001000
,
00010000
00000000
00010000
01000000
10000000
00000000
00100000
00001000
,
00100000
10000000
00010000
00000000
01000000
00000000
00001000
00010000
,
00011000
00000000
00010000
00100000
10000000
00000000
01000000
00100000
,
00001000
00010000
00000010
00000000
00001000
00000001
00000000
00000000
,
00000010
00000001
00000100
00000010
00001000
00000100
00000010
00000000
,
00001000
00100000
01000000
00010000
00002000
00000000
00000000
00003000
,
00011000
00000000
00001000
00000100
00000001
00000000
00000010
00001000
,
00100000
00001000
00000010
00000000
00000001
00000000
00000100
00000010
,
00010000
00000000
00010000
00100000
10000000
00000000
01000000
00001000
,
01000000
10000000
00100000
00000000
00001000
00000000
00000010
00010000
,
00011000
00000000
00010000
01000000
10000000
00000000
00100000
00010000
,
00000010
00010000
00100000
00000000
10000000
00000000
01000000
00000000
,
00010000
00000000
00001000
00000010
00000001
00000100
00001000
00010000
,
01000000
00000000
00010000
00000000
00001000
00000000
00000010
00000000
00020000
00000000
00000000
00000000
00032000
00000000
00000000
00003000
,
00011000
00000000
00000000
00000000
,
00000000
00000000
00000010
00000000
,
00011000
00000000
00000000
00000000
,
00000000
00000000
00100000
00000000
,
00011000
00000000
00000000
00000000
,
00000000
00000000
00000000
00000000
,
00100010
00000000
00000000
00022000
,
00000000
00000000
00000000
00000000
,
00000000
00000000
00033000
01000100
;
