#TITLE:kemono kemono;
#SUBTITLE:;
#ARTIST:KATya & kay9;
#TITLETRANSLIT:;
#SUBTITLETRANSLIT:;
#ARTISTTRANSLIT:;
#GENRE:;
#CREDIT:;
#MUSIC:kemono kemono.ogg;
#BANNER:kemono kemono.png;
#BACKGROUND:kemono kemono-bg.png;
#CDTITLE:;
#SAMPLESTART:99.000;
#SAMPLELENGTH:15.000;
#SELECTABLE:YES;
#OFFSET:0.000;
#BPMS:0.000=160.000
,124.000=240.000
,127.000=160.000
,355.500=80.000
;
#STOPS:124.000=0.126
,125.000=0.126
,126.000=0.126
;
#DISPLAYBPM:160.000;
#BGCHANGES:;
#FGCHANGES:;

//--------------- dance-single - KAYSTAR ----------------
#NOTES:
     dance-single:
     KAYSTAR:
     Beginner:
     3:
     0,0,0,0,0:
0000
0000
0000
0000
,
0000
0000
0000
0000
,
0000
0000
0000
0000
,
0000
0000
0000
0000
,
1000
0000
0000
0000
,
0000
0000
0000
0000
,
0001
0000
0000
0000
,
0000
0000
0000
0000
,
1000
0000
0000
0000
,
1000
0000
0000
0000
,
1000
0000
0000
0000
,
0000
0000
0000
0000
,
0001
0000
0000
0000
,
0001
0000
0000
0000
,
0001
0000
0000
0000
,
0000
0000
0000
0000
,
0100
0000
0100
0000
,
0100
0000
0000
0000
,
0010
0000
0010
0000
,
0010
0000
0000
0000
,
1000
0000
1000
0000
,
1000
0000
0000
0000
,
0001
0000
0001
0000
,
0001
0000
0000
0000
,
1000
0000
1000
0000
,
1000
0000
0000
0000
,
0100
0000
0100
0000
,
0100
0000
0000
0000
,
0010
0000
0010
0000
,
0010
0000
0000
0000
,
0001
0000
0001
0000
,
0002
0000
0000
0003
,
0000
0000
0000
0000
,
0000
0000
0000
0000
,
0000
0000
0000
0000
,
0000
0000
0000
0000
,
0000
0000
0000
0000
,
0000
0000
0000
0000
,
0000
0000
0000
0000
,
0000
0000
0000
0000
,
1000
0000
0000
0000
,
0000
0000
0000
0000
,
0010
0000
0000
0000
,
0000
0000
0000
0000
,
0100
0000
0000
0000
,
0000
0000
0000
0000
,
0001
0000
0000
0000
,
0000
0000
0000
0000
,
0010
0000
0010
0000
,
0010
0000
0000
0000
,
0100
0000
0100
0000
,
0100
0000
0000
0000
,
1000
0000
1000
0000
,
1000
0000
0000
0000
,
0001
0000
0001
0000
,
0001
0000
0000
0000
,
0200
0000
0000
0000
,
0300
0000
0000
0000
,
0020
0000
0000
0000
,
0030
0000
0000
0000
,
2000
0000
0000
0000
,
3000
0000
0000
0000
,
0002
0000
0000
0000
,
0003
0000
0000
0000
,
0000
0000
0000
0000
,
0000
0000
0000
0000
,
1000
0000
1000
0000
,
0001
0000
0001
0000
,
0100
0000
0000
0000
,
0010
0000
0000
0000
,
1000
0000
1000
0000
,
0001
0000
0001
0000
,
0020
0000
0000
0000
,
0030
0000
0000
0000
,
0001
0000
0001
0000
,
1000
0000
1000
0000
,
0010
0000
0000
0000
,
0100
0000
0000
0000
,
0002
0000
0000
0000
,
0003
0000
0000
0000
,
1000
0000
1000
0000
,
1000
0000
0000
0000
,
0100
0000
0100
0000
,
0100
0000
0000
0000
,
0010
0000
0010
0000
,
0010
0000
0000
0000
,
0001
0000
0001
0000
,
0001
0000
0000
0000
,
0100
0100
0100
0200
,
0000
0000
0300
0000
;

//--------------- dance-single - KATya ----------------
#NOTES:
     dance-single:
     KATya:
     Easy:
     7:
     0,0,0,0,0:
0000
0000
0000
0000
,
0000
0000
0000
0000
,
0000
0000
0000
0000
,
0000
0000
0000
0000
,
0000
0000
0000
0000
,
0000
0000
0000
0000
,
0000
0000
0000
0000
,
0000
0000
0000
0000
,
0001
0100
0000
0100
,
1000
0100
0000
0100
,
0001
0100
0000
0100
,
0001
0000
0100
0000
0010
0010
0000
0000
,
1000
0001
0010
0010
,
1000
0001
0100
0100
,
1000
0001
1000
0000
0110
0000
0000
2002
,
0000
0000
3003
0000
,
1000
0100
1000
1000
,
0001
0100
0001
0001
,
1000
0010
1000
1000
,
0001
0010
0001
0010
,
0100
0010
0100
0100
,
1000
0001
1000
1000
,
0010
0100
0010
0010
,
1000
0001
1000
1000
,
0100
1000
0010
0010
,
0100
0001
0010
0010
,
0100
1000
0010
0010
,
0100
0001
0010
0100
,
1000
0100
0010
0010
,
0001
0100
0010
0010
,
1000
0100
0010
0010
,
0002
0000
0000
0000
0000
0003
0000
0000
,
2000
0000
0000
0000
,
0000
0000
0000
0000
,
3020
0000
0000
0000
,
0000
0000
0000
0000
,
0230
0000
0000
0000
,
0000
0000
0000
0000
,
0302
0000
0000
0000
,
0023
0000
0230
0000
,
1300
0000
0000
1000
0000
0000
1000
0000
,
0010
0000
0000
0010
0000
0000
0010
0000
,
0100
0000
0000
0100
0000
0000
0100
0000
,
0001
0000
0000
0001
0000
0000
0001
0000
,
0010
0000
0000
0100
0000
0000
1000
0000
,
0010
0000
0000
0100
0000
0000
0001
0000
,
1000
0000
0000
0001
0000
0000
0100
0000
,
0010
0000
0000
1000
0002
0000
0000
0000
,
0013
0001
0100
1000
,
0001
0010
1000
0000
,
0010
1000
0100
0001
,
1000
0010
0001
0000
,
0010
0001
0100
1000
,
0001
0010
1000
0000
,
0010
1000
0100
0001
,
1000
0010
0001
0000
,
1000
1000
1001
1000
,
0010
0100
0002
0003
,
0001
0001
1001
0001
,
0010
0100
2000
0000
,
3010
0100
0001
1000
,
0100
0010
0001
1000
,
0010
0100
0010
0000
0100
0010
0100
0000
,
0220
0000
0000
0330
,
0000
0000
0000
0000
,
1001
0110
1001
0000
,
0001
0000
0010
0000
0100
0000
1000
0001
,
0000
0000
1000
0000
0010
0000
0000
0100
,
0000
0000
0001
0000
0010
0000
0000
0100
,
0000
0000
1000
0000
0010
0010
0010
0000
,
1000
0000
0100
0000
0010
0000
0001
1000
,
0000
0000
0001
0000
0100
0000
0010
1000
,
0000
1000
1000
1000
,
0100
0000
0010
0000
0001
1000
0001
0000
,
0100
0000
0010
0000
1000
0000
0001
0010
,
0000
0000
0100
0000
1000
0000
0010
1000
,
0000
0000
0010
0000
0100
0000
0001
1000
,
0000
0100
0010
0010
,
0001
1000
0100
0010
,
0001
1000
1001
0000
,
0001
0010
0100
0100
,
1000
0010
0100
0100
,
0001
0010
0100
0100
,
1000
0000
0001
0000
0010
0100
1000
0000
,
0000
1001
1000
1000
,
0100
0010
0001
0001
,
0100
0010
1000
0001
,
0010
0000
0100
0000
1000
0001
1000
0001
,
0000
0000
0000
0000
0100
0000
0000
0000
0010
0000
0000
1000
0000
0000
0002
0000
,
0000
0000
0003
0000
;

//--------------- dance-single - KATya + kay9 ----------------
#NOTES:
     dance-single:
     KATya + kay9:
     Medium:
     11:
     0,0,0,0,0:
0000
0000
0000
0000
,
0000
0000
0000
0000
,
0000
0000
0000
0000
,
0000
0000
0000
0000
,
0000
0000
0000
0000
,
0000
0000
0000
0000
,
0000
0000
0000
0000
,
0000
0000
0000
0000
,
1000
0000
0000
1000
0000
0000
0010
0100
,
0001
0000
0000
0001
0000
0000
0010
0100
,
1000
0000
0000
1000
0000
0000
0010
0100
,
0001
0000
1000
0001
1000
0001
0000
0000
,
1000
0000
0000
0000
0010
0000
0000
0000
0100
0000
0000
0001
0000
0000
0100
0000
,
0010
0000
0000
0000
1000
0000
0000
0000
0001
0000
0000
0010
0000
0000
0100
0000
,
1000
0000
0100
0000
1000
0000
0001
0000
0100
0000
0000
0010
0000
0000
2002
0000
,
0000
0000
0000
3003
,
1000
0000
0000
0000
0010
0000
0000
0000
0100
0000
0000
0100
0000
0000
0100
0000
,
0001
0000
0000
0000
0010
0000
0000
0000
0100
0000
0000
0100
0000
0000
0100
0000
,
1000
0000
0000
0000
0001
0000
0000
0000
0100
0000
0000
0100
0000
0000
0100
0000
,
0000
0000
0010
0000
0001
0000
0000
0000
0010
0000
0000
0100
0000
0000
0001
0000
,
1000
0000
0000
0000
0100
0000
0000
0000
0010
0000
0000
0010
0000
0000
0010
0000
,
0001
0000
0000
0000
0100
0000
0000
0000
0010
0000
0000
0010
0000
0000
0010
0000
,
1000
0000
0000
0000
0001
0000
0000
0000
0010
0000
0000
0010
0000
0000
0010
0000
,
0001
1000
0001
1000
0010
0100
0001
0000
,
1000
0000
0000
0000
1100
0000
0000
0000
0100
0000
0000
0010
0000
0000
0001
0000
,
1000
0000
0000
0000
1010
0000
0000
0000
0001
0000
0000
1000
0000
0000
0010
0000
,
0001
0000
0000
0000
0011
0000
0000
0000
0010
0000
0000
0100
0000
0000
0001
0000
,
0000
0000
0010
0000
1000
0000
0000
0000
0001
0000
0000
0100
0000
0000
0010
0000
,
0001
0000
0000
0000
0011
0000
0000
0000
0010
0000
0000
0100
0000
0000
1000
0000
,
0001
0000
0000
0000
0101
0000
0000
0000
1000
0000
0000
0001
0000
0000
0100
0000
,
1000
0000
0000
0000
1100
0000
0000
0000
0100
0000
0000
0010
0000
0000
1000
0000
,
0002
0023
0230
1300
,
0002
0000
0000
0000
,
0000
0000
0103
0010
,
2000
0000
0000
0000
,
0000
0000
3100
0010
,
2000
0000
0000
0000
,
0000
0000
3010
0100
,
0002
0000
0000
0000
,
0103
0000
0010
0001
,
1000
0010
1000
0010
1000
0000
0001
0100
,
0001
0100
0001
0000
1000
0100
0010
0000
,
0001
1000
0001
1000
0001
0000
0100
0010
,
0000
2000
3200
0320
,
0031
0000
1000
0000
0001
0100
0010
1000
,
0000
0001
0010
0100
0000
1000
0001
0000
,
0000
0200
0000
0000
,
0000
0000
0300
0000
,
0001
0000
0000
0001
0000
0000
0001
0000
0100
0000
0010
0000
1000
0000
0000
0000
,
0100
0010
0001
0000
0101
0000
1010
0000
,
1000
0000
0000
1000
0000
0000
1000
0000
0010
0000
0100
0000
0001
0000
0000
0000
,
2000
3200
0302
0203
,
0310
0000
0000
0010
0000
0000
0010
0000
0001
0000
1000
0000
0010
0000
0000
0000
,
0100
0001
1000
0000
1100
0000
0011
0000
,
0010
0000
0000
0010
0000
0000
0010
0000
0001
0000
1000
0000
0010
0000
0100
0000
,
0002
0023
2030
3020
,
0130
1000
0100
0000
0010
0001
0010
0000
,
0001
1000
0010
0100
0001
0000
1001
0000
,
1000
0010
1000
0000
0001
0100
0001
0000
,
1000
0000
0100
0000
0010
0000
0001
0000
1000
0000
0000
1000
0000
0000
1000
0000
,
0001
0100
0001
0100
0010
1000
0010
1000
,
0001
0010
0001
0010
0100
1000
0100
1000
,
0002
0000
0000
0000
,
2000
0000
0000
0000
,
3003
0000
0000
0000
,
0000
0000
0000
0000
,
1000
0010
0100
0001
1000
0100
0010
0002
,
0000
0103
0010
1000
0010
0100
0001
0020
,
0000
0000
0000
0000
1030
0000
0000
0000
0001
0000
0000
0100
0000
0000
0020
0000
,
0000
0000
0031
0000
1000
0001
1001
0000
,
1000
0010
0100
0010
1000
0001
0010
0100
,
1000
0000
1000
0000
0010
0000
0010
0000
0100
0000
0000
0001
0000
0000
0020
0000
,
0000
0100
0000
0100
0000
0100
0000
0130
,
1000
0001
1000
0001
0100
0100
0010
0010
,
1000
0100
0010
0001
1000
0010
0100
0002
,
0000
0013
0100
1000
0100
0010
0001
0200
,
0000
0000
0000
0000
1300
0000
0000
0000
0001
0000
0000
0010
0000
0000
0200
0000
,
0000
0000
0301
0000
1000
0001
1001
0000
,
2000
0000
3002
0000
,
1003
0100
0010
0001
0200
0000
0000
0000
,
0310
0000
1000
0000
0001
0000
0010
0000
0100
0000
0000
0100
0000
0000
0100
0000
,
1000
0000
0001
0000
0100
0000
0010
0000
1000
0000
0000
1000
0000
0000
1000
0000
,
0100
0000
0010
0000
0001
0000
1000
0000
0010
0000
0000
0010
0000
0000
0010
0000
,
0000
0100
0001
1000
0100
0100
0100
0000
,
0020
0000
0000
0000
0130
0000
1000
0000
0001
0000
0000
0001
0000
0000
0001
0000
,
0100
0000
0010
0000
1000
0000
0001
0000
0010
0000
0000
0010
0000
0000
0010
0000
,
0200
0000
1300
0001
0200
0000
0301
1000
,
0100
0010
0001
1000
0010
0010
0010
0000
,
0100
0000
0001
0000
0010
0000
0100
0000
1000
0000
0000
0001
0000
0000
2002
0000
,
0000
0000
3003
0000
;

//--------------- dance-single - KATya + kay9 ----------------
#NOTES:
     dance-single:
     KATya + kay9:
     Hard:
     14:
     0,0,0,0,0:
0000
0000
0000
0000
,
0000
0000
0000
0000
,
0000
0000
0000
0000
,
0000
0000
0000
0000
,
2000
0100
0000
3100
,
0020
0001
0000
0031
,
0200
0010
0000
0310
,
1000
0000
0001
0000
0010
0000
0100
0000
1000
0001
1000
0000
0010
0000
0100
0000
,
0001
0000
1000
0000
0100
0000
1000
0000
0100
0000
0000
0010
0001
0000
1000
0000
,
0010
0000
1000
0000
0010
0000
0100
0000
0001
0000
0000
1000
0100
0000
0010
0000
,
0001
0000
0010
0000
0001
0000
0100
0000
0010
0000
0000
1000
0001
0000
0010
0000
,
0100
1000
0010
0100
0002
0000
1003
0000
,
1001
0000
0000
0000
1001
0000
0000
0000
0011
0000
0000
0011
0000
0000
0011
0000
,
1001
0000
0000
0000
1001
0000
0000
0000
1010
0000
0000
1010
0000
0000
1010
0000
,
1000
0000
0001
0000
0010
0000
0100
0000
0110
0000
0000
0110
0000
0000
2002
0000
,
0000
0000
0000
0000
0000
0000
3003
0000
0001
1000
0001
1000
0001
0000
0000
0000
,
1000
0000
0100
0000
0010
0000
0100
0000
0001
0000
0000
1000
0000
0000
0001
0000
,
1000
0000
0010
0000
0100
0000
0010
0000
0001
0000
0000
1000
0000
0000
0001
0000
,
1000
0000
0010
0000
0100
0000
0010
0000
0001
0000
0000
1000
0000
0000
0001
0000
,
1000
0000
0100
0000
0010
0000
0100
0000
0001
0000
1000
0001
0000
0001
1000
0000
,
0001
0000
0010
0000
0100
0000
0010
0000
1000
0000
0000
0001
0000
0000
1000
0000
,
0001
0000
0100
0000
0010
0000
0100
0000
1000
0000
0000
0001
0000
0000
1000
0000
,
0001
0000
0100
0000
0010
0000
0100
0000
1000
0000
0000
0001
0000
0000
1000
0000
,
0002
0013
0200
0301
2000
3100
0010
0001
,
1000
0000
0100
0000
0210
0000
0000
0000
0301
0000
0000
0100
0010
0000
0001
0000
,
1000
0000
0010
0000
0210
0000
0000
0000
1300
0000
0000
0100
0010
0000
1000
0000
,
0001
0000
0010
0000
0120
0000
0000
0000
1030
0000
0000
0010
0100
0000
0010
0000
,
0001
0000
1000
0000
0010
0000
0100
0000
0001
0000
0010
0100
0000
0100
1000
0000
,
0001
0000
0100
0000
0120
0000
0000
0000
0031
0000
0000
0010
0100
0000
0010
0000
,
1000
0000
0100
0000
0120
0000
0000
0000
1030
0000
0000
0010
0100
0000
0010
0000
,
0001
0000
0100
0000
0120
0000
0000
0000
0031
0000
0000
0010
0100
0000
0001
0000
,
2000
3200
0320
0031
,
1000
0010
0000
0100
0001
0000
1000
0100
,
0000
0010
0001
0000
1000
0001
1000
0000
,
0001
0100
0000
0100
0010
0000
0010
1000
,
0000
0000
0100
0010
,
0001
0000
1000
0010
0000
0000
0100
0000
,
0001
0000
1000
0100
0010
0000
0100
0000
,
1000
0000
0001
0100
0000
0010
0000
2000
,
0000
0000
0001
0001
,
3001
0000
1000
0100
0010
0000
1000
0000
,
0010
0100
1000
0000
0010
0100
0001
0000
,
0010
0100
0010
0100
1000
0000
0010
0001
,
0000
1000
0100
0010
,
1000
0000
0001
0000
0010
0100
1000
0100
,
0000
0010
0001
1000
0000
0010
0100
0000
,
0000
0002
0000
0000
,
0000
0000
0000
0000
0000
0000
0000
0000
1003
0000
0000
1001
0000
0000
1001
0000
,
0001
0000
0100
0010
0000
0100
0010
0000
1000
0000
0100
0000
0001
0000
0100
0000
,
1000
0010
0100
0001
0020
0000
0031
0000
,
1000
0000
0100
0010
0000
0100
0010
0000
0001
0000
0100
0000
1000
0000
0100
0000
,
0010
0000
1000
0000
0100
1000
0100
0000
0010
0100
0010
0000
0001
0010
0001
0000
,
1000
0000
0010
0100
0000
0010
0100
0000
0001
0000
0010
0000
1000
0000
0010
0000
,
0100
1000
0001
0100
0020
0000
1030
0000
,
0001
0000
0010
0100
0000
0010
0100
0000
1000
0000
0010
0000
0001
0000
0010
0000
,
0100
0000
0001
0000
0010
0001
0010
0000
0100
0010
0100
0000
1000
0100
1000
0000
,
0002
0000
0103
0010
2000
0000
3100
0010
,
0001
0100
1000
0000
1100
0000
0101
0000
,
2000
0000
3100
0010
0002
0000
0103
0010
,
1000
0100
0001
0000
0101
0000
1100
0000
,
0001
0001
1000
1000
0001
0100
0010
1000
,
0100
0100
0010
0010
0001
1000
0010
0100
,
0001
0000
0001
0000
0010
0000
0010
0000
0100
0000
0100
0000
1000
0001
1000
0002
,
2000
0000
0000
0000
,
3003
0000
0000
0000
,
2000
3020
0230
0302
,
0013
0100
0000
0010
0100
0000
1000
0001
0000
1000
0001
0000
0100
0000
2000
0000
,
0000
0000
3100
0000
0010
0000
1000
0000
0001
0000
0010
0001
0010
0000
0200
0000
,
0000
0000
1300
0000
0001
0100
0000
0000
0010
0000
1000
0100
0000
0000
0002
0000
,
0000
0103
0010
0001
1000
1000
1000
0000
,
0010
0000
0100
0000
0001
0000
0010
0001
0010
0000
0100
1000
0000
0100
1000
0000
,
0001
0000
0100
0000
0010
0000
0001
0000
1000
0000
1000
0100
0000
0000
0020
0000
,
0000
2030
0000
3002
0000
0023
0000
0031
,
1000
0010
1000
0000
0010
0100
0010
0000
0100
0001
0100
0000
0001
0000
0001
0000
,
0100
0010
0000
0100
0010
0000
1000
0001
0000
1000
0001
0000
0010
0000
2000
0000
,
0000
0000
3010
0000
0100
0000
1000
0000
0001
0000
0100
0001
0100
0000
0020
0000
,
0000
0000
1030
0000
0001
0010
0000
0000
0100
0000
1000
0010
0000
0000
0002
0000
,
0000
0013
0100
0001
1000
1000
1000
0000
,
1200
0000
0000
0010
0320
0000
0000
0001
,
0031
0100
0010
1000
0100
0001
1000
0010
,
0001
0000
1000
0000
0010
0000
0100
0000
2000
0000
0000
3200
0000
0000
0310
0000
,
1000
0000
0100
0000
0010
0000
0100
0000
0002
0000
0000
0203
0000
0000
0310
0000
,
0001
0000
1000
0000
0010
0000
0100
0000
0002
0000
0000
0023
0000
0000
0130
0000
,
1000
0000
0001
1000
0001
0000
1000
0000
1010
0000
0110
0000
0101
0000
0000
0000
,
0002
0000
0000
0000
1003
0000
0010
0000
0002
0000
0000
0023
0000
0000
0130
0000
,
0001
0000
0010
0000
0100
0000
0010
0000
2000
0000
0000
3020
0000
0000
0130
0000
,
1000
0000
0001
1000
0001
0000
0100
0000
0010
0000
1000
0001
0000
0001
1000
0000
,
0010
0000
0100
0010
0100
0000
0001
0000
0011
0000
0110
0000
1100
0000
0000
0000
,
1000
0000
0001
0000
0100
0000
1000
0000
1100
0000
0000
0110
0000
0000
0202
0000
,
0000
0000
0303
0000
;

//--------------- dance-single - KATya + kay9 ----------------
#NOTES:
     dance-single:
     KATya + kay9:
     Challenge:
     16:
     0,0,0,0,0:
0000
0000
0000
0000
,
0000
0000
0000
0000
,
0000
0000
0000
0000
,
0000
0000
0000
0000
,
2000
0000
3010
0000
0200
0000
0301
2000
,
0000
0000
3100
0000
0010
0000
0000
0000
0001
0000
0000
0100
0000
0000
0020
0000
,
0000
0000
1030
0000
0001
0000
0000
0000
0010
0000
0000
0100
0000
0000
1000
0000
,
0001
0000
1000
0010
1000
0000
0001
0000
0100
0001
0100
0000
0001
0000
1000
0000
,
0100
0000
0001
0000
0000
0000
0100
0000
0010
0000
0000
0011
0000
0000
0001
0000
,
0100
0000
1000
0000
0000
0000
0100
0000
0010
0000
0000
1010
0000
0000
1000
0000
,
0100
0000
0001
0000
0000
0000
0100
0000
0010
0000
0000
0011
0000
0000
0001
0000
,
0100
0000
0010
0000
0000
0000
1000
0000
0001
1000
0001
1000
0002
0000
0000
0000
,
1003
0000
0010
0000
0100
0000
0001
0000
1000
0000
0100
0010
0000
0001
1000
0000
,
0001
0000
0100
0000
0010
0000
1000
0000
0001
0000
0010
0100
0000
1000
0001
0000
,
1000
0010
1000
0010
0100
0001
0100
0001
1000
0000
0000
1001
0000
0000
0220
0000
,
0000
0000
0000
0000
0330
0000
0000
0000
0001
1000
0001
1000
0001
1000
0001
0000
,
1000
0000
1000
0000
0001
0000
0001
0000
0100
0000
0010
1000
0000
0100
0010
0000
,
0001
0000
0001
0000
1000
0000
1000
0000
0100
0000
0010
0001
0000
0100
0010
0000
,
1000
0000
1000
0000
0001
0000
0001
0000
0010
0000
0100
1000
0000
0010
0100
0000
,
0001
0000
1000
0000
0020
0000
0000
0000
0130
0000
0001
1000
0000
1000
0001
0000
,
0010
0000
0010
0000
0100
0000
0100
0000
1000
0000
0100
0010
0000
0001
0100
0000
,
0010
0000
0010
0000
0100
0000
0100
0000
0001
0000
0100
0010
0000
1000
0100
0000
,
0010
0000
0010
0000
0100
0000
0100
0000
1000
0000
0001
1000
0000
0010
0100
0000
,
0010
0000
1000
0001
1000
0000
0001
1000
0001
0000
0010
0100
0000
1000
0010
1000
,
0001
0000
0100
0000
1000
0000
0000
0000
1100
0000
0100
0010
0000
0100
0001
0000
,
1000
0000
0100
0000
0001
0000
0000
0000
0101
0000
0100
0010
0000
0100
1000
0000
,
0001
0000
0100
0000
1000
0000
0000
0000
1100
0000
0100
0010
0000
0100
0001
0000
,
0001
0000
0010
0000
0200
0000
1000
0000
0310
0000
0001
1000
0000
0010
0100
0000
,
0001
0000
0010
0000
1000
0000
0000
0000
1010
0000
0010
0100
0000
0010
0001
0000
,
1000
0000
0010
0000
0001
0000
0000
0000
0011
0000
0010
0100
0000
0010
1000
0000
,
0001
0000
1000
0000
1001
0000
0000
0000
1000
0000
0100
0010
0000
0001
0100
0000
,
2000
3200
0302
0003
,
1000
0010
0000
0010
0100
0000
0001
0010
,
0000
0010
0100
0000
1000
0001
1000
0000
,
0010
0100
0000
0001
1000
0000
0100
0020
,
0000
0000
0031
0100
,
1000
0000
0100
0010
0000
0000
1000
0000
,
0001
0000
0010
0100
0001
0000
1000
0000
,
0010
0000
0000
0000
0100
0000
1000
0000
0000
0000
0001
0000
0000
0000
0100
0020
,
0000
0000
0001
0100
,
1030
0001
0010
0100
1000
0000
0001
0100
,
0010
1000
0001
0000
1000
0001
1000
0000
,
0010
0100
0001
1000
0100
0000
0100
0020
,
0000
1000
0100
0031
,
1000
0000
0010
0000
0100
0001
1000
0100
,
0000
0010
0001
1000
0000
0010
0100
0000
,
0000
2002
0000
0000
,
0000
0000
0000
0000
0000
0000
0000
0000
3003
0000
0000
0110
0000
0000
1001
0000
,
1000
0000
0001
0100
0010
0000
0100
0000
2000
0000
3100
0010
0100
0000
0001
0000
,
1000
0000
0100
0010
0100
0000
1000
0000
0010
0000
0100
0001
0000
0001
0100
0000
,
0001
0000
1000
0100
0010
0000
0100
0000
0002
0000
0103
0010
0100
0000
1000
0000
,
0001
0000
0010
0001
0010
0000
0100
0000
1000
0000
0001
0100
0000
0010
1000
0010
,
1000
0000
0001
0010
0100
0000
0010
0000
2000
0000
3010
0100
0010
0000
0001
0000
,
1000
0000
0010
0100
0001
0000
1000
0000
0100
0000
0010
0001
0000
0001
0010
0000
,
0001
0000
1000
0010
0100
0000
0010
0000
0002
0000
0013
0100
0010
0000
1000
0000
,
0001
0000
0100
0001
0100
0000
0010
0000
1000
0000
0001
0010
0000
0100
1000
0001
,
1000
0001
0100
0010
0002
0013
0100
0010
,
1000
0000
0001
0000
0010
0000
0100
0000
1000
0000
0000
1000
0001
0000
0100
0000
,
0010
1000
0100
0010
2000
3010
0100
0010
,
0001
0000
1000
0001
1000
0000
0010
0000
0100
0000
0001
1000
0000
0001
1000
0001
,
1000
0010
0100
0100
0001
0010
0100
0100
,
1000
0001
0100
0100
0001
1000
0100
0100
,
0010
0100
0010
0100
1000
0001
0100
0010
1000
0001
1000
0010
0100
0001
1000
0100
,
0020
0000
0000
0000
,
0031
0000
0000
0000
0002
0003
0000
0000
1000
0000
0000
0000
2000
3000
0000
0000
,
1010
0110
0101
1001
,
1000
0010
0000
0010
0100
0000
0001
0010
0000
0100
1000
0100
0010
0000
0002
0000
,
0000
0103
0000
0010
1000
0010
0100
0001
0000
1000
0100
0010
0100
0000
0002
0000
,
0000
0000
0103
0000
0010
0001
0000
0000
1000
0000
0001
0100
0000
0100
2000
0000
,
0000
0000
3100
0000
0010
0000
1000
0000
0001
0000
0001
0000
0001
0000
1000
0100
,
0020
0000
0001
0000
0130
0000
1000
0010
0100
0000
0001
0010
0000
0010
0100
0000
,
1000
0010
1000
0001
0100
0001
1000
0100
0010
0000
0001
0100
0000
0000
0120
0000
,
0000
1000
0000
0001
0000
1000
0000
0031
,
1000
0100
0010
0100
0001
1000
0001
0010
0100
1000
0002
0000
0203
0000
0320
0000
,
1030
0100
0000
0100
0010
0000
0001
0100
0000
0010
1000
0010
0100
0000
0002
0000
,
0000
0013
0000
0100
1000
0100
0010
0001
0000
1000
0100
0010
0100
0000
0002
0000
,
0000
0000
0103
0000
0010
0001
0000
0000
1000
0000
0001
0010
0000
0010
2000
0000
,
0000
0000
3010
0000
0100
0000
1000
0000
0001
0000
0001
0000
0001
0000
1000
0010
,
0200
0000
0301
1000
0020
0000
1030
0001
,
0010
0100
0010
0100
1000
0010
0100
0010
0001
0010
0100
0010
1000
0001
0010
0100
,
1000
0000
0001
1000
0001
0000
0100
0000
0010
0000
1000
0001
0000
0010
0100
0000
,
1000
0010
0100
0010
0001
0000
0010
0000
0100
0000
0001
1000
0000
1000
0001
0000
,
1000
0100
0010
0100
0001
0000
0100
0000
0010
0000
0001
1000
0000
0010
0100
0000
,
0001
0000
0010
0100
1000
0000
0001
0000
0100
0000
0110
0000
0110
0000
0000
0000
,
0002
0000
0000
0000
1003
0000
0010
0000
0100
0000
0001
1000
0000
0010
0100
0000
,
0001
0010
0100
0010
1000
0000
0010
0000
0100
0000
1000
0001
0000
0001
1000
0000
,
0010
1000
0010
0000
0100
0000
0001
0000
0010
0001
0010
0000
0100
0000
1000
0000
,
0001
0100
0010
0100
1000
0000
0001
0000
0020
0000
0230
0000
2300
0000
3000
0000
,
1100
0000
0100
0010
1000
0000
0001
0000
0011
0000
0000
0110
0000
0000
2200
0000
,
0000
0000
3300
0000
;
