#TITLE:iron maiden;
#SUBTITLE:;
#ARTIST:TORIENA;
#TITLETRANSLIT:;
#SUBTITLETRANSLIT:;
#ARTISTTRANSLIT:;
#GENRE:FUNK RAVE;
#CREDIT:;
#BANNER:bn.png;
#BACKGROUND:bg.png;
#LYRICSPATH:;
#CDTITLE:cd-title.png;
#MUSIC:iron maiden.ogg;
#OFFSET:-0.001000;
#SAMPLESTART:96.000999;
#SAMPLELENGTH:15.158000;
#SELECTABLE:YES;
#BPMS:0.000000=190.000000
;
#STOPS:
;
#BGCHANGES:;
#KEYSOUNDS:;
#ATTACKS:;

//---------------dance-single - Beginner 4----------------
#NOTES:
     dance-single:
     :
     Beginner:
     4:
     0.160495,0.305705,0.053498,0.038213,0.000000,147.000000,140.000000,7.000000,5.000000,0.000000,0.000000,0.160495,0.305705,0.053498,0.038213,0.000000,147.000000,140.000000,7.000000,5.000000,0.000000,0.000000:
0000
0000
0000
0000
,
0000
0000
0000
0000
,
0000
0000
0000
0000
,
0000
0000
0000
0000
,
2000
0000
0000
0000
,
0000
0000
0000
0000
,
0000
0000
0000
0000
,
3200
0000
0300
0000
,
1001
0000
0000
0000
,
0000
0000
0000
0000
,
0000
0000
0000
0000
,
0000
0000
0000
0000
,
0001
0000
0000
0000
,
0001
0000
0000
0000
,
0001
0000
0000
0000
,
0100
0000
0010
0000
,
1000
0000
0000
0000
,
1000
0000
0000
0000
,
1000
0000
0000
0000
,
0100
0001
0100
1000
,
0001
0000
0000
0000
,
0100
0000
0000
0000
,
0010
0000
0000
0000
,
1000
0000
0001
0000
,
1000
0000
0000
0000
,
0100
0000
0000
0000
,
0010
0000
0000
0000
,
0002
0003
1000
0000
,
0000
0000
0000
0000
,
0000
0000
0000
0000
,
0000
0000
0000
0000
,
0000
0000
0000
0000
,
0000
0000
0000
0000
,
0000
0000
0000
0000
,
0000
0000
0000
0000
,
0000
0000
0000
0000
,
0000
0001
0000
0000
,
0000
0001
0000
0000
,
0000
0100
0000
0000
,
0000
0100
0000
0000
,
0000
0010
0000
0000
,
0000
0010
0000
0000
,
0000
1000
0000
0000
,
0100
0000
0100
0000
,
1100
0000
0000
0000
,
0110
0000
0001
0000
,
0101
0000
0000
0000
,
0110
0000
0000
0000
,
1000
0000
1000
0000
,
0001
0000
0001
0000
,
0010
0000
0100
0000
,
1000
0000
0001
0000
,
1000
1000
0010
0000
,
0100
0100
0001
0010
,
0001
0001
0100
0000
,
0010
0010
1000
0000
,
0001
0001
0010
0000
,
0100
0100
1000
0001
,
1000
1000
0010
0000
,
0100
1000
0100
0001
,
0000
1000
0000
1000
,
0000
0001
0000
0001
,
0000
0010
0000
0010
,
0000
0100
0000
0100
,
0000
1000
0000
1000
,
0000
0001
0000
0001
,
0000
0100
0000
0100
,
0000
0010
0000
0010
,
2000
0000
0000
0000
,
0000
0000
0000
0000
,
0000
0000
0000
0000
,
0000
0000
0000
0000
,
3002
0000
0000
0000
,
0000
0000
0000
0000
,
0000
0000
0000
0000
,
0003
0000
0000
0000
,
0000
1000
0000
1000
,
0000
0100
0000
0010
,
0000
0001
0000
0001
,
0000
0100
0000
0010
,
0000
1000
0000
1000
,
0000
0001
0000
0010
,
0000
0001
0000
0001
,
0000
0100
0010
1000
,
0000
0100
0000
0001
,
0000
0100
0000
1000
,
0000
0010
0000
0001
,
0000
1000
0000
0100
,
0000
0001
0000
0010
,
0000
1000
0000
0010
,
0000
0001
0000
0100
,
0010
0010
1000
1001
,
0000
0001
0000
0000
,
0000
0010
0000
0000
,
0000
0100
0000
0000
,
0000
1000
0000
0000
,
0001
0000
0001
0000
,
0100
0000
0100
0000
,
0010
0000
0010
0000
,
1000
0000
1000
0000
,
1001
0000
0000
0000
;

//---------------dance-single - Light 10----------------
#NOTES:
     dance-single:
     :
     Easy:
     10:
     0.365754,0.458558,0.038213,0.213994,0.000000,335.000000,330.000000,5.000000,28.000000,0.000000,0.000000,0.365754,0.458558,0.038213,0.213994,0.000000,335.000000,330.000000,5.000000,28.000000,0.000000,0.000000:
0000
0000
0000
0000
,
0000
0000
0000
0000
,
0000
0000
0000
0000
,
0000
0000
0000
0000
,
0000
1000
0000
0001
0000
0010
0000
0100
,
0000
1000
0000
0001
0000
0100
0000
0010
,
2000
3002
2003
3002
,
0013
0000
0020
0000
0130
1000
0010
0000
,
0110
0000
0000
0000
,
0000
0000
0000
0000
,
0000
0000
0000
0000
,
0000
0000
0000
0000
,
0100
0001
0010
0010
,
0100
1000
0010
0001
,
0010
1000
0100
0100
,
0010
1000
0010
0001
2000
0000
3000
0000
,
0010
1000
0001
0001
,
0010
0100
1000
1000
,
0010
0000
0100
0000
0001
0000
0001
1000
,
0200
0320
0230
0300
,
1000
0010
0100
0100
,
0001
0010
2000
3010
,
0001
0100
0010
0010
,
1000
0100
0020
1030
,
0010
0100
1000
1000
,
0010
0100
0001
0010
,
0001
0100
0010
0010
,
0002
0000
0013
0000
1000
0001
0010
0000
,
0000
0000
0000
0000
,
0000
0000
0000
0000
,
0000
0000
0000
0000
,
0000
0000
0000
0000
,
0200
0000
0000
0000
,
0000
0000
0000
0000
,
0000
0000
0000
0000
,
1000
0000
1000
0000
0000
0001
0000
0000
,
1300
0100
0000
0100
,
0010
0001
0000
0001
,
1000
0010
0000
0010
,
0100
1000
0100
0000
,
0001
0010
0000
0010
,
0100
1000
0000
1000
,
0010
0100
0000
0100
,
1000
0100
0001
0010
,
0110
0100
0100
1000
,
0010
0010
0001
0010
,
0100
0100
0100
0001
,
0010
0000
1000
0000
0010
0001
1000
0000
,
1001
0010
0100
0010
,
1001
0010
0100
0010
,
1001
0010
0100
0010
,
1000
0000
0001
0010
0001
0100
0010
0000
,
1000
0100
0001
0100
,
1000
0010
0001
0010
,
1000
0100
0001
0010
,
1000
1000
0001
0001
,
0100
1000
0100
0001
,
0010
1000
0010
0001
,
0100
1000
0010
0001
,
2000
3002
0203
0320
,
1030
0000
0000
0000
1000
0000
0000
0001
,
0000
0010
0000
0001
1000
0000
0100
0000
,
1000
0000
0000
0001
0000
0100
0000
0010
,
1000
0001
0020
0000
,
0031
0000
0000
0100
0001
0000
0000
1000
,
0000
0010
0000
1000
0001
0000
0010
0000
,
0001
0000
0000
1000
0000
0100
0000
0010
,
0001
1000
0020
0230
,
0300
0001
0000
0001
,
0000
0010
0000
0010
,
0000
0100
0000
0100
,
0000
1000
0000
1000
,
0000
0010
0001
0010
,
0000
0100
0001
0010
,
0000
0100
1000
0100
,
0010
1000
0010
0001
,
0000
0000
1000
0100
1000
0000
0010
0000
,
0100
0001
0001
0010
,
0000
0000
0100
1000
0100
0000
0010
0000
,
0001
0000
0100
0000
0010
0010
1000
0000
,
0000
0000
0100
0010
0100
0000
1000
0000
,
0010
0100
0001
0001
,
0000
0000
0010
0100
0010
0000
0001
0000
,
0200
1000
1000
0301
,
0000
0000
1000
0100
0010
0000
0001
0000
,
0100
0010
1000
1000
,
0000
0000
0100
0010
0001
0000
0100
0000
,
0010
0001
0010
1000
0100
0000
0100
0000
,
0000
0000
0010
0100
1000
0000
0010
0000
,
0100
0001
0010
0010
,
0000
0000
0100
0010
0001
0000
0100
0000
,
0200
0000
1000
0301
,
0000
1000
0000
1000
,
0000
0000
0100
0000
0001
0100
1000
0000
,
0000
0010
0000
0010
,
0200
0000
0001
0000
0310
1000
0001
0010
,
0100
0100
1000
1000
,
0001
0000
0001
0000
0100
1000
0100
0001
,
2000
3200
0320
0032
,
1000
0203
0010
1000
,
0301
0000
0000
0000
;

//---------------dance-single - Standard 14----------------
#NOTES:
     dance-single:
     :
     Medium:
     14:
     0.612502,0.687837,0.084069,0.206351,0.149031,561.000000,550.000000,11.000000,27.000000,0.000000,0.000000,0.612502,0.687837,0.084069,0.206351,0.149031,561.000000,550.000000,11.000000,27.000000,0.000000,0.000000:
0000
0000
0000
0000
,
0000
0000
0000
0000
,
0000
0000
0000
0000
,
0000
0000
0000
0000
,
1000
0000
0000
0100
0000
0100
0010
0001
,
0000
0100
0000
0100
0010
1000
0100
0010
,
0002
0203
0320
2030
,
0000
0000
0001
3100
,
0110
0000
0000
0000
,
0000
0000
0000
0000
,
0000
0000
0000
0000
,
0000
0000
0000
0000
,
0010
0000
0000
0000
0001
1000
0000
0000
2000
0000
0000
0001
0000
0000
3010
0000
,
1000
0000
0000
0000
0100
0010
0001
0000
1000
0000
0100
0000
1000
0000
0000
0000
,
0010
0000
0000
0000
1000
0001
0000
0000
0002
0000
0000
1000
0000
0000
0013
0000
,
0001
0000
0001
0000
0010
0100
1000
0000
0010
0000
0000
0000
0010
0000
1000
0000
,
0100
0000
0000
0000
1000
0001
0000
0000
0002
0000
0000
1000
0000
0000
0103
0000
,
0001
0000
0001
0000
0010
0100
1000
0000
0001
0000
0010
0000
0001
0000
0000
0000
,
0100
0000
0000
0000
0001
1000
0000
0000
2000
0000
0000
0001
0000
0000
3100
0000
,
1000
0010
1000
0100
1000
1000
0010
0000
,
1000
0000
0100
0000
0010
0000
0000
0000
0010
0000
0001
0100
0000
0000
0010
0000
,
1000
0100
0010
0000
0001
0000
0102
0000
,
1003
0000
0100
0000
0010
0000
0000
0000
0010
0000
0001
0100
0000
0000
0010
0000
,
1000
1000
0100
0000
2000
0000
0100
0000
,
3001
0000
0100
0000
0010
0000
0000
0000
0010
0000
1000
0100
0000
0000
0010
0000
,
0001
0100
0010
0000
1000
0000
2100
0000
,
3001
0000
0100
0000
0010
0000
0000
0000
0010
0000
1000
0100
0000
0000
0020
0000
,
1000
0000
0000
0000
0031
0000
0000
0000
1000
0000
0010
0000
1000
0001
0010
0000
,
0000
0000
0000
0000
,
0000
0000
0000
0000
,
0000
0000
0000
0000
,
0000
0000
0000
0000
,
0000
0000
0000
0000
,
0000
0000
0000
0000
,
0000
0000
0000
0000
,
0002
0000
2003
0000
3000
0100
0000
0010
,
0001
0000
0000
0000
1000
0000
0010
0000
0000
0000
1000
0000
0000
1000
0000
0000
,
0001
0000
0000
0000
0010
0000
0100
0000
0000
0200
1000
0000
0000
0000
0310
0000
,
0001
0000
0000
0000
1000
0000
0010
0000
0000
0000
0001
0000
0000
0010
0000
0000
,
0100
0000
0001
0010
0000
1000
0010
0001
,
1000
0000
0000
0000
0001
0000
0010
0000
0000
0000
0001
0000
0000
0001
0000
0000
,
1000
0000
0000
0000
0010
0000
0100
0000
0000
0200
0001
0000
0000
0000
0310
0000
,
1000
0000
0000
0000
0001
0000
0010
0000
0000
0000
1000
0000
0000
0010
0000
0000
,
0100
0000
1001
0000
1000
0010
0100
0001
,
1000
0000
1000
0000
0100
0000
0010
0000
0100
0000
1000
0001
0000
0000
0100
0000
,
0001
0001
0010
0001
0100
1000
0000
1000
,
0100
0000
0100
0000
0010
0000
1000
0000
0001
0000
0010
0100
0000
0000
0100
0000
,
1000
0000
1001
0000
0001
0100
0010
1000
,
0001
0010
0001
0100
0001
0010
0100
0000
,
1000
0010
1000
0100
0010
1000
0010
0001
,
0100
0010
0100
0001
0010
0001
0100
0000
,
0010
1000
0001
0001
0100
0010
0100
0001
,
1000
0100
0010
0001
1000
0010
0001
0010
,
1000
0000
0100
0000
0010
0000
0001
0000
0100
0000
0001
1000
0001
0000
0100
0000
,
0001
0010
0100
1000
0001
0100
1000
0100
,
0001
0000
1000
0000
0010
0000
1000
0000
0001
0000
0010
0100
1000
0000
0000
0000
,
0001
0100
0010
1000
0001
0010
1000
0010
,
0001
0000
0100
0000
0010
0000
1000
0000
0100
0000
1000
0001
1000
0000
0100
0000
,
1000
0010
0100
0001
1000
0100
0001
0100
,
0010
0001
0100
0001
0010
0001
1000
0001
,
0100
0000
0000
0010
1000
0010
0000
1010
,
0000
1000
0000
0001
0100
0100
0010
1000
,
0100
0000
0000
0010
0001
0010
0000
0011
,
0000
0001
0000
1000
0100
0100
0010
0001
,
1000
0010
0000
0100
0001
0100
0000
0101
,
0000
0001
0000
0010
0001
0001
0100
0001
,
0010
0000
0000
0100
1000
0100
0000
1100
,
1000
0010
0100
0001
0010
0100
1000
1000
,
0010
0000
0100
0001
0100
0100
0010
2000
,
0100
0001
0100
3100
,
0010
0000
0100
1000
0100
0100
0010
0002
,
0100
1000
0100
0013
,
0001
0000
1000
0010
0100
0000
0001
0010
,
0100
0000
1000
0010
0100
0100
0001
0010
,
0200
2300
3002
0203
,
0310
0000
0010
0000
0001
0000
0010
1000
,
0001
0000
0010
0000
0100
0000
0010
0000
0001
0000
1000
0100
0000
0000
0100
0000
,
0010
0001
1000
0020
0001
0000
1030
0000
,
1000
0000
0010
0000
0100
0000
0010
0000
1000
0000
0001
0100
0000
0000
0100
0000
,
0010
0000
1000
0000
0001
0000
0010
0000
0100
0000
1000
0001
0000
0000
0000
0000
,
0001
0000
0100
0000
0010
0000
0100
0000
0001
0000
1000
0010
0000
0000
0010
0000
,
1000
0000
0100
0000
1000
0000
0010
0000
0100
0000
0000
0100
0000
0000
0001
0000
,
1000
0000
0100
0000
0010
0000
0100
0000
1000
0000
0001
0010
0000
0000
0010
0000
,
0100
1000
0001
1000
0010
0010
0000
0010
,
1000
0000
0001
0000
0010
0000
0100
0000
1000
0000
0001
0100
0000
0000
0100
0000
,
0010
0001
0010
0100
0001
0010
0100
0000
,
1000
0000
0001
0000
0010
0000
0100
0000
1000
0000
0001
0100
0000
0000
0001
0000
,
0010
1000
0010
0100
1000
0000
1001
0000
,
0001
0000
1000
0000
0010
0000
0100
0000
0001
0000
1000
0100
0000
0000
0100
0000
,
0010
1000
0010
0100
1000
0010
0100
0000
,
0001
0000
1000
0000
0010
0000
0100
0000
0001
0000
1000
0100
0000
0000
1000
0000
,
0020
0000
0001
0000
1030
0100
1000
0010
,
0100
0100
0001
0001
,
1000
0000
1000
0000
0100
0001
0100
1000
,
0010
0010
1000
1000
,
0001
0000
0010
0100
1000
0000
0010
0100
0001
0000
0010
0000
0110
0000
0000
0000
,
0200
0000
1000
0000
0320
0000
0031
0001
,
0200
0000
0001
0000
0310
1000
0100
0010
,
0001
0001
1000
1000
,
0001
0010
1000
0010
0001
0100
0010
0001
,
0010
0000
0000
0000
;

//---------------dance-single - the tech of the beast is FS DS XO----------------
#NOTES:
     dance-single:
     Heavy 17:
     Hard:
     17:
     0.879994,1.042073,0.114639,0.641981,0.729871,806.000000,791.000000,15.000000,84.000000,0.000000,0.000000,0.879994,1.042073,0.114639,0.641981,0.729871,806.000000,791.000000,15.000000,84.000000,0.000000,0.000000:
// measure 0
0000
0000
0000
0000
,  // measure 1
0000
0000
0000
0000
,  // measure 2
0000
0000
0000
0000
,  // measure 3
0000
0000
0000
0000
,  // measure 4
0001
0010
0000
0010
0100
1000
0001
0100
,  // measure 5
0000
0010
0000
0010
1000
0100
0010
0001
,  // measure 6
1000
0010
1000
0010
0100
0001
0100
0001
1000
0100
0010
0001
1000
0100
0010
0001
,  // measure 7
0200
0000
0320
0000
0031
0010
0100
0001
,  // measure 8
1001
0000
0000
0000
,  // measure 9
0000
0000
0000
0000
,  // measure 10
0000
0000
0000
0000
,  // measure 11
0000
0000
0000
0000
,  // measure 12
2000
0000
0100
0000
0000
3010
1000
0000
0100
0000
0010
0001
0000
0000
1000
0100
,  // measure 13
2000
0000
0010
0000
0000
3100
1000
0000
0001
0000
0100
0000
1000
0000
0100
0000
,  // measure 14
0002
0000
0100
0000
0000
0013
0001
0000
0100
0000
0010
1000
0000
0000
0001
0100
,  // measure 15
0010
0000
0010
0000
1000
0100
0010
0000
1000
0000
0010
0000
0001
0000
0100
0000
,  // measure 16
0001
0000
1000
0000
0100
0010
0200
0000
1000
0000
0310
0001
0000
0000
0001
0000
,  // measure 17
0100
0000
0100
0000
0001
0010
0001
0000
1000
0000
0100
2000
0001
0000
3100
0000
,  // measure 18
1000
0000
0001
0000
0100
0010
0200
0000
0001
0000
0310
1000
0100
0000
0010
0000
,  // measure 19
0001
0000
1000
0000
1001
0000
0000
0000
1001
0000
0001
0010
0001
0000
0100
0000
,  // measure 20
1000
0000
0100
0000
0010
0000
0020
0000
0100
0000
1030
0001
0000
0000
0010
0000
,  // measure 21
0100
0000
0100
0000
1000
0000
0010
0000
0100
0001
0100
0001
1000
0000
0100
0000
,  // measure 22
0001
0000
0100
0000
0010
0000
0020
0000
0100
0000
0031
1000
0000
0000
0010
0000
,  // measure 23
0100
0000
0100
0000
0001
0000
0010
0000
0100
1000
0100
1000
0010
0000
0000
0000
,  // measure 24
0001
0000
0010
0000
0100
0000
0200
0000
0001
0000
0310
1000
0000
0000
1000
0000
,  // measure 25
0100
0000
0200
0000
1000
0000
0310
0000
0001
0100
0001
1000
0100
0000
0010
0000
,  // measure 26
1000
0000
0010
0000
0100
0000
0200
0000
1000
0000
0310
0001
0000
0000
0001
0000
,  // measure 27
1002
0000
0000
0000
0203
0000
0000
0000
1300
0000
0100
0010
0100
0010
1000
0000
,  // measure 28
0002
0000
0000
0000
,  // measure 29
0000
0000
0000
0000
,  // measure 30
0000
0000
0000
0000
,  // measure 31
0000
0000
0000
0000
,  // measure 32
1003
0000
0100
0010
0000
0010
0001
0100
,  // measure 33
0001
0000
0001
0000
1000
0000
0010
0000
0000
0000
0010
2000
0000
0000
3100
0000
,  // measure 34
1000
0000
0010
0100
0000
0100
0001
0010
,  // measure 35
0001
0000
0001
0000
1000
0000
1000
0000
0000
0000
0010
0200
0000
0000
0301
0000
,  // measure 36
1000
0000
0000
0000
0000
0000
0000
0000
0001
0000
0000
0000
0020
0030
0000
0000
0000
0000
0000
0000
0020
0030
1000
0000
0000
0000
0100
0000
0000
0000
0100
0000
,  // measure 37
1000
0000
0001
0100
0001
0000
0010
0000
0000
0010
0001
0000
0000
1000
0000
1000
,  // measure 38
0001
0000
0000
1000
0010
0000
0200
0300
0000
0000
0200
0310
0000
0001
0000
0001
,  // measure 39
1000
0000
0010
0100
0001
0000
0010
0000
0001
0100
0010
0000
0000
1000
0100
0010
,  // measure 40
0001
0000
0000
0000
0000
0000
0000
0000
1000
0000
0000
0000
0020
0030
0000
0000
0000
0000
0000
0000
0020
0030
0001
0000
0000
0000
0100
0000
0000
0000
0100
0000
,  // measure 41
0001
0000
1000
0100
1000
0000
0010
0000
0000
0010
1000
0000
0000
0001
0000
0001
,  // measure 42
1000
0000
0000
0001
0010
0000
0200
0300
0000
0000
0200
0310
0000
1000
0100
1000
,  // measure 43
0020
0000
0000
0000
0001
0000
0000
0000
1030
0100
0010
0000
0001
0000
0001
0000
,  // measure 44
0200
0300
0000
0000
0200
0000
0000
0000
1000
0000
0000
0000
0310
0000
0000
0000
0001
0000
0000
0000
2000
0000
0100
0000
0000
0000
0000
0000
3001
0000
0000
0000
,  // measure 45
0020
0030
0000
0000
0020
0000
0000
0000
1000
0000
0000
0000
0130
0000
0000
0000
0010
0000
0000
0000
0001
0000
0000
0000
0010
0000
0000
0000
1000
0000
0000
0000
,  // measure 46
0020
0030
0000
0000
0020
0000
0000
0000
0001
0000
0000
0000
0130
0000
0000
0000
1000
0000
0000
0000
0002
0000
0010
0000
0000
0000
0000
0000
1003
0000
0000
0000
,  // measure 47
0100
0010
0001
0100
0002
1000
0023
0001
,  // measure 48
0230
0300
0000
0000
0200
0300
0010
0000
1000
0000
0000
0000
0100
0000
0010
0000
0001
0000
0000
0000
0100
0000
0010
0000
1000
0000
0000
0000
0000
0000
0000
0000
,  // measure 49
0200
0300
0000
0000
0200
0300
0010
0000
1000
0000
0000
0000
0100
0000
0010
0000
0002
0000
0000
0000
1000
0000
0000
0000
0203
0000
0000
0000
0001
0000
0000
0000
,  // measure 50
0320
0030
0000
0000
0020
0030
0100
0000
1000
0000
0000
0000
0010
0000
0100
0000
0001
0000
0000
0000
0010
0000
0100
0000
1000
0000
0000
0000
0010
0000
0100
0000
,  // measure 51
0001
0010
1000
0010
0200
1000
0310
0002
,  // measure 52
1003
0100
0010
0000
0001
0100
0010
0000
1000
0100
1000
0001
0000
0100
0010
0000
,  // measure 53
1000
0000
0100
0000
0010
0000
0000
0000
0001
0000
0100
0000
0010
0000
0000
0000
0200
0300
0000
0000
0200
0300
1000
0000
0001
0000
0000
0000
0100
0000
0000
0000
,  // measure 54
0001
0010
0100
0000
1000
0010
0100
0000
0001
0010
0001
1000
0000
0010
0100
0000
,  // measure 55
0001
0010
0100
0000
1000
0010
0100
0000
1000
0000
0100
0001
0020
0000
0000
0000
,  // measure 56
0031
0100
0010
0000
1000
0100
0010
0000
0001
0100
0001
1000
0000
0100
0010
0000
,  // measure 57
0001
0000
0100
0000
0010
0000
0000
0000
1000
0000
0100
0000
0010
0000
0000
0000
0200
0300
0000
0000
0200
0300
0001
0000
1000
0000
0000
0000
0100
0000
0000
0000
,  // measure 58
1000
0010
0100
0000
0001
0010
0100
0000
1000
0010
1000
0001
0000
0010
0100
0000
,  // measure 59
1000
0010
0100
0001
0000
0010
0100
1000
0020
0000
0130
0001
1000
0001
0010
0001
,  // measure 60
1000
0000
0000
0000
0000
0000
0100
0000
0100
0000
1000
0001
1000
0000
1010
0000
,  // measure 61
0000
0000
0110
0000
0000
0000
0101
0000
0001
0000
1000
0100
0000
1000
0001
1000
,  // measure 62
0001
0000
0000
0010
0010
0001
0100
0101
,  // measure 63
0000
0000
0110
0000
0000
0000
1010
0000
0010
0000
1000
0100
0010
0000
0001
0100
,  // measure 64
0010
0000
1000
0000
0000
0000
0010
0000
0010
0000
1000
0001
1000
0000
1100
0000
,  // measure 65
0000
0000
0110
0000
0000
0000
0011
0000
0001
0000
1000
0010
0000
1000
0001
1000
,  // measure 66
0001
0000
0000
0000
0000
0000
0100
0000
0100
0000
0001
1000
0001
0000
0010
0000
,  // measure 67
0001
0000
0100
0010
1000
0000
0100
0000
1000
0010
0100
0001
0010
0100
0010
0001
,  // measure 68
2000
0000
3200
0000
0310
0010
0100
1000
,  // measure 69
0010
0000
0100
0001
1000
0000
0200
0000
0000
0310
0002
0000
0000
0103
0002
0000
,  // measure 70
2003
0000
0000
0000
3020
0000
0000
0000
0130
0000
0100
0000
0010
1000
0001
0000
,  // measure 71
0010
0000
0100
0000
1000
0001
1000
0010
0200
0000
1000
0000
0000
0000
0301
0000
,  // measure 72
1000
0100
0010
0000
0001
0100
0010
0001
,  // measure 73
0010
0000
0100
0000
0001
0000
0001
0000
0010
0000
0100
1000
0100
0000
0010
0000
,  // measure 74
0001
0100
0001
0100
0010
1000
0010
1000
0001
0010
0001
0010
0100
1000
0100
1000
,  // measure 75
0100
0200
0001
2300
,  // measure 76
3001
0000
0010
0000
0100
0000
0010
0001
0010
0000
0200
1000
0000
0000
0310
0001
,  // measure 77
1000
0000
0010
0000
0001
0000
0010
0000
0100
0000
0100
0000
0001
0000
0010
0100
,  // measure 78
1000
0000
0010
0000
0100
0000
0010
1000
0010
0000
0200
0001
0000
0000
0310
1000
,  // measure 79
0001
0000
0010
0001
1000
0000
0200
0000
0010
0000
1300
0001
1000
0000
0010
0000
,  // measure 80
1000
0000
0100
0000
0010
0000
0100
1000
0100
0000
0020
0001
0000
0000
0130
1000
,  // measure 81
0001
0000
0100
0000
1000
0000
0100
0000
0001
0000
0000
0011
0000
0000
0010
0000
,  // measure 82
0001
0000
0100
0000
0010
0000
0100
0001
0100
0000
0020
1000
0000
0000
0130
0001
,  // measure 83
1000
0100
0010
0001
1000
0010
0100
0000
0010
0000
0010
0000
0001
0000
0010
0000
,  // measure 84
1000
0000
0010
0000
0100
0000
0001
0010
0100
0000
2000
0010
0000
0000
3001
0100
,  // measure 85
0001
0000
0000
0000
0200
0300
0000
0000
0200
0300
0000
0000
1000
0000
0000
0000
0100
0000
0000
0000
0100
0000
0000
0000
0001
0000
0000
0000
0100
0000
1000
0000
,  // measure 86
0100
0000
0010
0000
0001
0000
1000
0010
0100
0000
0002
0100
0000
0000
1003
0100
,  // measure 87
0010
0000
0001
1000
0100
0000
1000
0001
0100
0000
0001
0010
0001
0000
0001
0000
,  // measure 88
1000
0000
0010
0000
0100
0000
0001
0010
0100
0000
2000
0010
0000
0000
3001
0100
,  // measure 89
0001
0000
0000
0000
0200
0300
0000
0000
0200
0300
0000
0000
1000
0000
0000
0000
0100
0000
0000
0000
0000
0000
1100
0000
0000
0000
0000
0000
1000
0000
0000
0000
,  // measure 90
0010
0000
0100
0000
0010
0000
1000
0100
0010
0000
0002
0100
0000
0000
0013
0100
,  // measure 91
2000
0000
0010
0000
3001
0002
1000
0103
,  // measure 92
0010
0000
1000
0000
0100
0000
1000
0010
0100
0000
0001
0010
0000
0000
0010
0001
,  // measure 93
1000
0010
1000
0100
0001
1000
0010
0001
,  // measure 94
0100
0000
0010
0000
0100
0000
0001
0010
0001
0000
1000
0010
0000
0000
0010
0000
,  // measure 95
0100
0000
0000
0000
0001
0000
0010
0000
0100
0000
0000
0000
1000
0000
0001
0000
0010
0000
0000
0000
0200
0300
0000
0000
0200
0300
0000
0000
0001
0000
1000
0000
,  // measure 96
0010
0000
0010
0000
0100
0001
1000
0000
,  // measure 97
1000
0100
1000
2000
0001
3020
1000
0130
,  // measure 98
0001
0000
0000
0000
0001
0000
0010
0100
0010
0000
0001
1000
0001
0000
1000
0100
,  // measure 99
1000
0000
0010
0100
1000
0000
0100
0001
0020
0000
0001
0000
0130
0000
1000
0000
,  // measure 100
0020
0000
0000
0000
,  // measure 101
0030
0000
0000
0000
;

//---------------dance-double - the twisty maiden----------------
#NOTES:
     dance-double:
     Heavy 17:
     Hard:
     17:
     0.893096,1.069968,0.099354,0.412702,0.691658,818.000000,805.000000,13.000000,54.000000,0.000000,0.000000,0.893096,1.069968,0.099354,0.412702,0.691658,818.000000,805.000000,13.000000,54.000000,0.000000,0.000000:
00000000
00000000
00000000
00000000
,
00000000
00000000
00000000
00000000
,
00000000
00000000
00000000
00000000
,
00000000
00000000
00000000
00000000
,
10000000
01000000
00000000
01000000
00000000
00100000
00010000
01000000
,
00000000
00100000
00000000
00100000
00000000
00010000
00001000
00010000
,
00000100
00000010
00000001
00000000
00000100
00000010
00001000
00000000
00000100
00010000
00000100
00001000
00000010
00000100
00000001
00000010
,
00000000
00001000
00000000
00001000
00010000
00020000
00000010
00031000
,
10001000
00000000
00000000
00000000
,
00000000
00000000
00000000
00000000
,
00000000
00000000
00000000
00000000
,
00000000
00000000
00000000
00000000
,
10000000
00000000
01000000
00000000
00000000
02000000
00100000
00000000
13000000
00000000
00010000
01000000
00000000
00000000
01000000
00000000
,
00200000
00000000
10000000
00000000
00000000
00310000
00001000
00000000
00100000
00000000
01000000
00000000
00100000
00000000
00001000
00000000
,
00020000
00000000
00001000
00000000
00000000
00030100
00000010
00000000
00000100
00000000
00001000
00000010
00000000
00000000
00000010
00000000
,
00000100
00000000
00010000
00000000
00000100
00000010
00010000
00000000
00001000
00000000
00100000
00000000
00001000
00000000
00000010
00000000
,
00000001
00000000
00001000
00000000
00000010
00000200
00000010
00000000
00000301
00000000
00001000
00000100
00000000
00000000
00000100
00000000
,
00001000
00000000
00001000
00000000
00000100
00001000
00010000
00000000
00100000
00000000
00000100
00010000
00001000
00000000
00000100
00000000
,
00002000
00000000
00010000
00000000
00000000
01003000
00100000
00000000
01000000
00000000
00010000
00100000
01000000
00000000
10000000
00000000
,
10100000
00000000
00000000
00000000
00110000
00000000
00000000
00000000
00011000
00000000
00001000
00010000
00000100
00000000
00000010
00000000
,
00000011
00000000
00000001
00000000
00000100
00000000
00000001
00000000
00000010
00000000
00000020
00000001
00000000
00000000
00000130
00000000
,
00001000
00000000
00001000
00000000
00000010
00000000
00000100
00000000
00000001
00000010
00000100
00001000
00010000
00000000
00000010
00000000
,
00000100
00000000
00000100
00000000
00001000
00000000
00000010
00000000
00000100
00000000
00000200
00000010
00000000
00000000
00000301
00000000
,
00001000
00000000
00001000
00000000
00000100
00000000
00010000
00000000
00001000
00100000
00001000
01000000
00100000
00000000
00000000
00000000
,
10000000
00000000
10000000
00000000
01000000
00000000
10000000
00000000
00100000
00000000
00200000
10000000
00000000
00000000
01300000
00000000
,
00010000
00000000
00010000
00000000
00100000
00000000
01000000
00000000
10000000
00100000
01000000
00010000
00001000
00000000
00100000
00000000
,
01000000
00000000
01000000
00000000
00010000
00000000
00100000
00000000
01000000
00000000
02000000
00100000
00000000
00000000
13000000
00000000
,
20010000
00000000
00000000
00000000
31000000
00000000
00000000
00000000
00010000
00000000
00001000
00100000
00001000
00010000
00000100
00000000
,
00000020
00000000
00000000
00000031
00000000
00000001
00000000
00000100
,
00000000
00000000
00000010
00000000
00001000
00000000
00000010
00000000
00000000
00000000
00000010
00000200
00000000
00000000
00000300
00000000
,
00000002
00000000
00000000
00000010
00000000
00000000
00000013
00000000
00000000
00000000
00000100
00000000
00001000
00000000
00000100
00000000
,
00010000
00000000
00010000
00001000
00000000
00000000
00010000
00000000
00001000
00000000
00100000
01000000
20000000
00000000
00000000
30000000
,
00200000
00000000
00000000
10300000
00000000
10000000
00000000
01000000
,
00000000
00000000
00100000
00000000
00010000
00000000
00100000
00000000
00000000
00000000
00100000
02000000
00000000
00000000
03000000
00000000
,
20000000
00000000
00000000
00100000
00000000
00000000
30100000
00000000
00000000
00000000
01000000
00000000
00010000
00000000
01000000
00000000
,
00001000
00000000
00001000
00000000
00010000
00000000
00010000
00000000
00000000
00000000
00001000
00000100
00000010
00000000
00001000
00000000
,
00000001
00000000
00000100
00000000
00000001
00000000
00001000
00000000
00000100
00000000
00000010
00000100
00000000
00001000
00000000
00001000
,
00000010
00000000
00010000
00001000
00010000
00000000
00000100
00000000
00000010
00000100
00001000
00000000
00000000
00000010
00000000
00000010
,
00000100
00000000
00001000
00010000
00001000
00000000
00000010
00000000
00000000
00000000
00000100
00010000
00000000
00001000
00000000
00001000
,
00100000
00000000
00010000
00001000
00010000
00000000
00100000
00000000
00001000
00010000
01000000
00000000
00000000
10000000
00010000
10000000
,
00000000
00000000
01000000
00000000
10000000
00000000
00010000
00000000
01000000
00000000
00100000
01000000
00000000
00010000
00000000
00010000
,
00100000
00000000
00001000
00010000
00001000
00000000
01000000
00000000
00100000
01000000
00010000
00000000
00000000
00100000
00000000
00100000
,
01000000
00000000
00010000
00001000
00010000
00000000
00100000
00000000
00000000
00000000
01000000
00001000
00000000
00010000
00000000
00020000
,
01000000
00000000
00000000
00030000
00010100
00000000
00000100
00000000
00001000
00000010
00000100
00000010
00010000
00000000
00020000
00000000
,
00000100
00000000
00032000
00000000
00100000
00000000
00023000
00000000
00001000
00000000
00030100
00000010
00000000
00000100
00020000
00000000
,
00000010
00032000
01000000
00023000
01030000
10000000
00100000
00020000
,
00000010
00000000
00032000
00000000
00100000
00000000
00023000
00000000
00030100
00000000
00000010
00001000
00000000
00010000
00001000
00000000
,
01000000
00100000
00010000
00100000
20000000
00010000
31000000
00100000
,
00001000
00000000
00010000
00100000
01000000
00000000
00001000
00000100
00000010
00000000
00010000
00100000
01000000
00000000
00000000
00000000
,
00001000
00000000
00010000
01000000
00100000
00000000
00001000
00000010
00000100
00000000
00010000
00000000
00000010
00000000
00001000
00000000
,
00010000
00000000
01000000
00001000
00010000
00000000
00000100
00010000
00001000
00000000
01000000
00100000
00000000
00010000
00001000
00000000
,
00100000
01000000
00001000
00010000
00200000
00001000
00300010
00000200
,
00000301
00000010
00000100
00000000
00001000
00000010
00000100
00000000
00001000
00000000
00000100
00000010
00000000
00001000
00000100
00000000
,
00000010
00000001
00001000
00000000
00000100
00000010
00001000
00000000
00000010
00000000
00000100
00010000
00001000
00000000
00000100
00000000
,
00000010
00001000
00000001
00000000
00000010
00000001
00000100
00000000
00001000
00000000
00000100
00000010
00000000
00000100
00001000
00000000
,
00010000
00001000
00100000
00000000
00001000
00010000
00000010
00000000
00010000
00001000
00100000
01000000
00010000
00000000
01000000
00000000
,
10000000
00100000
01000000
00000000
00010000
00100000
01000000
00000000
00010000
00000000
01000000
00100000
00000000
00010000
01000000
00000000
,
00100000
10000000
00010000
00000000
01000000
00100000
00010000
00000000
00100000
00000000
01000000
00001000
00010000
00000000
01000000
00000000
,
00100000
00010000
10000000
00000000
00100000
10000000
01000000
00000000
00010000
00000000
01000000
00100000
00000000
00001000
00010000
00000000
,
00001000
00000000
00000100
00000010
00001000
00000000
00000010
00010000
00000100
00000000
00000010
00000000
00001000
00000000
00000010
00000000
,
00000001
00000000
00000000
00000101
00000100
00000001
00000010
00000100
,
00000000
00000000
00000100
00001000
00010000
00000000
00100000
00000000
00001000
00010000
00001000
00000000
00010000
00001000
00100000
00010000
,
10000000
00000000
00000000
10100000
00100000
10000000
01000000
00100000
,
00000000
00000000
00100000
00010000
00001000
00000000
00000100
00000000
00010000
00000000
00000100
00000010
00000100
00001000
00000100
00000010
,
00000001
00000000
00000000
00000011
00000010
00000001
00000100
00000010
,
00000000
00000000
00000010
00001000
00010000
00000000
01000000
00000000
00001000
00010000
00001000
00000000
00010000
00001000
01000000
00010000
,
10000000
00000000
00000000
11000000
01000000
10000000
00100000
01000000
,
00001000
00000000
00010000
01000000
00010000
00000000
00001000
00000100
00001000
00000000
00000010
00000100
00000001
00000010
00000100
00000010
,
00000002
00000000
00000103
00000010
00000100
00000010
00000100
00000001
,
00000010
00000000
00000100
00000010
00000001
00000001
00000100
00000010
,
00002000
00000000
00003100
00000100
00010000
00001000
00010000
00000100
,
00001000
00000000
00010000
00000000
00100000
00001000
00100000
00010000
01000000
00000000
10000000
00000000
01000000
00000000
00010000
00000000
,
20000000
00000000
01000000
00000000
00000000
00000000
30100000
00000000
00100000
00000000
01000000
00010000
01000000
00000000
00100000
00000000
,
10000000
00010000
10000000
00000000
01000000
00000000
00100000
00010000
01000000
00100000
00010000
00000000
00001000
00010000
00000100
00001000
,
00010000
00100000
01000000
00000000
00100000
00010000
10000000
00000000
00100000
10000000
00010000
00100000
01000000
00100000
00001000
01000000
,
00001000
00000000
00000000
00000000
00010000
00000000
00001000
00000000
00000020
00000000
00000000
00000000
00001030
00000010
00000100
00001000
,
00000001
00000000
00000100
00000000
00000010
00000000
00010000
00000200
00010000
00000000
00001300
00000010
00000000
00001000
00000100
00000000
,
00000010
00000000
00001000
00000000
00000010
00000000
00000001
00000000
00000100
00000000
00000200
00000000
00000010
00000000
00000301
00001000
,
00000001
00000000
00000010
00000000
00000100
00000000
00010000
00002000
00010000
00000000
00003100
00000010
00000000
00000000
00001000
00000100
,
00000010
00000000
00000100
00010000
00001000
00000000
02000000
00000000
00010000
00000000
03100000
10000000
00000000
00000000
00010000
00000000
,
10000000
00000000
01000000
00000000
00100000
00000000
00001000
02000000
00001000
00000000
03010000
00100000
00000000
00010000
01000000
00000000
,
00100000
00000000
00010000
00000000
00100000
00000000
10000000
00000000
01000000
00000000
10000000
00001000
00000000
00000000
00001000
00000000
,
00100000
00000000
01000000
00000000
00100000
00000000
00001000
00020000
00001000
00000000
01030000
00100000
10000000
00000000
00100000
00000000
,
00010000
01000000
00010000
00100000
00001000
00010000
00000100
00010000
00000010
00000000
00000020
00000000
00001000
00000000
00000130
00000000
,
00000001
00000000
00000010
00000000
00001000
00000000
00010000
00000020
00010000
00000000
00001030
00000100
00000000
00001000
00000010
00000000
,
00000100
00001000
00000100
00000001
00000010
00000020
00000001
00000130
,
00001000
00000000
00000010
00000000
00000100
00000000
00001000
00020000
00001000
00000000
00030010
00000100
00000000
00000000
00000010
00010000
,
00001000
00000000
00100000
00001000
00010000
00000000
00200000
00000000
00310000
00000000
00000100
00001000
00010000
00000000
00010000
00000000
,
10000000
00000000
00100000
00000000
00010000
00000000
00001000
00200000
00001000
00000000
00310000
01000000
00000000
00010000
00100000
00000000
,
01000000
00000000
00010000
00000000
01000000
00000000
10000000
00000000
00001000
00000000
00000000
00001000
00000000
00000000
00100000
00000000
,
00010000
00000000
01000000
00000000
00100000
00000000
00010000
00002000
00010000
00000000
00103000
01000000
00000000
00000000
00100000
00002000
,
00010000
00203000
00001000
00300020
00001000
00001030
00100000
00010000
,
00001000
00001000
00010000
00010000
,
00001000
00000100
00001000
00010000
00100000
00001000
00000010
00010000
,
00001000
00001000
00010000
00010000
,
01000000
00000000
00100000
00001000
00010000
00000000
00000010
00010000
00001000
00000000
00000010
00000000
00000100
00000000
00000100
00000000
,
00010000
00011000
00001000
00011000
,
00010000
00100000
00010000
00001000
00020000
00000001
00032000
10000000
,
00013000
00000000
00000000
00000000
00001000
00000000
00010000
00000100
00010000
00000000
00001000
01000000
00001000
00000000
00010000
01000000
,
10000000
00000000
00100000
00010000
00001000
00000000
00000200
00000000
00000001
00000000
00000310
00000000
00001000
00000000
00000001
00000010
,
00001000
00000000
00000000
00000000
;
