#TITLE:futuristic clock;
#SUBTITLE:;
#ARTIST:Ω (NAOKI underground);
#TITLETRANSLIT:;
#SUBTITLETRANSLIT:;
#ARTISTTRANSLIT:;
#GENRE:;
#CREDIT:;
#BANNER:futuristic clock.png;
#BACKGROUND:futuristic clock-bg.png;
#LYRICSPATH:;
#CDTITLE:CDtitle.png;
#MUSIC:futuristic clock.ogg;
#OFFSET:1.998000;
#SAMPLESTART:20.002001;
#SAMPLELENGTH:10.667000;
#SELECTABLE:YES;
#BPMS:0.000000=120.000000
,44.000000=180.000000
,108.000000=170.000000
,172.000000=260.000000
,236.000000=130.000000
,252.000000=133.000000
,256.000000=270.000000
,312.000000=67.500000
,320.000000=140.000000
,328.000000=300.000000
,344.000000=75.000000
;
#STOPS:
;
#BGCHANGES:4.000=futuristic clock.mp4=1.000=1=0=1===CrossFade==,
99999=-nosongbg-=1.000=0=0=0 // don't automatically add -songbackground-
;
#KEYSOUNDS:;
#ATTACKS:;

//---------------dance-single - Pandemonium X----------------
#NOTES:
     dance-single:
     Pandemonium X:
     Beginner:
     6:
     0.158047,0.391006,0.090145,0.065560,0.000000,135.000000,124.000000,11.000000,8.000000,0.000000,0.000000,0.158047,0.391006,0.090145,0.065560,0.000000,135.000000,124.000000,11.000000,8.000000,0.000000,0.000000:
// measure 0
0000
0000
0000
0000
,  // measure 1
0000
0000
0000
0000
,  // measure 2
0000
0000
0000
0000
,  // measure 3
0000
0000
0000
0000
,  // measure 4
0000
0000
0000
0000
,  // measure 5
0001
0001
0001
0000
,  // measure 6
1000
1000
1000
0000
,  // measure 7
0010
0010
0010
0000
,  // measure 8
0100
0100
0100
0000
,  // measure 9
1001
0000
0000
0000
,  // measure 10
0000
0000
0000
0000
,  // measure 11
0001
0000
0000
0000
,  // measure 12
1000
0000
0000
0000
,  // measure 13
0100
0000
0000
0000
,  // measure 14
0010
0000
0001
0000
,  // measure 15
0100
0000
0000
0000
,  // measure 16
0001
0000
0000
0000
,  // measure 17
0010
0000
0000
0000
,  // measure 18
0001
0000
1000
0000
,  // measure 19
0200
0000
0000
0000
,  // measure 20
0300
0000
0000
0000
,  // measure 21
0200
0000
0000
0000
,  // measure 22
0300
0000
0000
0000
,  // measure 23
0020
0000
0000
0000
,  // measure 24
0030
0000
0000
0000
,  // measure 25
0020
0000
0000
0000
,  // measure 26
0030
0000
0100
0000
,  // measure 27
1001
0000
0002
0003
,  // measure 28
1000
0000
0000
0000
,  // measure 29
0001
0000
1000
0000
,  // measure 30
0100
0000
0000
0000
,  // measure 31
0010
0000
0200
0000
,  // measure 32
1300
0000
0001
0000
,  // measure 33
0100
0000
0110
0000
,  // measure 34
0010
0000
0110
0000
,  // measure 35
0001
0000
0000
0000
,  // measure 36
1000
0000
0000
0000
,  // measure 37
0010
0000
0000
0000
,  // measure 38
0100
0000
0000
0000
,  // measure 39
0001
0000
0001
0000
,  // measure 40
1000
0000
1000
0000
,  // measure 41
0010
0000
0100
0000
,  // measure 42
0001
0000
0000
0000
,  // measure 43
1000
0000
0000
0000
,  // measure 44
0001
0000
0000
0000
,  // measure 45
0010
0000
0000
0000
,  // measure 46
0001
0000
1000
0000
,  // measure 47
0001
0000
0000
0000
,  // measure 48
0100
0000
0000
0000
,  // measure 49
0010
0000
0000
0000
,  // measure 50
1000
1000
1000
0000
,  // measure 51
0001
0000
0000
0000
,  // measure 52
0000
0000
1000
1000
,  // measure 53
0100
0000
0000
0000
,  // measure 54
0000
0000
0010
0010
,  // measure 55
0001
0000
0000
0000
,  // measure 56
0000
0000
0100
0000
,  // measure 57
0010
0000
0100
0000
,  // measure 58
0001
0001
0001
0000
,  // measure 59
1001
0000
0010
0000
,  // measure 60
0010
0000
0010
0000
,  // measure 61
1001
1000
1000
1000
,  // measure 62
0001
0000
0100
0000
,  // measure 63
0110
0000
1001
0000
,  // measure 64
0001
0000
0000
0000
,  // measure 65
1000
0000
0000
0000
,  // measure 66
0100
0000
0000
0000
,  // measure 67
0010
0000
0000
0000
,  // measure 68
0100
0000
0000
0000
,  // measure 69
0010
0010
0010
0000
,  // measure 70
0001
0000
0000
0000
,  // measure 71
0100
0000
0000
0000
,  // measure 72
0010
0000
0000
0000
,  // measure 73
1000
0000
0000
0000
,  // measure 74
0001
0000
0000
0000
,  // measure 75
1000
0000
0000
0000
,  // measure 76
0100
0000
0000
0000
,  // measure 77
0010
0010
0010
0000
,  // measure 78
1001
0000
0000
0000
0001
0001
0001
0000
,  // measure 79
1001
0000
0000
0000
1000
1000
1000
0000
,  // measure 80
0010
0000
0100
0000
,  // measure 81
0001
0000
1000
0000
,  // measure 82
0010
0000
0000
0000
,  // measure 83
0100
0000
0000
0000
,  // measure 84
0001
0000
0000
0000
,  // measure 85
1000
0000
0000
0000
,  // measure 86
2002
3000
0000
0003
;

//---------------dance-single - Pandemonium X----------------
#NOTES:
     dance-single:
     Pandemonium X:
     Easy:
     9:
     0.334826,0.675374,0.188486,0.245851,0.012293,286.000000,263.000000,23.000000,30.000000,0.000000,0.000000,0.334826,0.675374,0.188486,0.245851,0.012293,286.000000,263.000000,23.000000,30.000000,0.000000,0.000000:
0000
0000
0000
0000
,
0000
0000
0000
0000
,
0000
0000
0000
0000
,
0000
0000
0000
0000
,
0000
0000
0000
0000
,
0001
0100
0010
1000
,
0010
0100
0001
0010
,
0120
1030
0210
0301
,
1002
0103
2001
3100
,
2002
0000
0000
0000
,
0000
0000
0000
3003
,
0001
0000
1000
0000
0000
0010
1000
0000
,
0001
0000
0010
0000
0000
0001
1000
0000
,
0100
0000
0010
0000
0000
0001
0100
0000
,
0001
0000
0010
0000
0100
1000
0010
0000
,
0100
0000
0001
0000
0000
1000
0100
0000
,
0010
0000
0001
0000
0000
0100
0001
0000
,
0100
0000
0010
0000
0000
1000
0100
0000
,
0010
0000
0100
0000
1000
0001
0100
0000
,
0010
0000
0000
1000
0000
0000
0100
0000
,
0000
0000
0000
0000
,
0010
0000
0000
0001
0000
0100
0000
0001
,
0000
0000
0000
0000
,
0001
0000
0000
0100
0000
0000
0001
0000
,
0000
1000
0000
0001
0000
1000
0000
0000
,
0100
0000
0000
1000
0000
0010
0000
1000
,
0000
0000
0001
0000
,
1001
0000
0001
0000
1000
0100
1000
0000
,
0100
0000
0000
0100
0000
0000
0100
0000
,
0010
0000
0001
0000
0000
0001
0000
0000
,
0001
0000
0000
0001
0000
0000
1000
0000
,
0100
0000
0010
0000
0100
0010
0100
0000
,
0010
0000
0000
0010
0000
0000
0100
0000
,
2000
0000
0000
0000
0001
0001
3001
0000
,
0002
0000
0100
0000
0100
0103
0000
0000
,
1010
0010
0100
0001
,
0010
0100
1000
0100
,
1001
0001
0100
0001
,
0010
0100
1000
0100
,
1001
0001
1000
0010
,
1000
0100
0010
0001
,
1001
1000
0010
0100
,
0001
0000
0000
0001
0000
0000
0001
0000
,
1000
0000
0010
0000
,
0100
0000
0001
0010
,
0001
0000
0100
0000
,
0010
0000
1000
0100
,
1000
0000
0100
0000
,
0010
0000
0001
1000
,
0001
0000
1000
0000
,
0010
0100
0110
0000
,
0001
0000
1000
0000
,
0100
0000
0010
0001
,
0100
0000
0010
0000
,
1000
0000
0100
1000
,
0001
0000
1000
0000
,
0010
0000
1000
0100
,
0010
0000
0001
0000
,
0100
0010
0110
0000
,
2001
0000
0200
3300
,
1001
0000
0000
0000
1001
1000
1000
1000
,
1001
0000
0001
0010
0001
0010
0001
0010
,
0200
0000
1300
0001
1000
0001
1000
0001
,
1000
0000
1000
0000
0001
0001
1001
1001
,
1000
0000
0010
0000
,
1000
0000
0100
0010
,
0100
0000
0010
0000
,
0001
0000
0100
0000
,
0010
0000
0100
0000
,
0001
1000
0001
0000
,
1000
0000
0100
0000
,
0010
0000
0001
0100
,
0010
0000
0100
0000
,
0010
0000
1000
0010
,
0100
0000
0010
0000
,
1000
0000
0001
0000
,
0010
0000
0001
0000
,
1000
0100
0010
0000
,
0021
0000
0000
0000
0130
0000
0000
0000
1000
0001
1000
0001
1000
0001
1000
0000
,
1001
1010
0011
1001
,
2000
3002
0203
0320
,
2030
3002
0203
0320
,
2030
0000
3002
0000
,
2003
0000
3002
0000
,
0203
0000
0320
0000
,
0230
0000
0320
0000
,
2030
3100
0020
0130
;

//---------------dance-single - Pandemonium X----------------
#NOTES:
     dance-single:
     Pandemonium X:
     Medium:
     12:
     0.483507,1.030834,0.122926,0.163901,0.163901,413.000000,398.000000,15.000000,20.000000,0.000000,0.000000,0.483507,1.030834,0.122926,0.163901,0.163901,413.000000,398.000000,15.000000,20.000000,0.000000,0.000000:
0000
0000
0000
0000
,
0000
0000
0000
0000
,
0000
0000
0000
0000
,
0000
0000
0000
0000
,
0000
0000
0000
0000
,
0001
0000
0000
1000
0000
0000
0001
0010
0100
0010
0000
0000
,
0001
0000
0000
1000
0000
0000
0001
0100
0010
0100
0000
0000
,
0001
0000
0000
1000
0000
0000
0001
1000
0100
0010
0000
0000
,
0001
1000
0001
1000
0100
0010
0001
1000
0001
1000
0100
0010
,
1001
0000
0000
0000
,
0000
0000
0000
0000
,
0001
0000
0000
0010
0000
0000
0001
0000
0000
0000
0100
0000
0000
0000
0010
0000
,
1000
0000
0000
0100
0000
0000
0010
0000
0000
0000
2100
0000
0000
3001
0000
0000
,
0100
0000
0000
0001
0000
0000
1000
0000
0000
0000
0001
0000
0000
0000
0100
0000
,
0010
0000
0000
1000
0000
0000
0010
0000
0100
0000
0000
0001
0000
0000
0010
0000
,
0001
0000
0000
0100
0000
0000
0001
0000
0000
0000
1000
0000
0000
0000
0100
0000
,
1000
0000
0000
0010
0000
0000
0100
0000
0000
0000
0102
0000
0000
0013
0000
0000
,
0100
0000
0000
0010
0000
0000
0001
0000
0000
0000
1000
0000
0000
0000
0001
0000
,
0100
0000
0000
0100
0000
0000
0001
0000
0010
0000
0000
0010
0000
0000
0100
0000
,
1000
0100
0010
0100
0000
1000
0001
0000
,
0000
0000
0000
0000
,
1000
0100
0010
0100
0000
1000
0000
0001
,
0000
0000
0000
0000
,
0001
0010
0100
0010
0000
0001
1000
0000
,
0000
0001
0000
1000
0000
0001
0000
0000
,
0001
0010
0100
0010
0000
0001
0000
1000
,
0000
0000
0010
0000
,
0101
0001
0020
0031
,
0100
0010
0100
0010
,
1000
0010
1000
0010
,
1000
0100
1000
0100
,
0010
0001
0200
0301
,
1000
0001
1000
0001
,
0102
0000
0013
0000
0100
1000
0010
0000
,
1020
0000
0130
0000
0010
1000
0100
0000
,
0010
0000
0100
0000
0010
0000
0001
0100
,
0010
0000
0100
0000
0010
0000
1000
0010
,
0100
0000
0001
0000
0010
0000
0100
0010
,
0001
0100
0010
1000
,
0001
0100
1000
0000
0100
0001
0010
0000
,
1000
0010
0001
0000
0010
0100
1000
0000
,
0001
1000
0010
0000
1000
1000
0000
0001
,
0001
0000
0010
0100
0000
0100
1000
0000
,
0001
1000
0001
1000
,
0100
1000
0020
0230
,
0301
0100
0001
0100
,
0010
0100
0002
0023
,
0130
0010
0100
1000
,
0100
1000
0002
2003
,
3010
0100
0001
0010
,
0100
1000
0100
1000
0100
0000
0000
0000
,
1000
0010
0100
0001
,
0010
0000
0100
0000
1000
0001
1000
0001
,
0000
0100
0000
0001
0000
0010
0000
0001
,
0000
0100
0000
0010
1000
0010
1000
0010
,
1000
0010
1000
0010
,
1000
0100
1000
0001
,
0010
0100
1000
0010
,
1000
0001
1000
0001
1000
0000
0000
0000
,
1020
0000
0230
0000
,
0302
0000
0000
0003
0000
0000
0000
0000
0002
0000
0100
0000
0100
0000
0103
0000
,
1010
0000
1000
0010
0010
0010
0010
0010
,
0100
0010
1000
1000
0100
0010
0001
1000
,
0001
0100
0001
0000
0001
0000
1000
0000
0101
0000
1010
0000
1000
0001
1000
0000
,
1100
0100
0010
0100
,
1000
0001
0100
0010
,
1000
0001
0010
0100
,
0010
0001
0100
0010
,
1000
0100
0010
0100
,
1000
0001
1000
0001
1000
0000
0000
0000
,
0001
0100
0001
0010
,
0001
0000
1000
0000
0010
1000
0100
0000
,
0000
0010
0000
0001
0000
0100
0000
0010
,
0000
1000
0000
0001
0010
0000
0100
0000
,
1000
0001
0010
0001
,
1000
0010
1000
0001
,
0100
0001
1000
0100
,
0010
0001
0010
0001
0010
0000
0000
0000
,
1100
0000
0000
0000
0000
0000
0001
0100
0000
0001
0100
0000
0001
0000
0000
0000
1000
0000
0000
0000
1001
0000
0000
0000
0110
0000
0000
0000
1001
0000
0000
0000
,
0001
0000
0000
0000
0000
0000
0001
1000
0001
0000
1000
0000
1000
0000
0000
0000
2000
0000
3010
0000
0200
0000
0301
0000
0100
0000
0010
0000
1000
0000
1000
0000
,
0001
0010
0100
1000
0001
0010
0100
1000
,
0001
0010
0100
1000
0001
0010
0100
1000
,
0001
0100
0001
0100
,
0001
0100
0001
0100
,
0010
1000
0010
1000
,
0010
1000
0010
1000
,
0200
0310
0002
0013
;

//---------------dance-single - Pandemonium X----------------
#NOTES:
     dance-single:
     Pandemonium X:
     Hard:
     17:
     0.770334,1.421840,0.376972,0.204876,0.471215,658.000000,612.000000,46.000000,25.000000,0.000000,0.000000,0.770334,1.421840,0.376972,0.204876,0.471215,658.000000,612.000000,46.000000,25.000000,0.000000,0.000000:
0000
0000
0000
0000
,
0000
0000
0000
0000
,
0000
0000
0000
0000
,
0000
0000
0000
0000
,
0000
0000
0000
0000
,
0011
0000
0000
1001
0000
0000
1100
0100
0100
0100
0000
0000
,
1010
0000
0000
1001
0000
0000
1100
1000
1000
1000
0000
0000
,
0001
0100
0001
0100
0010
1000
0010
0100
0100
0100
0010
0100
,
0001
0100
0010
1000
0100
0010
0001
0100
0010
1000
0100
0010
,
1001
0001
1000
0001
,
1000
0001
1000
0001
,
1010
0000
0000
0010
0000
0000
1000
0000
0000
0000
0001
0000
0000
0000
0010
0000
,
0100
0000
0000
0010
0000
0000
0001
0000
0000
0000
0102
0000
0000
1000
0000
0000
,
0103
0000
0000
0001
0000
0000
0100
0000
0000
0000
0010
0000
0000
0000
0100
0000
,
0001
0000
0000
0010
0000
0000
0001
0000
1000
0000
1002
0000
0000
0000
0010
0000
,
0023
0000
0000
0100
0000
0000
0032
0000
0000
0000
0103
0000
0000
0000
0010
0000
,
1000
0000
0000
0001
0000
0000
0100
0000
0000
0000
2001
0000
0000
0010
0000
0000
,
3100
0000
0000
0010
0000
0000
0100
0000
0000
0000
0010
0000
0000
0000
0001
0000
,
1000
0000
0000
0010
0000
0000
0100
0000
0001
0000
0000
0010
0000
0000
0001
0000
,
1000
0100
0010
0001
0000
0100
0010
0000
,
0100
0000
0000
0100
0100
0000
1001
0000
,
1000
0100
0010
0001
0000
0001
0000
1000
,
0001
0000
0000
0000
0001
0000
0001
1000
0000
0001
1000
0000
1001
0000
0000
0000
,
1000
0100
0010
0001
0000
0001
1000
0000
,
0000
1100
0000
0110
0000
1100
0000
0000
,
1000
0100
0010
0001
0000
0011
0000
0101
,
0000
0000
0110
0000
,
1001
0000
0000
0000
1000
0000
0000
0000
0001
1000
0100
0010
0001
0000
0000
0000
,
1000
0001
0100
0001
,
1000
0100
1000
0001
,
0100
0001
1000
0100
,
1001
0000
0000
0000
0001
0000
0000
0000
1000
0100
0010
0001
1000
0000
0000
0000
,
0001
0010
0001
1000
,
1020
0000
0000
0000
0130
0100
0200
0000
,
0320
0000
2030
0000
0001
3001
0000
0000
,
1100
0000
0100
0000
1000
0000
0100
0000
1000
0000
0001
0000
0010
0000
0100
1000
,
0010
0000
0100
0000
0001
0000
0100
0000
0001
0000
1000
0000
0001
0010
0001
0010
,
0001
0000
0100
0000
0001
0000
0100
0000
0010
0000
1000
0000
0100
0000
0010
0100
,
0010
0000
0100
0000
0010
0000
0100
0000
1000
0000
0001
0000
1000
0100
1000
0100
,
1000
0100
0010
0100
1000
0001
1000
0100
,
0001
0100
1000
0002
0000
0000
2003
0000
,
3001
0100
0010
0100
0010
1000
0001
0010
,
0200
0000
0000
2300
0000
0000
3001
0000
,
1000
0100
1000
0100
0010
0001
0010
0100
,
1000
0001
1000
0001
0100
0001
0100
0010
,
0100
0001
0100
0001
1000
0010
1000
0100
,
0010
0000
0000
0001
0000
0000
0010
0000
0000
0001
0000
0000
1000
0000
0001
0000
1000
0000
0001
0000
0000
0100
0000
0000
,
0010
1000
0010
1000
0001
0100
0001
0010
,
0100
1000
0100
1000
0001
0010
0001
0100
,
0001
1000
0001
1000
0100
1000
0100
0010
,
0001
1000
0001
0000
1000
0001
1000
0000
0001
0000
0000
0000
0000
0000
0000
0000
,
1000
0010
1000
0010
0001
0010
0001
0010
,
1000
0000
0000
0010
0000
0000
0100
0000
0000
0001
0000
0000
0010
0000
0100
0000
0010
0000
0100
0000
0000
0000
0000
0000
,
1000
0100
1000
0100
0001
0100
0001
0100
,
1000
0000
0000
0010
0000
0000
1000
0000
0000
0100
0000
0000
0010
0000
0001
0000
0010
0000
0001
0000
0000
0010
0000
0000
,
0100
0010
0100
0010
0001
0010
0001
0010
,
0100
1000
0100
1000
0001
0010
0100
1000
,
0100
1000
0010
1000
0001
0100
0010
0100
,
0001
1000
0001
0000
1000
0001
1000
0000
0001
0000
0000
0000
0000
0000
0000
0000
,
1002
0000
0000
0000
0000
0000
0000
0000
0203
0000
0301
1000
0001
1000
0001
0010
,
0200
0000
0000
1300
0010
0100
0010
0100
0001
0000
1100
0000
0101
0000
1001
0000
,
0220
0000
0000
0330
1001
0000
1010
0000
0101
0000
1010
0000
0101
0000
1010
0000
,
2001
0000
0000
0000
3100
0010
0100
0010
0100
0010
0100
0010
0100
0010
0100
0010
,
0001
0000
1000
0000
0001
1000
0001
0000
0100
0000
0010
0000
0100
0000
0010
0000
1010
0000
0000
0000
0101
0000
0000
0000
1000
0001
1000
0000
0001
1000
0001
1000
,
0001
0010
0001
0100
0001
0010
0001
1000
,
0100
0000
0000
0010
0000
0000
0001
0000
0000
1000
0000
0000
0100
0000
0010
0000
0100
0000
0010
0000
0000
0001
0000
0000
,
1000
0010
0100
0010
1000
0010
0100
0001
,
0010
0001
1000
0010
1000
0100
0010
0001
,
1000
0010
1000
0010
0100
0001
0100
0001
,
0010
0100
0010
0000
0100
0010
0100
0000
0010
0000
0000
0000
0000
0000
0000
0000
,
0001
0010
0001
0010
1000
0010
1000
0010
,
0001
0000
0000
0100
0000
0000
1000
0000
0000
0100
0000
0000
0001
0000
1000
0000
0001
0000
1000
0000
0000
0000
0000
0000
,
1000
0100
1000
0100
0001
0100
0001
0100
,
1000
0000
0000
0000
0000
0000
0010
0000
0000
0000
0000
0000
0100
0000
0000
0000
0000
0000
0001
0000
0000
0000
0000
0000
1000
0000
0000
0000
0000
0000
0001
0000
0000
1000
0000
0000
0001
0000
0000
0000
1000
0000
0000
0000
0001
0000
0000
0000
,
1000
0001
1000
0001
0010
0100
0010
0100
,
1000
0010
1000
0010
0100
0001
0010
0100
,
1000
0100
0010
0100
1000
0010
0100
0001
,
0100
0010
0100
0000
0010
0100
0010
0000
0100
0000
0000
0000
0000
0000
0000
0000
,
1001
0000
0000
0000
0000
0000
0001
1000
0000
1000
0001
1000
0001
0000
0000
0000
0100
0000
0001
0000
0021
0000
0130
0000
2100
0000
3010
0000
0102
0000
0013
0000
,
2100
0000
0000
0000
0000
0000
3010
1000
0100
0000
0010
0000
1001
0000
0000
0000
0001
0010
0001
0000
1000
0010
1000
0000
0000
0010
0100
0010
0100
0000
1001
0000
,
0001
0100
0001
0000
1000
0010
1000
0000
0100
0010
0100
0000
0010
0001
0010
0000
,
0100
1000
0100
0000
1000
0010
1000
0000
0001
0100
0001
0000
1000
0001
1000
0000
,
0001
0100
0001
0100
0001
1000
0001
1000
,
0001
0010
0001
0010
0001
1000
0001
0000
,
1000
0010
1000
0010
1000
0001
1000
0001
,
1000
0100
1000
0100
1000
0001
1000
0000
,
1002
0103
2001
3010
;
