#TITLE:first death;
#SUBTITLE:(CHAINSAW MAN ED 8);
#ARTIST:TK from Ling tosite sigure;
#TITLETRANSLIT:;
#SUBTITLETRANSLIT:;
#ARTISTTRANSLIT:;
#GENRE:ANIME;
#CREDIT:;
#MUSIC:first death.ogg;
#BANNER:first death.png;
#BACKGROUND:first death-bg;
#CDTITLE:cdtitle.png;
#SAMPLESTART:58.537;
#SAMPLELENGTH:15.000;
#SELECTABLE:YES;
#OFFSET:-0.002;
#BPMS:0.000=164.000;
#STOPS:;
#BGCHANGES:0.000=first death.avi=1.000=1=0=0=StretchNoLoop==CrossFade==;
#FGCHANGES:;

//--------------- dance-single - KAYSTAR ----------------
#NOTES:
     dance-single:
     KAYSTAR:
     Beginner:
     2:
     0,0,0,0,0:
0000
0000
0000
0000
,
0000
0000
0000
0000
,
0000
0000
0000
0000
,
0000
0000
0000
0000
,
1000
0000
0000
0000
,
1000
0000
0000
0000
,
0001
0000
0000
0000
,
0001
0000
0000
0000
,
0100
0000
0000
0000
,
0000
0000
0000
0000
,
0010
0000
0000
0000
,
0000
0000
0000
0000
,
1000
0000
0000
0000
,
0000
0000
0000
0000
,
0001
0000
0000
0000
,
0000
0000
0000
0000
,
0010
0000
0000
0000
,
0010
0000
0000
0000
,
0010
0000
0000
0000
,
0000
0000
0000
0000
,
0100
0000
0000
0000
,
0100
0000
0000
0000
,
0100
0000
0000
0000
,
0000
0000
0000
0000
,
2000
0000
0000
0000
,
3000
0000
0000
0000
,
0002
0000
0000
0000
,
0003
0000
0000
0000
,
0100
0000
0000
0000
,
0100
0000
0000
0000
,
0010
0000
0000
0000
,
0010
0000
0000
0000
,
2000
0000
0000
0000
,
3000
0000
0000
0000
,
0200
0000
0000
0000
,
0300
0000
0000
0000
,
0020
0000
0000
0000
,
0030
0000
0000
0000
,
0002
0000
0000
0000
,
0003
0000
0000
0000
,
0100
0000
0100
0000
,
0100
0000
0000
0000
,
0010
0000
0010
0000
,
0010
0000
0000
0000
,
2000
0000
0000
0000
,
3000
0000
0000
0000
,
0002
0000
0000
0000
,
0003
0000
0000
0000
,
0010
0000
0010
0000
,
0010
0000
0000
0000
,
0100
0000
0100
0000
,
0100
0000
0000
0000
,
2000
0000
3000
0000
,
0002
0000
0003
0000
,
2000
0000
3000
0000
,
0002
0000
0003
0000
,
1000
0000
0000
0000
,
0010
0000
0000
0000
,
0100
0000
0000
0000
,
0001
0000
0000
0000
,
1000
0000
1000
0000
,
1000
0000
0000
0000
,
0001
0000
0001
0000
,
0001
0000
0000
0000
,
0020
0000
0000
0000
,
0030
0000
0000
0000
,
0200
0000
0000
0000
,
0300
0000
0000
0000
,
1000
0000
0001
0000
,
0100
0000
0010
0000
,
2002
0000
0000
0000
,
0000
0000
0000
0000
,
0000
0000
0000
0000
,
0000
3003
0000
0000
;

//--------------- dance-single - KAYSTAR ----------------
#NOTES:
     dance-single:
     KAYSTAR:
     Easy:
     5:
     0,0,0,0,0:
0000
0000
0000
0000
,
0000
0000
0000
0000
,
0000
0000
0000
0000
,
0000
0000
0000
0000
,
1000
1000
0000
0000
,
0001
0001
0000
0000
,
1000
1000
0000
0000
,
0001
0001
0000
0000
,
0100
0000
0100
0000
,
0100
0000
0000
0000
,
0010
0000
0010
0000
,
0010
0000
0000
0000
,
1000
0000
1000
0000
,
1000
0000
0000
0000
,
0001
0000
0001
0000
,
0001
0000
0000
0000
,
0010
0000
0000
0000
,
0100
0000
0000
0000
,
1000
0000
0000
0000
,
0001
0000
0000
0000
,
0100
0100
0000
0000
,
0010
0010
0000
0000
,
0100
0100
0000
0000
,
0010
0010
0000
0000
,
2000
0000
3000
0000
,
0002
0000
0003
0000
,
2000
0000
3000
0000
,
0002
0000
0003
0000
,
2000
0000
3000
0000
,
0200
0000
0300
0000
,
0020
0000
0030
0000
,
0002
0000
0003
0000
,
1000
1000
1000
0000
,
0010
0000
0010
0000
,
0100
0100
0100
0000
,
0001
0000
0001
0000
,
0010
0010
0000
0000
,
0100
0100
0000
0000
,
0010
0010
0000
0000
,
0100
0100
0000
0000
,
1000
1000
1000
0000
,
0100
0000
0010
0000
,
0001
0001
0001
0000
,
0100
0000
0010
0000
,
2000
0000
3000
0000
,
0002
0000
0003
0000
,
2000
0000
3000
0000
,
0002
0000
0003
0000
,
0100
0100
0100
0000
,
0010
0000
1000
0000
,
0100
0100
0100
0000
,
0010
0000
0001
0000
,
1000
0000
0010
0010
,
0010
0000
1001
0000
,
0001
0000
0010
0010
,
0010
0000
1001
0000
,
1000
0000
0010
0000
,
0100
0000
0000
0000
,
0001
0000
0010
0000
,
0100
0000
0000
0000
,
1000
1000
1000
0000
,
0001
0001
0001
0000
,
0100
0100
0100
0000
,
0010
0010
0010
0000
,
2000
0000
3000
0000
,
0002
0000
0003
0000
,
2000
0000
3000
0000
,
0002
0000
0003
0000
,
0010
0010
0010
0000
,
0100
0100
0100
0000
,
2002
0000
0000
0000
,
0000
0000
0000
0000
,
0000
0000
0000
0000
,
0000
3003
0000
0000
;

//--------------- dance-single - KAYSTAR ----------------
#NOTES:
     dance-single:
     KAYSTAR:
     Medium:
     9:
     0,0,0,0,0:
0000
0000
0000
0000
,
0000
0000
0000
0000
,
0000
0000
0000
0000
,
0000
0000
0000
0000
,
1000
0010
1000
0000
0001
0000
1000
0000
,
0001
0100
0001
0000
1000
0000
0000
0000
,
0001
0010
0001
0000
1000
0000
0001
0000
,
1000
0100
1000
0000
0001
0000
0000
0000
,
1000
0010
1000
0010
1000
0000
0001
0000
,
1000
0100
0010
0001
,
0100
0001
0100
0001
0100
0000
0010
0000
,
2000
0000
3010
0100
,
0001
0010
0001
0010
0001
0000
1000
0000
,
0010
0100
0001
0010
,
0100
1000
0100
1000
0100
0000
0010
0000
,
0002
0000
0013
0100
,
1000
0001
0100
0000
,
0010
1000
0010
0100
,
0001
1000
0100
0000
,
0010
0001
0010
0100
,
1000
0001
0100
0010
,
1000
0100
0010
0001
,
1000
1000
0001
0001
,
0100
0010
1000
0100
,
2002
0000
3003
0000
,
2000
0000
3000
0000
,
0200
0000
0300
0000
,
0020
0000
0030
0000
,
0001
1000
0001
1000
,
0010
0100
0010
0100
,
0001
1000
0100
0010
,
0002
0203
0320
1030
,
0001
0010
0100
0001
,
0100
0010
0100
0000
1000
0000
0000
0000
,
1000
0010
0100
1000
,
0100
0010
0100
0000
0001
0000
0000
0000
,
1000
0100
0010
1000
,
0010
0100
0010
0000
0001
0000
0000
0000
,
0001
0000
0100
0000
0010
0000
1000
0001
,
1000
0000
0001
1000
0001
0000
0000
0000
,
1000
0100
1000
0000
0100
1000
0100
0000
,
0010
0011
1001
0000
,
0001
0100
0001
0000
0100
0001
0100
0000
,
0010
1010
1001
0000
,
1000
0100
0001
1000
,
0010
0000
0001
1000
0001
0000
0000
0000
,
0001
0100
1000
0001
,
0010
0000
1000
0001
1000
0000
0000
0000
,
1000
0010
1000
0000
0010
1000
0010
0000
,
0100
0101
1001
0000
,
0001
0010
0001
0000
0010
0001
0010
0000
,
0100
1100
1001
0000
,
1000
0000
0010
0100
0010
0000
1000
0000
,
0100
0001
0100
1000
,
0001
0000
0010
0100
0010
0000
0001
0000
,
0100
1000
0100
0001
,
1000
0100
1000
0100
0010
0000
0001
0000
,
0100
0010
1000
0100
,
0010
0001
0010
0001
1000
0000
0010
0000
,
0100
0001
0020
0000
,
0130
0000
1000
0000
0001
0100
0001
0100
,
0010
0000
1000
0000
0001
1000
0001
0000
,
0010
0000
0100
0000
1000
0010
1000
0010
,
0100
0000
0001
0000
0010
0100
0010
0100
,
2000
0000
3010
0100
,
0002
0000
0013
0100
,
2000
0000
3010
0100
,
0002
0000
0013
0100
,
1000
0010
1000
0010
0100
0001
0100
0001
,
0010
0100
0010
0100
1000
0000
0010
0000
,
2002
0000
0000
0000
,
0000
0000
0000
0000
,
0000
0000
0000
0000
,
0000
3003
0000
0000
;

//--------------- dance-single - KAYSTAR ----------------
#NOTES:
     dance-single:
     KAYSTAR:
     Hard:
     13:
     0,0,0,0,0:
0000
0000
0000
0000
,
0000
0000
0000
0000
,
0000
0000
0000
0000
,
0000
0000
0000
0000
,
1000
0001
0010
0001
0100
0000
0101
0000
,
0001
1000
0001
1000
0000
0100
0010
0000
,
0001
1000
0010
1000
0100
0000
1100
0000
,
2000
3020
0230
0301
,
1000
1000
0100
0100
0010
0001
1000
0020
,
0000
0130
1000
0100
0010
0100
0001
0000
,
1000
1000
0100
0100
0010
0001
1000
0010
,
0100
0010
0100
0001
0010
0200
0000
1300
,
0001
0001
0100
0100
0010
1000
0001
0020
,
0000
0130
0001
0100
0010
0100
1000
0000
,
0001
0001
0100
0100
0010
1000
0001
0010
,
0100
0010
0100
1000
0010
0200
0000
0301
,
1000
0000
0010
0000
1000
0100
1000
0000
,
0001
0000
0010
0000
0001
0100
1000
0100
,
0001
0000
0010
0000
0001
0100
0001
0000
,
1000
0000
0010
0000
1000
0100
0001
0100
,
1000
0000
0010
0100
0010
0100
0000
0001
,
0000
0010
0100
0010
0100
1000
0000
0001
,
0000
0100
0010
0100
0001
1000
0100
0010
,
0100
1000
0010
0100
0001
0010
0100
0000
,
2002
0000
0003
0000
,
3200
0000
0000
0000
,
0320
0000
0000
0000
,
0032
0000
0000
0000
,
0103
0100
0010
0010
,
1000
1000
0001
0001
,
0010
0000
0100
1000
0001
1000
0001
0100
,
0110
1001
0110
1001
,
1000
0000
0000
0100
0000
0000
1100
0000
0000
0000
0000
0000
0000
0000
0000
0000
,
0001
0000
0000
0010
0000
0000
0001
0000
0200
0000
0000
0000
0000
0000
0000
0000
,
0301
0000
0000
0100
0000
0000
0101
0000
0000
0000
0000
0000
0000
0000
0000
0000
,
1000
0000
0000
0010
0000
0000
1000
0000
0200
0000
0000
0000
0000
0000
0000
0000
,
1300
0001
0100
0001
0020
0000
0000
0000
,
0031
1000
0100
1000
0020
0000
0000
0000
,
1030
0001
1000
0001
0010
0100
1000
0000
,
0020
0000
1030
0001
0020
0000
0130
0000
,
1000
0010
0000
0000
0010
0100
0000
0000
0100
0001
0000
0000
0001
0010
0000
0000
,
0010
0100
0000
0000
0001
0000
0100
0000
2000
0000
0001
0000
3001
0000
0000
0000
,
0001
0100
0000
0000
0100
0010
0000
0000
0010
1000
0000
0000
1000
0000
0200
0000
,
0000
0301
0100
0010
0002
0000
1003
0000
,
0001
0100
1000
0100
0010
0001
0010
1000
,
0100
0001
0100
0010
1000
0010
0001
0000
,
1000
0100
0001
0100
0010
1000
0010
0001
,
0100
1000
0100
0010
0001
0010
1000
0000
,
0001
0010
0000
0000
0010
0100
0000
0000
1000
0000
1000
0000
0001
0000
0001
0000
,
0100
0010
0000
0000
0010
0100
0000
0000
0002
0000
1000
0000
1003
0000
0000
0000
,
1000
0100
0000
0000
0100
0010
0000
0000
0010
0001
0000
0000
0001
0000
0200
0000
,
0000
1300
0100
0010
2000
0000
3001
0000
,
1000
0100
0001
0100
1000
0010
0100
0002
,
0000
0013
0100
1000
0010
0000
1001
0000
,
0001
0100
1000
0100
0001
0010
0100
2000
,
0000
3010
0100
0001
0010
0000
1001
0000
,
1000
1000
0010
0010
0100
0001
0010
0200
,
0000
0301
0100
1000
0010
0100
0010
1000
,
0001
0001
0010
0010
0100
1000
0010
0200
,
0000
1300
0100
0001
0010
0100
1000
0000
,
0001
0010
0001
0010
0100
0001
0100
1000
,
0010
1000
0010
0100
1000
0100
0001
1000
,
0100
0001
0100
1000
0010
0001
0010
1000
,
0001
0010
1000
0010
0001
0100
1000
0100
,
0002
0000
0003
0000
0010
0100
0010
0100
,
2000
0000
3000
0000
0010
0100
0010
0100
,
0002
0000
0003
0000
0010
0100
0010
0100
,
2000
0000
3000
0000
0010
0100
0010
0100
,
0001
1000
0100
0001
1000
0010
0001
1000
,
0010
0001
1000
0100
0002
0000
1003
0000
,
2002
0000
0000
0000
,
0000
0000
0000
0000
,
0000
0000
0000
0000
,
0000
3003
0000
0000
;

//--------------- dance-single - KAYSTAR ----------------
#NOTES:
     dance-single:
     KAYSTAR:
     Challenge:
     17:
     0,0,0,0,0:
0000
0000
0000
0000
,
0000
0000
0000
0000
,
0000
0000
0000
0000
,
0000
0000
0000
0000
,
2000
3200
0302
0203
0310
0001
0011
0000
,
0002
0000
0203
0000
0320
0000
2030
0000
3001
0000
0010
0100
1000
0001
1000
0000
,
0002
0203
2300
3200
0310
1000
1010
0000
,
1000
0000
0010
0100
0001
0000
1000
0100
0010
0000
0001
0000
1001
0000
0000
0000
,
1000
0010
1000
0010
1000
0010
1000
0010
0100
0000
0001
0000
0010
0000
0021
0000
,
0000
0000
0130
1000
0001
1000
0001
1000
0001
0000
0200
0000
0320
0000
1030
0000
,
0001
0010
0001
0010
0001
0010
0001
0010
0100
0000
1000
0000
0001
0000
0100
0010
,
0100
0010
0100
0010
0100
0010
0100
0010
1000
0000
0200
0000
0000
0000
0310
0000
,
0001
0100
0001
0100
0001
0100
0001
0100
0010
0000
1000
0000
0100
0000
1200
0000
,
0000
0000
0310
0001
1000
0001
1000
0001
1000
0000
0020
0000
0230
0000
0301
0000
,
1000
0100
1000
0100
1000
0100
1000
0100
0010
0000
0001
0000
1000
0000
0010
0100
,
0010
0100
0010
0100
0010
0100
0010
0100
0001
0000
0020
0000
0000
0000
0130
0000
,
0110
0000
0000
0001
1000
0000
0100
0000
0010
0000
0010
0000
0100
0000
1000
0000
,
0001
0000
0000
0100
0010
0000
1000
0000
0001
0010
0100
0010
0001
0010
0100
0010
,
0001
0000
0000
1000
0001
0000
0100
0000
0010
0000
0010
0000
0100
0000
0001
0000
,
1000
0000
0000
0100
0010
0000
0001
0000
1000
0010
0100
0010
1000
0010
0100
0010
,
1000
0001
0100
1000
0100
0001
0010
0100
,
1000
0000
0010
0100
0010
0000
1000
0000
0001
1000
0100
0010
0001
1000
0100
0010
,
0001
1000
0100
0001
0100
1000
0010
0100
,
0001
0000
0010
0100
0010
0000
0001
0000
1000
0010
0100
0001
1000
0010
0100
0001
,
0020
0030
0000
0000
,
2002
3003
0000
0000
,
0200
0300
0000
0000
,
2002
3003
0000
0000
,
0001
0001
0010
0010
,
0100
0100
1000
1000
,
0001
0000
0100
0010
1000
0010
0100
0001
,
0020
0000
0130
1000
0020
0000
0130
0001
0020
0000
0130
1000
0020
0000
0030
0000
,
0110
0000
0000
0001
1000
0000
0100
0000
0010
0000
1000
0000
0010
0000
0002
0000
,
0000
0103
0010
1000
0001
0000
0000
0000
,
0001
0000
0000
1000
0001
0000
0100
0000
0010
0000
0001
0000
0010
0000
2000
0000
,
0000
3100
0010
0000
2002
0000
3003
0000
,
2000
0000
3200
0000
0302
0000
0203
0000
1300
0000
0000
0010
0100
0000
0001
0000
,
2000
3200
0302
0203
1300
0000
0000
0000
,
0002
0000
0203
0000
2300
0000
3200
0000
0301
0000
0000
0010
0100
0000
1000
0000
,
0010
0100
0010
0000
1000
0000
0001
0000
0010
0100
0010
0000
0002
0000
0000
0000
,
1003
0000
0010
0000
0100
0000
0001
1000
0001
0000
0010
0001
0010
0000
0100
0010
,
0100
0000
1000
0100
1000
0000
0001
0000
0200
0000
0010
0000
0310
0000
0000
0000
,
1000
0000
0100
0000
0010
0000
0000
0001
1000
0000
0010
0000
0100
0000
2000
0000
,
0000
0000
3100
0000
0010
0000
1000
0000
0001
0000
1000
0100
0010
0100
0010
0001
,
2000
0000
3001
0000
0100
0000
0010
0000
0002
0000
0013
0000
0100
0000
0001
1000
,
0001
0000
0010
0000
0100
0000
1000
0001
1000
0000
0010
0000
0110
0000
0000
0000
,
0002
0000
1003
0000
0100
0000
0010
0000
2000
0000
3010
0000
0100
0000
1000
0001
,
1000
0000
0001
0100
0010
0000
1000
0000
0100
0010
0001
1000
0001
1000
0010
0100
,
0001
0000
1000
0100
1000
0000
0001
0100
0001
0000
1000
0000
0010
0000
0100
0000
,
0001
0010
0001
0000
1000
0010
1000
0000
0200
0000
0010
0000
0310
0000
0000
0000
,
0001
0000
0100
0000
0010
0000
0000
1000
0001
0000
0010
0000
0100
0000
0002
0000
,
0000
0000
0103
0010
0100
0000
1000
0000
0001
1000
0001
0100
0010
0000
1000
0100
,
0010
0000
0100
0010
0100
0000
1000
0000
0001
0000
0100
0010
0100
0000
2000
0000
,
0000
0000
3001
0000
0010
0000
0100
0000
0010
1000
0001
1000
0100
0000
0010
0000
,
0001
0000
0100
0010
0100
0000
0001
0000
1000
0000
0100
0010
0100
0000
0002
0000
,
0000
0000
0103
0010
0001
0000
1000
0010
0100
0000
0001
0000
1001
0000
0000
0000
,
1000
0100
1000
0100
0010
0001
0010
0001
1000
0000
0001
0100
0010
0000
1000
0100
,
1000
0100
0010
0001
0010
0001
1000
0010
0100
0000
0001
1000
0001
0000
0010
0000
,
0001
0100
0001
0100
0010
1000
0010
1000
0001
0000
1000
0100
0010
0000
0001
0100
,
0001
0100
0010
1000
0010
1000
0001
0010
0100
0000
1000
0001
1000
0010
0100
0000
,
0002
0000
0023
0000
2030
0000
3020
0000
0130
1000
0001
1000
0010
1000
0001
1000
,
0200
0000
0320
0000
0032
0000
2003
0000
3010
0100
0010
0000
1000
0001
0010
0100
,
2000
0000
3020
0000
0032
0000
0023
0000
0130
0001
1000
0001
0010
0001
1000
0001
,
0200
0000
0320
0000
2030
0000
3001
0010
0100
1000
0001
1000
0001
0100
0010
1000
,
0200
0000
0000
0000
0310
0001
0001
0001
,
0201
0000
0000
0000
0310
1000
1000
1000
,
1200
0000
0000
0000
0310
0001
0001
0001
,
0201
0000
0000
0000
0310
1000
1000
1000
,
0001
1000
0001
0000
0011
0000
0110
0000
1000
0001
1000
0000
1010
0000
0110
0000
,
0001
1000
0001
0000
0011
0000
0110
0000
1000
0001
1000
0010
0100
0000
0000
0000
,
2002
0000
0000
3003
,
0001
0010
0001
1000
0010
1000
0001
0100
0001
1000
0100
1000
0001
0100
0010
0100
,
0001
1000
0100
0010
0100
1000
0001
0100
0010
1000
0100
0010
0001
0100
0010
1000
,
0100
0100
1001
0000
0000
0000
0000
0000
;

//--------------- dance-double - KAYSTAR ----------------
#NOTES:
     dance-double:
     KAYSTAR:
     Easy:
     5:
     0,0,0,0,0:
00000000
00000000
00000000
00000000
,
00000000
00000000
00000000
00000000
,
00000000
00000000
00000000
00000000
,
00000000
00000000
00000000
00000000
,
00010000
00010000
00000000
00000000
,
00001000
00001000
00000000
00000000
,
00010000
00010000
00000000
00000000
,
00200000
00000000
00300000
00000000
,
10000000
00000000
10000000
00000000
,
10000000
00000000
00000000
00000000
,
01000000
00000000
00010000
00000000
,
00001000
00000000
00000000
00000000
,
00010000
00000000
00010000
00000000
,
00010000
00000000
00000000
00000000
,
00001000
00000000
00000100
00000000
,
00000001
00000000
00000000
00000000
,
00000010
00000000
00000000
00000000
,
00000100
00000000
00000000
00000000
,
00001000
00000000
00000000
00000000
,
00000010
00000000
00000000
00000000
,
00010000
00010000
00000000
00000000
,
00001000
00001000
00000000
00000000
,
00010000
00010000
00000000
00000000
,
00100000
00000000
00000000
00000000
,
20000000
00000000
30000000
00000000
,
00020000
00000000
00030000
00000000
,
20000000
00000000
30000000
00000000
,
00020000
00000000
00030000
00000000
,
20000000
00000000
30000000
00000000
,
02000000
00000000
03000000
00000000
,
00200000
00000000
00300000
00000000
,
00020000
00000000
00030000
00000000
,
10000000
00000000
10000000
00000000
,
10000000
00000000
00000000
00000000
,
00100000
00000000
00010000
00000000
,
00001000
00000000
00000000
00000000
,
00010000
00000000
00010000
00000000
,
00010000
00000000
00000000
00000000
,
00001000
00000000
00000010
00000000
,
00000001
00000000
00000000
00000000
,
00000001
00000001
00000001
00000000
,
00000100
00000000
00000010
00000000
,
00001000
00001000
00001000
00000000
,
00000100
00000000
00010000
00000000
,
00002000
00000000
00003000
00000000
,
00200000
00000000
00300000
00000000
,
02000000
00000000
03000000
00000000
,
20000000
00000000
30000000
00000000
,
10000000
10000000
10000000
00000000
,
00100000
00000000
01000000
00000000
,
00010000
00010000
00010000
00000000
,
00100000
00000000
00001000
00000000
,
00020000
00000000
00030000
00000000
,
00000200
00000000
00000300
00000000
,
00000020
00000000
00000030
00000000
,
00000002
00000000
00000003
00000000
,
00000001
00000000
00000100
00000000
,
00000010
00000000
00000000
00000000
,
00001000
00000000
00000100
00000000
,
00000010
00000000
00000000
00000000
,
00001000
00001000
00001000
00000000
,
00010000
00010000
00010000
00000000
,
00001000
00001000
00001000
00000000
,
00100000
00000000
01000000
00000000
,
20000000
00000000
30000000
00000000
,
00200000
00000000
00300000
00000000
,
00020000
00000000
00030000
00000000
,
00002000
00000000
00003000
00000000
,
00010000
00010000
00010000
00000000
,
00001000
00001000
00001000
00000000
,
00022000
00000000
00000000
00000000
,
00000000
00000000
00000000
00000000
,
00000000
00000000
00000000
00000000
,
00000000
00033000
00000000
00000000
;

//--------------- dance-double - KAYSTAR ----------------
#NOTES:
     dance-double:
     KAYSTAR:
     Medium:
     9:
     0,0,0,0,0:
00000000
00000000
00000000
00000000
,
00000000
00000000
00000000
00000000
,
00000000
00000000
00000000
00000000
,
00000000
00000000
00000000
00000000
,
10000000
00010000
10000000
00000000
00010000
00000000
00100000
00000000
,
00001000
00010000
00001000
00000000
00010000
00000000
00000000
00000000
,
00001000
00010000
00001000
00000000
00010000
00000000
00000010
00000000
,
00001000
00000001
00001000
00000000
00002002
00000000
00003003
00000000
,
00000001
00000010
00000001
00000010
00000100
00000000
00001000
00000000
,
00000010
00010000
00001000
01000000
,
00010000
00100000
00010000
00100000
01000000
00000000
10000000
00000000
,
00100000
01000000
00020000
00030000
,
10000000
01000000
10000000
01000000
00100000
00000000
00010000
00000000
,
01000000
00001000
00010000
00000010
,
00001000
00000100
00001000
00000100
00000010
00000000
00000001
00000000
,
00000100
00000010
00002000
00003000
,
00000001
00000010
00000100
00000000
,
00001000
00000010
00000100
00000000
,
00001000
00010000
00100000
00000000
,
01000000
00010000
00100000
01000000
,
10000000
10000000
00010000
00010000
,
01000000
00001000
00010000
00000010
,
00001000
00001000
00000001
00000001
,
00000010
00000100
00010000
00001000
,
00022000
00000000
00033000
00000000
,
00020000
00000000
00030000
00000000
,
00022000
00000000
00033000
00000000
,
00002000
00000000
00003000
00000000
,
00010000
00001000
00010000
00001000
,
01000000
00010000
01000000
00010000
,
10000000
01000000
00100000
00010000
,
02000000
00100000
00100000
03100000
,
10000000
01000000
00010000
00000000
,
00001000
00000000
00010000
00001000
00010000
00000000
00000000
00000000
,
00001000
00000100
00000001
00000000
,
00000010
00000100
00001000
00000000
00001001
00000000
00000000
00000000
,
00000001
00000100
00001000
00000000
,
00010000
00001000
00010000
00000000
00001000
00000000
00000000
00000000
,
00010000
00000000
00100000
00000000
10000000
00000000
00010000
10000000
,
00010000
00000000
10000000
00010000
10000000
00000000
00000000
00000000
,
01000000
10000000
01000000
00000000
00100000
01000000
00100000
00000000
,
00010000
01000000
00002000
00003000
,
00010000
00001000
00010000
00000000
00001000
00000000
00010000
00000100
,
00000000
00001000
00000001
00001000
00000001
00000000
00000000
00000000
,
00000100
00001000
00010000
00100000
,
02000000
00000000
03010000
00100000
,
01000000
00010000
00001000
00000010
,
00000200
00000000
00001300
00000001
,
00000100
00000001
00000100
00000000
00000010
00000100
00000010
00000000
,
00001000
00000100
00020000
00030000
,
00001000
00010000
00001000
00000000
00010000
00000000
00001000
00100000
,
00000000
00010000
10000000
00010000
10000000
00000000
00000000
00000000
,
00100000
00010000
00001000
00000100
,
00000020
00000000
00001030
00000100
,
00000010
00001000
00010000
01000000
,
00200000
00000000
00310000
10000000
,
00100000
10000000
00100000
10000000
00010000
00000000
00100000
00000000
,
01000000
00010000
00001000
00000010
,
00000100
00001000
00000100
00001000
00000001
00000000
00000100
00000000
,
00001000
00010000
00100000
01000000
,
00010000
10000000
00010000
10000000
01000000
00000000
00100000
00000000
,
00001000
00000000
00010000
00001000
00010000
00000000
00000100
00000000
,
00001000
00000001
00001000
00000001
00000100
00000000
00000010
00000000
,
00010000
00000000
00001000
00010000
00001000
00000000
01000000
00000000
,
20020000
30030000
00000000
00000000
,
00022000
00033000
00000000
00000000
,
00002002
00003003
00000000
00000000
,
00022000
00033000
00000000
00000000
,
00010000
00001000
00010000
00001000
01000000
00010000
01000000
00010000
,
10000000
01000000
10000000
01000000
00100000
00000000
00001000
00000000
,
00022000
00000000
00000000
00000000
,
00000000
00000000
00000000
00000000
,
00000000
00000000
00000000
00000000
,
00000000
00033000
00000000
00000000
;

//--------------- dance-double - KAYSTAR ----------------
#NOTES:
     dance-double:
     KAYSTAR:
     Hard:
     13:
     0,0,0,0,0:
00000000
00000000
00000000
00000000
,
00000000
00000000
00000000
00000000
,
00000000
00000000
00000000
00000000
,
00000000
00000000
00000000
00000000
,
10000000
00010000
01000000
00010000
00100000
00000000
00110000
00000000
,
00010000
00100000
00001000
00010000
00000100
00000000
00000010
00000000
,
00000001
00001000
00000100
00001000
00000010
00000000
00001010
00000000
,
00001000
00000010
00010000
00001000
01000000
00000000
00020000
00000000
,
10030000
10000000
01000000
01000000
00100000
00010000
00100000
00002000
,
00000000
00013000
00000100
00001000
00000100
00000010
00000001
00000000
,
00001000
00001000
00000010
00000010
00000100
00000001
00001000
00000200
,
00000000
00010300
00001000
00010000
00001000
00200000
00000000
00310000
,
10000000
10000000
00100000
00100000
01000000
00010000
01000000
00002000
,
00000000
00013000
00000010
00001000
00000010
00000100
00000001
00000000
,
00001000
00001000
00000100
00000100
00000010
00000001
00001000
00000020
,
00000000
00010030
00001000
00010000
00001000
02000000
00000000
03010000
,
10000000
00000000
01000000
00000000
00100000
00010000
00100000
00000000
,
00002000
00000000
00013000
00000000
00001000
00000100
00000010
00000100
,
00000001
00000000
00001000
00000000
00000010
00001000
00000010
00000000
,
00020000
00000000
00031000
00000000
00010000
01000000
00100000
01000000
,
10000000
00000000
00010000
00100000
00010000
00100000
00001000
00010000
,
00000000
00000100
00001000
00000100
00001000
00000010
00010000
00001000
,
00000000
00000100
00000010
00000100
00000001
00001000
00000100
00000010
,
00000100
00001000
00000001
00000100
00002000
00000000
00013000
00000000
,
00022000
00000000
00033000
00000000
,
00020000
00000000
00030000
00000000
,
00022000
00000000
00033000
00000000
,
00002000
00000000
00003000
00000000
,
00011000
00010000
00100000
10000000
,
01000000
00010000
00001000
00000010
,
00000001
00000000
00000100
00001000
00010000
00001000
00010000
00000000
,
00021000
00030010
00012000
00103000
,
00011000
00000000
00000000
00010000
00000000
00000000
00100000
00000000
00000000
00000000
00000000
00000000
00000000
00000000
00000000
00000000
,
10000000
00000000
00000000
01000000
00000000
00000000
00100000
00000000
00001000
00000000
00000000
00000000
00000000
00000000
00000000
00000000
,
00011000
00000000
00000000
00001000
00000000
00000000
00000100
00000000
00000000
00000000
00000000
00000000
00000000
00000000
00000000
00000000
,
00000001
00000000
00000000
00000010
00000000
00000000
00000100
00000000
00020000
00000000
00000000
00000000
00000000
00000000
00000000
00000000
,
00031000
00100000
00010000
00100000
01000000
00000000
10000000
00000000
,
00010000
01000000
00100000
00010000
00002000
00000000
00000000
00000000
,
00013000
00000010
00001000
00000010
00000100
00000000
00000001
00000010
,
00000200
00000000
00001300
00000010
00000200
00000000
00000301
00000000
,
00001000
00000100
00000000
00000000
00000100
00000010
00000000
00000000
00000010
00000001
00000000
00000000
00000001
00000100
00000000
00000000
,
00000100
00001000
00000000
00000000
00010000
00000000
00001000
00000000
00100000
00000000
01000000
00000000
10000000
00000000
00000000
00000000
,
00010000
01000000
00000000
00000000
01000000
00100000
00000000
00000000
00100000
10000000
00000000
00000000
01000000
00000000
00200000
00000000
,
00000000
00301000
00010000
00100000
01000000
00001000
00020000
00000000
,
00031000
00000100
00000010
00001000
00000001
00000010
00001000
00000010
,
00000001
00000100
00001000
00000100
00000010
00010000
00002000
00000000
,
00013000
01000000
00100000
00010000
10000000
00100000
00010000
00100000
,
10000000
01000000
00010000
01000000
10000000
00100000
01000000
00000000
,
00010000
00100000
00000000
00000000
00100000
01000000
00000000
00000000
10000000
00000000
10000000
00000000
00010000
00000000
00010000
00000000
,
01000000
00001000
00000000
00000000
00001000
00010000
00000000
00000000
00000010
00000000
00000100
00000000
00000001
00000000
00000000
00000000
,
00001000
00000100
00000000
00000000
00000100
00000010
00000000
00000000
00000010
00000001
00000000
00000000
00000100
00000000
00000020
00000000
,
00000000
00010030
00001000
00000010
00000100
00010000
00002000
00000000
,
00013000
00100000
01000000
00100000
10000000
00010000
00100000
10000000
,
00010000
01000000
10000000
00100000
01000000
00001000
00020000
00000000
,
00031000
00000010
00000100
00000010
00000001
00001000
00000010
00000001
,
00001000
00000100
00000001
00000010
00000100
00000000
00001001
00000000
,
00000001
00000001
00000100
00000100
00000010
00010000
00001000
00000020
,
00000000
00001030
00010000
01000000
00200000
00000000
00310000
00000000
,
10000000
10000000
01000000
01000000
00100000
00001000
00010000
00200000
,
00000000
00310000
00001000
00000100
00000020
00000000
00001030
00000000
,
00000001
00000010
00001000
00000010
00000100
00010000
00001000
00100000
,
00010000
01000000
10000000
01000000
00100000
10000000
00010000
00100000
,
00001000
00010000
01000000
00010000
00001000
00000100
00001000
00010000
,
00100000
10000000
01000000
00010000
00001000
00000010
00000001
00000100
,
00000020
00000000
00000030
00000000
00010000
00001000
00010000
00001000
,
02000000
00000000
03000000
00000000
00001000
00010000
00001000
00010000
,
00000200
00000000
00000300
00000000
00010000
00001000
00010000
00001000
,
00200000
00000000
00300000
00000000
00010000
01000000
00100000
10000000
,
01000000
00010000
00001000
00000100
00000001
00000010
00001000
00010000
,
00100000
10000000
01000000
00010000
00002000
00000000
00013000
00000000
,
00022000
00000000
00000000
00000000
,
00000000
00000000
00000000
00000000
,
00000000
00000000
00000000
00000000
,
00000000
00033000
00000000
00000000
;

//--------------- dance-double - KAYSTAR ----------------
#NOTES:
     dance-double:
     KAYSTAR:
     Challenge:
     17:
     0,0,0,0,0:
00000000
00000000
00000000
00000000
,
00000000
00000000
00000000
00000000
,
00000000
00000000
00000000
00000000
,
00000000
00000000
00000000
00000000
,
20000000
32000000
03020000
02030000
03100000
00001000
00011000
00000000
,
00002000
00000000
00023000
00000000
00032000
00000000
00013000
00000000
00000010
00000000
00001000
00000001
00001000
00000100
00000010
00000000
,
00000002
00000203
00002300
00003200
00000310
00010000
00011000
00000000
,
00002000
00023000
02030000
23000000
30200000
02300000
03010000
00000000
,
10000000
01000000
10000000
01000000
10000000
01000000
10000000
01000000
00100000
00000000
00010000
00000000
01000000
00000000
00002000
00000000
,
00000000
00000000
00013000
00001000
00010000
00001000
00010000
00001000
00010000
00000000
00000010
00000000
00001000
00000010
00000100
00000000
,
00000001
00000010
00000001
00000010
00000001
00000010
00000001
00000010
00000100
00000000
00001000
00000000
00000010
00000000
00010000
00001000
,
00010000
00001000
00010000
00001000
00010000
00001000
00010000
00000000
01000000
00000000
00200000
00000000
00000000
00000000
00310000
00000000
,
10000000
00100000
10000000
00100000
10000000
00100000
10000000
00100000
01000000
00000000
00010000
00000000
00100000
00000000
00002000
00000000
,
00000000
00000000
00013000
00001000
00010000
00001000
00010000
00001000
00010000
00000000
00000100
00000000
00001000
00000100
00000010
00000000
,
00000001
00000100
00000001
00000100
00000001
00000100
00000001
00000100
00000010
00000000
00001000
00000000
00000100
00000000
00010000
00001000
,
00010000
00001000
00010000
00001000
00010000
00001000
00010000
00000000
00100000
00000000
02000000
00000000
00000000
00000000
03010000
00000000
,
10000000
00000000
00000000
00100000
01000000
00000000
00010000
00000000
10000000
00000000
01000000
00000000
00100000
00000000
00001000
00000000
,
00010000
00000000
00000000
00010000
00000100
00000000
00001000
00000000
00000001
00000100
00000001
00000100
00000010
00001000
00000010
00001000
,
00000001
00000000
00000000
00000010
00000100
00000000
00001000
00000000
00000001
00000000
00000100
00000000
00000010
00000000
00010000
00000000
,
00001000
00000000
00000000
00001000
01000000
00000000
00010000
00000000
10000000
01000000
10000000
01000000
00100000
00010000
00100000
00010000
,
10000000
00000000
00100000
00000000
01000000
00000000
00010000
00000000
00100000
00000000
01000000
00000000
00010000
00000000
00001000
00010000
,
00001000
00000000
00000100
00000000
00000010
00000000
00001000
00000000
00000001
00000010
00000100
00001000
00000001
00000010
00000100
00001000
,
00000001
00000000
00000100
00000000
00000010
00000000
00001000
00000000
00000100
00000000
00000010
00000000
00001000
00000000
00010000
00001000
,
00010000
00000000
00100000
00000000
01000000
00000000
00010000
00000000
10000000
01000000
00100000
00010000
10000000
01000000
00100000
00010000
,
20000000
30000000
00000000
00000000
,
20020000
30030000
00000000
00000000
,
00022000
00033000
00000000
00000000
,
00002002
00003003
00000000
00000000
,
00000001
00000001
00000100
00000100
,
00000010
00000010
00001000
00001000
,
00000001
00000000
00000010
00000100
00001000
00000010
00000100
00001000
,
00020000
00000000
00031000
00010000
00002000
00000000
00013000
00001000
00020000
00000000
00031000
00010000
00002000
00000000
00003000
00000000
,
00010000
00000000
00000000
00100000
01000000
00000000
00010000
00000000
10000000
00000000
01000000
00000000
00010000
00000000
00002000
00000000
,
00000000
00100000
00103000
00001000
00010000
00000000
00000000
00000000
,
00001000
00000000
00000000
00000010
00000100
00000000
00001000
00000000
00000001
00000000
00000100
00000000
00001000
00000000
00020000
00000000
,
00000000
00000010
00030010
00000000
00022000
00000000
00033000
00000000
,
00020000
00230000
20300000
32000000
03100000
00000000
00000000
00000000
,
00002000
00000000
00003020
00000000
00000032
00000000
00000203
00000000
00000310
00000000
00010000
00000000
00001000
00010000
00001000
00000000
,
00020000
00000000
00230000
00000000
20300000
00000000
32000000
00000000
03100000
00000000
00000000
00000000
00010000
00000000
01000000
00010000
,
01000000
00000000
00001000
00000000
00010000
00000000
00000010
00001000
00000010
00000000
00001000
00000000
00000002
00000000
00000000
00000000
,
00000013
00000000
00000100
00000000
00001000
00000000
00000010
00001000
00000010
00000000
00000100
00000001
00000100
00000000
00000010
00001000
,
00000010
00010000
00001000
00000010
00000002
00000100
00000103
00000000
,
00000001
00000000
00000010
00000000
00001000
00000000
00000000
00010000
00001000
00000000
00000100
00000000
00001000
00000000
00021000
00000000
,
00000000
00000000
00130000
00000000
10000000
00000000
01000000
00000000
00100000
00010000
10000000
00010000
10000000
00100000
01000000
00000000
,
00020000
00000000
10030000
00000000
01000000
00000000
00100000
00000000
20000000
00000000
30100000
00000000
01000000
00000000
00100000
00010000
,
00100000
00000000
00001000
00000000
00010000
00000000
00000100
00001000
00000100
00000000
00000010
00000000
00000001
00000000
00000000
00000000
,
00002000
00000000
00003001
00000000
00000100
00000000
00000010
00000000
00000002
00000000
00000013
00000000
00000100
00000000
00000010
00001000
,
00000010
00000000
00010000
00000000
00001000
00000000
01000000
00010000
01000000
00000000
00100000
10000000
00010000
10000000
00010000
00100000
,
01000000
00000000
10000000
00000000
00010000
00000000
01000000
00010000
01000000
00000000
00100000
10000000
00100000
00000000
01000000
00010000
,
01000000
00001000
00010000
01000000
20000000
00100000
30100000
00000000
,
10000000
00000000
01000000
00000000
00010000
00000000
00000000
00001000
00010000
00000000
00100000
00000000
00010000
00000000
00012000
00000000
,
00000000
00000000
00003100
00000000
00000001
00000000
00000010
00000000
00000100
00001000
00000001
00001000
00000001
00000000
00001000
00000010
,
00000100
00000000
00000010
00000100
00000010
00000000
00001000
00000000
00000001
00000000
00000010
00000100
00000010
00000000
00002000
00000000
,
00000000
00000000
00013000
00000000
01000000
00000000
00100000
00000000
00010000
10000000
00010000
01000000
00100000
00000000
10000000
00000000
,
00010000
00000000
00100000
01000000
00100000
00000000
00010000
00000000
10000000
00000000
00100000
01000000
00100000
00000000
00020000
00000000
,
00000000
00000000
00031000
00000000
00000100
00000010
00001000
00000000
00000001
00001000
00000001
00000010
00000100
00000000
00001000
00000000
,
00000001
00000100
00000001
00000100
00000010
00001000
00000010
00001000
00000001
00000000
00000010
00000100
00001000
00000000
00000010
00010000
,
00000010
00010000
00001000
01000000
00001000
01000000
00010000
00000000
10000000
00000000
00100000
01000000
00010000
10000000
00010000
00000000
,
10000000
01000000
10000000
01000000
00100000
00010000
00100000
00010000
10000000
00000000
00100000
01000000
00010000
00000000
00100000
00001000
,
00100000
00001000
00010000
00000100
00010000
00000100
00001000
00000000
00000001
00000000
00000010
00000100
00001000
00000001
00001000
00000000
,
00000002
00000000
00000203
00000000
00002300
00000000
00013000
00000000
00000010
00010000
00001000
00010000
00000100
00010000
00001000
00000000
,
00020000
00000000
00032000
00000000
00003200
00000000
00000320
00000000
00010030
00001000
00010000
00000000
00001000
00010000
00100000
00000000
,
20000000
00000000
32000000
00000000
03020000
00000000
00031000
00000000
00100000
00001000
00010000
00001000
01000000
00001000
00010000
00000000
,
00002000
00000000
00023000
00000000
02030000
00000000
03100000
00001000
00010000
00001000
00010000
00000100
00001000
00000100
00000010
00000001
,
00002000
00000000
00000000
00000000
00003010
00001000
00010000
01000000
,
01020000
00000000
00000000
00000000
00130000
00010000
00001000
00000100
,
00002100
00000000
00000000
00000000
00003010
00001000
00010000
01000000
,
01020000
00000000
00000000
00000000
00130000
00010000
00001000
00000100
,
00010000
00001000
00010000
00000000
00012000
00000000
00003100
00000000
00001000
00010000
00001000
00000000
00021000
00000000
01030000
00000000
,
00010000
00001000
00010000
00000000
00100000
00000000
01000000
00000000
00010000
10000000
00010000
00100000
01000000
00000000
00000000
00000000
,
20020000
00000000
00000000
30030000
,
10000000
00100000
01000000
00010000
01000000
00001000
00010000
00001000
00100000
00010000
00100000
01000000
10000000
00010000
01000000
00001000
,
00010000
00000010
00001000
00000010
00000100
00000001
00001000
00000010
00010000
00001000
00010000
00000100
00001000
00000100
00000010
00000001
,
00001000
00000001
00001001
00000000
00000000
00000000
00000000
00000000
;
