#VERSION:0.83;
#TITLE:disable dA STACK;
#SUBTITLE:;
#ARTIST:D-crew;
#TITLETRANSLIT:;
#SUBTITLETRANSLIT:;
#ARTISTTRANSLIT:;
#GENRE:;
#ORIGIN:;
#CREDIT:;
#BANNER:disable dA STACK-bn.png;
#BACKGROUND:disable dA STACK-bg.png;
#PREVIEWVID:;
#JACKET:disable dA STACK-jacket.png;
#CDIMAGE:disable dA STACK-cdimage.png;
#DISCIMAGE:;
#LYRICSPATH:;
#CDTITLE:cdtitle.png;
#MUSIC:disable dA STACK.ogg;
#OFFSET:-1.907000;
#SAMPLESTART:29.150000;
#SAMPLELENGTH:10.378000;
#SELECTABLE:YES;
#BPMS:0.000=185.000,
212.000=92.500,
220.000=185.000;
#STOPS:;
#DELAYS:;
#WARPS:;
#TIMESIGNATURES:0.000=4=4;
#TICKCOUNTS:0.000=4;
#COMBOS:0.000=1;
#SPEEDS:0.000=1.000=0.000=0;
#SCROLLS:0.000=1.000;
#FAKES:;
#LABELS:0.000=Song Start;
#BGCHANGES:;
#KEYSOUNDS:;
#ATTACKS:
;

//---------------dance-single - ----------------
#NOTEDATA:;
#CHARTNAME:XMOD;
#STEPSTYPE:dance-single;
#DESCRIPTION:;
#CHARTSTYLE:;
#DIFFICULTY:Beginner;
#METER:3;
#RADARVALUES:0.188857,0.314948,0.299950,0.000000,0.000000,119.000000,92.000000,27.000000,0.000000,0.000000,0.000000,0.000000,0.000000,0.000000,0.188857,0.314948,0.299950,0.000000,0.000000,119.000000,92.000000,27.000000,0.000000,0.000000,0.000000,0.000000,0.000000,0.000000;
#CREDIT:djfipu;
#NOTES:
// measure 0
0000
0000
0000
0000
,  // measure 1
0000
0000
0000
0000
,  // measure 2
0000
0000
0000
0000
,  // measure 3
0000
0000
0000
0000
,  // measure 4
0000
0000
0000
0000
,  // measure 5
1000
0000
0000
0000
,  // measure 6
0001
0000
0000
0000
,  // measure 7
0100
0000
0000
0000
,  // measure 8
0010
0000
0000
0000
,  // measure 9
0110
0000
0000
0000
,  // measure 10
0010
0000
0000
0000
,  // measure 11
1000
0000
0000
0000
,  // measure 12
0001
0000
0010
0000
,  // measure 13
0100
0000
1000
0000
,  // measure 14
0010
0000
1000
0000
,  // measure 15
0100
0000
0010
0000
,  // measure 16
0001
0000
0100
0000
,  // measure 17
0001
0000
0010
0000
,  // measure 18
0001
0000
1000
0000
,  // measure 19
0100
0000
1000
0000
,  // measure 20
0010
0000
0100
0000
,  // measure 21
0110
0000
0000
0000
,  // measure 22
1000
0000
0000
0000
,  // measure 23
0001
0000
0000
0000
,  // measure 24
0110
0000
0000
0000
,  // measure 25
1001
0000
0000
0000
,  // measure 26
1000
0000
0000
0000
,  // measure 27
0001
0000
0000
0000
,  // measure 28
1000
0000
0000
0000
,  // measure 29
0110
0000
0000
0000
,  // measure 30
1001
0000
0000
0000
,  // measure 31
1010
0000
0000
0000
,  // measure 32
1001
0000
0000
0000
,  // measure 33
0101
0000
0000
0000
,  // measure 34
1001
0000
0000
0000
,  // measure 35
0110
0000
0000
0000
,  // measure 36
0011
0000
0000
0000
,  // measure 37
1001
0000
1000
0000
,  // measure 38
0001
0000
0000
0000
,  // measure 39
0110
0000
0010
0000
,  // measure 40
0100
0000
0000
0000
,  // measure 41
1001
0000
0001
0000
,  // measure 42
1000
0000
1000
0000
,  // measure 43
1001
0000
0001
0000
,  // measure 44
0100
0000
0000
0000
,  // measure 45
0110
0000
0010
0000
,  // measure 46
0110
0000
0000
0000
,  // measure 47
1001
0000
1000
0000
,  // measure 48
1001
0000
0001
0000
,  // measure 49
0101
0000
0001
0000
,  // measure 50
1001
0000
1000
0000
,  // measure 51
1010
0000
0001
0000
,  // measure 52
1001
0000
1000
0000
,  // measure 53
0110
0000
0010
0000
,  // measure 54
0010
0010
0010
0010
,  // measure 55
1001
0000
1000
0000
,  // measure 56
0100
0000
0010
0000
,  // measure 57
0100
0000
1000
0000
,  // measure 58
0001
0000
0100
0000
,  // measure 59
0100
0000
0001
0000
,  // measure 60
0010
0000
0001
0000
,  // measure 61
1000
0000
0100
0000
,  // measure 62
1000
0000
0010
0000
,  // measure 63
0110
0000
0000
0000
;

//---------------dance-single - "AIR" special----------------
#NOTEDATA:;
#CHARTNAME:XMOD JU;
#STEPSTYPE:dance-single;
#DESCRIPTION:"AIR" special;
#CHARTSTYLE:;
#DIFFICULTY:Easy;
#METER:7;
#RADARVALUES:0.353909,0.454924,0.477698,0.000000,0.000000,223.000000,180.000000,43.000000,0.000000,0.000000,0.000000,0.000000,0.000000,0.000000,0.353909,0.454924,0.477698,0.000000,0.000000,223.000000,180.000000,43.000000,0.000000,0.000000,0.000000,0.000000,0.000000,0.000000;
#CREDIT:djfipu;
#NOTES:
// measure 0
0000
0000
0000
0000
,  // measure 1
0000
0000
0000
0000
,  // measure 2
0000
0000
0000
0000
,  // measure 3
0000
0000
0000
0000
,  // measure 4
0000
0000
0000
0000
,  // measure 5
0001
0100
0001
1000
,  // measure 6
0100
0010
0100
1000
,  // measure 7
0010
1000
0010
0100
,  // measure 8
0001
1000
0100
0010
,  // measure 9
1001
1000
0001
1000
,  // measure 10
0100
0010
0100
1000
,  // measure 11
0001
0100
0010
1000
,  // measure 12
0110
0110
1001
1001
,  // measure 13
1000
0001
0100
0001
,  // measure 14
1000
0010
1000
0001
,  // measure 15
0010
0100
0010
0001
,  // measure 16
1000
1001
0001
1001
,  // measure 17
1000
0010
0100
0001
,  // measure 18
1000
0100
0010
0001
,  // measure 19
1000
1000
0001
0001
,  // measure 20
0100
0010
1000
0001
,  // measure 21
0110
0000
1001
0000
,  // measure 22
1010
0000
0101
0000
,  // measure 23
1001
0000
1100
0000
,  // measure 24
0011
0000
0000
0000
,  // measure 25
1001
0000
1010
0000
,  // measure 26
0101
0000
0011
0000
,  // measure 27
1100
0000
1001
0000
,  // measure 28
0110
0000
1001
0000
,  // measure 29
1000
0010
1000
0010
,  // measure 30
0100
0001
0100
0001
,  // measure 31
0010
0001
0010
0001
,  // measure 32
1000
0100
1000
0100
,  // measure 33
0010
0001
1000
0010
,  // measure 34
1000
0001
0010
0001
,  // measure 35
1000
0100
1000
0001
,  // measure 36
0100
0010
1000
0100
,  // measure 37
0110
0000
0001
0000
,  // measure 38
1001
0000
0000
0000
,  // measure 39
1100
0000
0001
0000
,  // measure 40
1001
0000
0000
0000
,  // measure 41
0011
0000
0100
0000
,  // measure 42
1001
0000
0010
0000
,  // measure 43
0110
0000
0100
0000
,  // measure 44
1001
0000
0000
0000
,  // measure 45
1100
0000
0001
0000
,  // measure 46
0101
0000
0000
0000
,  // measure 47
0011
0000
1000
0000
,  // measure 48
1010
0000
0100
0000
,  // measure 49
0110
0000
0001
0000
,  // measure 50
1001
0000
1000
0000
,  // measure 51
0110
0000
1001
0000
,  // measure 52
1010
0000
0101
0000
,  // measure 53
0110
0000
0100
0000
,  // measure 54
0100
0000
0100
0000
0100
0100
0100
0100
,  // measure 55
1001
1000
0100
1000
,  // measure 56
0001
0100
0001
0100
,  // measure 57
0010
1000
0010
1000
,  // measure 58
0001
0100
0010
1000
,  // measure 59
0010
0100
0010
0100
,  // measure 60
0001
1000
0001
1000
,  // measure 61
0100
0010
0001
0010
,  // measure 62
0100
1000
0010
0100
,  // measure 63
1001
0000
0000
0000
;

//---------------dance-single - ----------------
#NOTEDATA:;
#CHARTNAME:XMOD XO SJ JU;
#STEPSTYPE:dance-single;
#DESCRIPTION:;
#CHARTSTYLE:;
#DIFFICULTY:Medium;
#METER:12;
#RADARVALUES:0.491982,0.594901,0.411043,0.000000,0.266622,310.000000,273.000000,37.000000,0.000000,0.000000,0.000000,0.000000,0.000000,0.000000,0.491982,0.594901,0.411043,0.000000,0.266622,310.000000,273.000000,37.000000,0.000000,0.000000,0.000000,0.000000,0.000000,0.000000;
#CREDIT:djfipu;
#NOTES:
// measure 0
0000
0000
0000
0000
,  // measure 1
0000
0000
0000
0000
,  // measure 2
0000
0000
0000
0000
,  // measure 3
0000
0000
0000
0000
,  // measure 4
0000
0000
0000
0000
,  // measure 5
0001
0100
1000
0100
,  // measure 6
0001
0100
1000
0100
,  // measure 7
0001
0100
0010
0100
,  // measure 8
0001
0000
1000
0000
0100
1000
0010
1000
,  // measure 9
0001
0010
1000
0010
,  // measure 10
0001
0010
1000
0010
,  // measure 11
0001
0010
0100
0010
,  // measure 12
0001
1000
0001
1000
0010
0100
0010
0100
,  // measure 13
0110
0010
1010
1000
,  // measure 14
1001
0001
0011
0010
,  // measure 15
0110
0100
1100
0011
,  // measure 16
0101
1010
0110
1001
,  // measure 17
0101
0001
1001
1000
,  // measure 18
1100
0100
0110
0010
,  // measure 19
0011
0000
0001
1000
0001
0000
0100
0000
,  // measure 20
0010
0000
1010
0000
1000
0000
0001
1000
,  // measure 21
0100
0000
0000
0100
0000
0000
0000
0000
0010
0000
0000
0010
0000
0000
0000
0000
,  // measure 22
0100
0000
0000
0100
0000
0000
0000
0000
1000
0000
0000
1000
0000
0000
0000
0000
,  // measure 23
0001
0000
0000
0001
0000
0000
0000
0000
0100
0000
0000
0100
0000
0000
0000
0000
,  // measure 24
0110
0010
1000
0001
,  // measure 25
0010
0000
0000
0010
0000
0000
0000
0000
0100
0000
0000
0100
0000
0000
0000
0000
,  // measure 26
1000
0000
0000
1000
0000
0000
0000
0000
0100
0000
0000
0100
0000
0000
0000
0000
,  // measure 27
1000
0000
0000
1000
0000
0000
0000
0000
0001
0000
0000
0001
0000
0000
0000
0000
,  // measure 28
1000
0100
1000
0100
0010
0001
0010
0001
,  // measure 29
1000
0000
0000
1000
0000
0000
1000
0000
0010
0000
0000
0010
0000
0000
0010
0000
,  // measure 30
0100
0000
0000
0100
0000
0000
0100
0000
0001
0000
0000
0001
0000
0000
0001
0000
,  // measure 31
1000
0000
0000
1000
0000
0000
1000
0000
0100
0000
0000
0100
0000
0000
0100
0000
,  // measure 32
1000
0000
0000
1000
0000
0000
1000
0000
0010
0000
0000
0010
0000
0000
0010
0000
,  // measure 33
0100
0000
0000
0100
0000
0000
0100
0000
0001
0000
0000
0001
0000
0000
0001
0000
,  // measure 34
1000
0000
0000
1000
0000
0000
1000
0000
0001
0000
0000
0001
0000
0000
0001
0000
,  // measure 35
0010
0000
0000
0010
0000
0000
0010
0000
0100
0000
0000
0100
0000
0000
0100
0000
,  // measure 36
1000
0010
0100
0001
,  // measure 37
1001
0000
0000
1000
0000
0000
0000
0000
0001
0000
0000
0100
0000
0000
0000
0000
,  // measure 38
0110
0000
0000
0000
,  // measure 39
1001
0000
0000
0001
0000
0000
0000
0000
1000
0000
0000
0100
0000
0000
0000
0000
,  // measure 40
0110
0000
0000
0000
,  // measure 41
0110
0000
0000
0001
0000
0000
0000
0000
1000
0000
0000
0010
0000
0000
0000
0000
,  // measure 42
1000
0000
0000
0100
0000
0000
0000
0000
0010
0000
0000
0001
0000
0000
0000
0000
,  // measure 43
0100
0000
0000
0001
0000
0000
0000
0000
0100
0000
0000
0010
0000
0000
0000
0000
,  // measure 44
1001
0000
0000
0000
,  // measure 45
1000
0000
0000
0010
0000
0000
1000
0000
0001
0000
0000
0100
0000
0000
0001
0000
,  // measure 46
1000
0000
0000
0000
,  // measure 47
0001
0000
0000
0010
0000
0000
0001
0000
1000
0000
0000
0100
0000
0000
1000
0000
,  // measure 48
0001
0000
0000
0001
0000
0000
0000
0000
1000
0000
0000
1000
0000
0000
0000
0000
,  // measure 49
1000
0000
0000
0001
0000
0000
1000
0000
0010
0000
0000
1000
0000
0000
0001
0000
,  // measure 50
0100
0000
0000
0100
0000
0000
0100
0000
0010
0000
0000
0010
0000
0000
1000
0000
,  // measure 51
0001
0000
0000
0010
0000
0000
0100
0000
0010
0000
0000
0001
0000
0000
1000
0000
,  // measure 52
0010
0100
0001
1000
,  // measure 53
1100
0000
0011
0000
,  // measure 54
0101
0101
1010
1001
,  // measure 55
1000
0100
1000
0100
1000
0100
1000
0000
,  // measure 56
0001
0100
0001
0100
0001
0100
0001
0000
,  // measure 57
1000
0010
1000
0010
1000
0010
1000
0000
,  // measure 58
1100
0100
0110
0001
,  // measure 59
0001
0010
0001
0100
0001
0010
0001
0000
,  // measure 60
1000
0100
1000
0010
1000
0100
1000
0000
,  // measure 61
0001
1000
0100
1000
0001
1000
0100
0000
,  // measure 62
0011
1100
1010
0101
,  // measure 63
0110
0000
0000
0000
;

//---------------dance-single - possession type beat----------------
#NOTEDATA:;
#CHARTNAME:XMOD XO+ SJ+;
#STEPSTYPE:dance-single;
#DESCRIPTION:possession type beat;
#CHARTSTYLE:;
#DIFFICULTY:Hard;
#METER:14;
#RADARVALUES:0.636402,0.734877,0.444370,0.000000,0.283286,401.000000,361.000000,40.000000,0.000000,0.000000,0.000000,0.000000,0.000000,0.000000,0.636402,0.734877,0.444370,0.000000,0.283286,401.000000,361.000000,40.000000,0.000000,0.000000,0.000000,0.000000,0.000000,0.000000;
#CREDIT:djfipu;
#NOTES:
// measure 0
0000
0000
0000
0000
,  // measure 1
0000
0000
0000
0000
,  // measure 2
0000
0000
0000
0000
,  // measure 3
0000
0000
0000
0000
,  // measure 4
0000
0000
0000
0000
,  // measure 5
1000
0100
1000
0100
0001
0100
0001
0100
,  // measure 6
1000
0100
1000
0001
1000
0010
0100
0001
,  // measure 7
1000
0010
1000
0010
0001
0010
0001
0010
,  // measure 8
1000
0010
0001
0010
1000
0100
0010
0001
,  // measure 9
0100
0001
0100
0001
0100
1000
0100
1000
,  // measure 10
0100
0001
0100
0010
0100
1000
0100
0001
,  // measure 11
0010
0001
0010
0001
0010
1000
0010
1000
,  // measure 12
0010
0001
0010
0100
0010
0001
0100
1000
,  // measure 13
0100
0001
0101
0000
0001
1000
1001
0000
,  // measure 14
1000
0100
1100
0000
0100
0010
0110
0000
,  // measure 15
0001
0010
0011
0000
1100
0000
0101
0000
,  // measure 16
0110
1010
1100
1001
,  // measure 17
0001
0100
1010
0000
1000
0100
0011
0000
,  // measure 18
1000
0001
1100
0000
1000
0010
0101
0000
,  // measure 19
1000
0000
0010
0010
0010
0000
1000
0000
,  // measure 20
0011
0000
0100
0000
1001
0001
0010
0100
,  // measure 21
1000
0000
0000
1000
0000
0000
1000
0000
0001
0000
0000
0001
0000
0000
0001
0000
,  // measure 22
0100
0000
0000
0100
0000
0000
0100
0000
0010
0000
0000
0010
0000
0000
0010
0000
,  // measure 23
1000
0000
0000
1000
0000
0000
1000
0000
0001
0000
0000
0001
0000
0000
0001
0000
,  // measure 24
0011
0000
0000
0000
,  // measure 25
0010
0000
0000
0010
0000
0000
0010
0000
0100
0000
0000
0100
0000
0000
0100
0000
,  // measure 26
1000
0000
0000
1000
0000
0000
1000
0000
0001
0000
0000
0001
0000
0000
0001
0000
,  // measure 27
0010
0000
0000
0010
0000
0000
0010
0000
0100
0000
0000
0100
0000
0000
0100
0000
,  // measure 28
1000
0000
0010
0000
0100
0000
0001
0000
0010
0000
0100
1000
0001
0000
0100
0000
,  // measure 29
0011
0000
0000
0010
0000
0000
0010
0000
0110
0000
0000
0100
0000
0000
0100
0000
,  // measure 30
1100
0000
0000
1000
0000
0000
1000
0000
1001
0000
0000
0001
0000
0000
0001
0000
,  // measure 31
0101
0000
0000
0100
0000
0000
0100
0000
0110
0000
0000
0010
0000
0000
0010
0000
,  // measure 32
1010
0011
1100
0101
,  // measure 33
1001
0000
0000
1000
0000
0000
0010
0000
0101
0000
0000
0001
0000
0000
0100
0000
,  // measure 34
1010
0000
0000
0001
0000
0000
0010
0000
1100
0000
0000
1000
0000
0000
0001
0000
,  // measure 35
0110
0000
0000
1000
0000
0000
0100
0000
0011
0000
0000
1000
0000
0000
0001
0000
,  // measure 36
1000
0010
0100
0001
0010
0100
0010
0001
,  // measure 37
1000
0000
0000
1000
0000
0000
0100
0000
0001
0000
0000
0001
0000
0000
0100
0000
,  // measure 38
1000
0000
0000
0000
,  // measure 39
0001
0000
0000
0001
0000
0000
0100
0000
1000
0000
0000
1000
0000
0000
0100
0000
,  // measure 40
0001
0000
0000
0000
,  // measure 41
1000
0000
0000
1000
0000
0000
0010
0000
0001
0000
0000
0001
0000
0000
0010
0000
,  // measure 42
1000
0000
0000
1000
0000
0000
0001
0000
0100
0000
0000
0010
0000
0000
1000
0000
,  // measure 43
0001
0000
0000
0001
0000
0000
0010
0000
1000
0000
0000
1000
0000
0000
0010
0000
,  // measure 44
0001
0000
0000
0000
,  // measure 45
0011
0000
0000
0001
0000
0000
0010
0000
1000
0000
0000
1000
0000
0000
0010
0000
,  // measure 46
0001
0000
0000
0000
,  // measure 47
1010
0000
0000
1000
0000
0000
0010
0000
0001
0000
0000
0001
0000
0000
0010
0000
,  // measure 48
1000
0000
0000
1000
0000
0000
0100
0000
0010
0000
0000
0100
0000
0000
1000
0000
,  // measure 49
0101
0000
0000
0001
0000
0000
0100
0000
1000
0000
0000
1000
0000
0000
0100
0000
,  // measure 50
0001
0000
0000
0100
0000
0000
1000
0000
0001
0000
0000
0010
0000
0000
1000
0000
,  // measure 51
1001
0000
0000
1000
0000
0000
0100
0000
0001
0000
0000
1000
0000
0000
0010
0000
,  // measure 52
0001
1000
0001
1000
0001
0100
0001
0100
,  // measure 53
0110
0010
0100
0001
,  // measure 54
1000
0000
1000
0000
0100
0000
0100
0000
0010
0001
0010
0001
1000
0010
1000
0010
,  // measure 55
0100
0010
0001
0010
0100
0010
0001
0010
,  // measure 56
0100
0010
0001
0010
0100
0001
1000
1000
,  // measure 57
0100
0010
1000
0010
0100
0010
1000
0010
,  // measure 58
0100
0010
1000
0010
0100
1000
0001
0100
,  // measure 59
0010
0100
1000
0100
0010
0100
1000
0100
,  // measure 60
0010
0100
1000
0100
0010
1000
0001
0001
,  // measure 61
0010
0100
0001
0100
0010
0100
0001
0100
,  // measure 62
0010
0100
1000
0001
0100
0010
1000
0100
,  // measure 63
1001
0000
0000
0000
;
