#VERSION:0.83;
#TITLE:cachaca;
#SUBTITLE:;
#ARTIST:Mokky de Yah Yah's;
#TITLETRANSLIT:;
#SUBTITLETRANSLIT:;
#ARTISTTRANSLIT:;
#GENRE:;
#CREDIT:;
#MUSIC:cachaca.ogg;
#BANNER:cachaca.png;
#BACKGROUND:cachaca-bg.png;
#CDTITLE:djfipu-cdtitle.png;
#SAMPLESTART:19.013;
#SAMPLELENGTH:15.000;
#SELECTABLE:YES;
#OFFSET:-0.263;
#BPMS:0.000=128.000;
#STOPS:;
#SPEEDS:0.000=1.000=0.000=0;
#SCROLLS:0.000=1.000;
#TICKCOUNTS:0.000=4;
#TIMESIGNATURES:0.000=4=4;
#LABELS:0.000=Song Start;
#COMBOS:0.000=1;
#DISPLAYBPM:128.000;
#ORIGIN:;
#PREVIEWVID:;
#JACKET:cachaca-jacket.mp4;
#CDIMAGE:;
#DISCIMAGE:;
#BGCHANGES:0.000=cachaca.mp4=1.000=0=0=0=StretchNoLoop==CrossFade_Fastest==,
99999.000=-nosongbg-=1.000=0=0=0=StretchNoLoop====
;
#FGCHANGES:;

//--------------- dance-single - ----------------
#NOTEDATA:;
#STEPSTYPE:dance-single;
#DESCRIPTION:;
#DIFFICULTY:Beginner;
#METER:2;
#RADARVALUES:0.100417,0.177061,0.095853,0.106503,0,66,57,9,10,0,0,0,0,0,0.100417,0.177061,0.095853,0.106503,0,66,57,9,10,0,0,0,0,0;
#DISPLAYBPM:128.000;
#CHARTNAME:;
#CHARTSTYLE:;
#CREDIT:djfipu;
#NOTES:
0000
0000
0000
0000
,
0000
0000
0000
0000
,
1000
0000
0000
0000
,
0001
0000
0000
0000
,
0100
0000
0000
0000
,
0001
0000
0000
0000
,
0010
0000
0000
0000
,
0100
0000
0000
0000
,
1000
0000
0000
0000
,
0001
0000
0000
0000
,
0200
0000
0320
0000
,
0130
0000
0000
0000
,
0001
0000
0000
0000
,
1000
0000
0000
0000
,
0200
0000
0320
0000
,
0130
0000
0000
0000
,
1000
0000
0000
0000
,
1001
0000
0000
0000
,
0001
0000
0000
0000
,
1000
0000
0000
0000
,
0010
0000
0000
0000
,
0100
0000
0000
0000
,
0010
0000
0000
0000
,
1000
0000
0000
0000
,
0001
0000
0000
0000
,
0110
0000
0000
0000
,
1001
0000
0000
0000
,
1000
0000
0000
0000
,
0100
0000
0000
0000
,
0010
0000
0000
0000
,
0001
0000
0000
0000
,
1000
0000
1000
0000
,
0001
0000
0001
0000
,
0100
0000
0000
0000
,
1001
0000
0000
0000
,
0010
0000
0000
0000
,
1001
0000
0000
0000
,
0100
0000
0000
0000
,
1001
0000
0000
0000
,
1000
0000
0000
0000
,
0020
0000
0230
0000
,
0310
0000
0100
0000
,
0002
0000
2003
0000
,
3001
0000
0001
0000
,
0020
0000
0230
0000
,
1300
0000
1000
0000
,
1001
0000
0000
0000
,
0110
0000
1001
0000
;

//--------------- dance-single - RH- ----------------
#NOTEDATA:;
#STEPSTYPE:dance-single;
#DESCRIPTION:RH-;
#DIFFICULTY:Easy;
#METER:6;
#RADARVALUES:0.264736,0.354123,0.085202,0.394061,0.063902,174,166,8,37,0,0,0,0,0,0.264736,0.354123,0.085202,0.394061,0.063902,174,166,8,37,0,0,0,0,0;
#DISPLAYBPM:128.000;
#CHARTNAME:;
#CHARTSTYLE:;
#CREDIT:djfipu;
#NOTES:
0000
0000
0000
0000
,
0000
0000
0000
0000
,
1000
1000
0020
0030
,
0100
0000
0010
1000
,
0100
2000
0000
0000
3000
0000
0001
0000
,
0010
0000
0100
1000
,
0001
0001
0200
0300
,
0010
0000
0100
0001
,
0010
0002
0000
0000
0003
0000
0000
0000
,
1000
0010
0100
0010
,
2000
3200
0320
0032
,
1003
0000
0000
1000
0000
0000
1000
0000
0000
0000
0000
0000
0000
0000
0000
0000
,
0001
0010
0001
0100
,
0001
0000
0000
1000
0000
0000
0000
0000
0000
0000
0000
0000
1000
0000
0000
0000
,
0002
0023
0230
2300
,
3001
0000
0000
0001
0000
0000
0020
0000
0000
0000
0000
0000
0130
0000
0000
0000
,
0020
0030
0000
0100
,
1000
0001
1001
0000
,
0001
0001
0100
0000
,
0010
0100
0001
1000
,
0100
0020
0000
0000
0030
0002
0000
0000
,
1003
0010
0100
0010
,
1000
0001
0020
0030
,
0100
0010
0000
0001
0000
1000
0010
0000
,
0100
0020
0000
0000
1030
0000
0001
0000
,
1001
1100
0101
0011
,
1001
0001
0100
0010
,
0100
0001
1000
0100
,
1000
0010
0100
0001
,
2000
3200
0320
0032
,
1003
0010
1000
0100
,
1000
0001
1000
0001
,
0100
0010
0100
0010
,
1000
0010
0100
0001
,
1000
0010
0200
0300
,
0000
0010
0000
0100
0000
0001
1000
0000
,
0001
0010
0200
0300
,
1000
0100
0010
0100
,
1000
0001
0020
0030
,
0000
1001
0000
0001
0000
1000
0010
0000
,
2000
3020
0230
0302
,
0013
0100
0010
0001
,
0200
0320
2030
3002
,
1003
0000
0000
1000
0000
0000
0001
0000
0000
0001
0000
0000
0000
0000
0000
0000
,
0002
0023
0230
2300
,
3001
0000
0000
0001
0000
0000
0000
0100
0000
0000
0100
0000
0000
0000
0000
0000
,
0010
0000
0000
0010
0000
0000
0000
1000
0000
0001
0000
0000
0000
0000
0000
0000
,
1000
0000
0000
0001
0000
1000
0000
0000
1001
0000
0000
0000
0000
0000
0000
0000
;

//--------------- dance-single - RH XO- ----------------
#NOTEDATA:;
#STEPSTYPE:dance-single;
#DESCRIPTION:RH XO-;
#DIFFICULTY:Medium;
#METER:11;
#RADARVALUES:0.44427,0.455301,0.138454,0.479264,0.34081,292,279,13,45,0,0,0,0,0,0.44427,0.455301,0.138454,0.479264,0.34081,292,279,13,45,0,0,0,0,0;
#DISPLAYBPM:128.000;
#CHARTNAME:;
#CHARTSTYLE:;
#CREDIT:djfipu;
#NOTES:
0000
0000
0000
0000
,
0000
0000
0000
0000
,
1000
0000
0001
0000
0010
0000
0000
0100
0010
0000
0000
0001
1000
0000
0010
0000
,
0100
0000
0000
0000
0010
0000
0000
0000
1000
0000
0000
0001
0010
0000
0100
0000
,
1000
0001
0100
0000
0010
0000
1000
0000
,
0001
0000
0000
0000
0010
0100
0000
0110
0000
0000
0000
1000
0001
0000
0100
0000
,
0010
0000
1000
0000
0001
0000
0000
1000
0100
0000
0000
0010
0001
0000
1000
0000
,
0010
0000
0000
0000
0100
0000
0000
0000
0001
1000
0000
0100
0010
0000
0001
0000
,
1000
0000
0010
0000
0100
0000
0000
0000
0010
0000
0000
1000
0010
0000
0100
0000
,
0001
0000
0000
1000
0100
0000
0000
1000
0001
0000
0000
0100
0010
0000
0000
0000
,
2000
3200
0302
0203
,
1300
0000
0000
0010
0000
0000
0100
0000
0000
0000
0001
0000
1000
0000
0000
0000
,
0001
0000
0000
0010
0000
0001
0000
0100
0000
0001
0000
0000
1000
0000
0100
0000
,
0010
0000
0000
1001
0000
0000
0000
0000
0000
0000
1000
0000
0010
0000
0100
0000
,
0002
0203
2300
3200
,
0310
0000
0000
1000
0000
0000
0002
0000
0000
0000
0000
0000
1003
0000
0000
0000
,
0220
0000
0330
0000
0000
1000
0001
0100
,
0001
0000
1000
0001
0000
0001
0000
0001
0100
0000
0000
0000
0110
0000
0000
0000
,
0001
0000
1000
0000
0010
0000
0000
0100
0010
0000
0000
1000
0001
0000
0010
0000
,
0100
0000
0000
0000
0010
0000
0001
0000
1000
0000
0010
0100
0010
0000
0100
0000
,
0001
1000
0100
0000
0010
0002
0000
2003
,
3020
0000
0000
0032
0000
0000
0023
0000
2030
0000
3200
0000
0000
0000
0310
0000
,
0010
0000
0001
0000
1000
0000
0000
0001
0100
0000
0000
0010
1000
0000
0001
0000
,
0010
0000
0200
0000
2300
0000
3001
0200
0000
0000
0310
0000
1000
0000
0001
0000
,
1000
0000
0100
0000
0010
0000
0000
0000
0010
0000
0000
0001
0010
0000
0100
0000
,
1000
0000
0001
0100
0000
0000
0010
0000
1000
0100
0000
0000
1001
0000
0000
0000
,
1000
0100
1000
0000
0001
0010
0001
0000
,
1000
0010
1000
0000
0001
0100
0001
0000
,
1000
0100
0001
0000
0001
0100
1000
0000
,
0002
0023
0230
2300
,
3001
0100
0010
1000
,
0001
0010
0001
0010
0000
0000
0100
1000
0100
1000
0000
0000
,
0010
1000
0010
1000
0000
0000
0001
0100
0001
0100
0000
0000
,
0002
0000
0000
2003
0000
0000
3100
0000
2002
0000
0000
0000
3003
0000
0000
0000
,
1000
0100
0010
0001
1000
0000
0001
0000
,
0100
0000
0010
0000
0000
0100
0000
0000
0001
0000
1000
0001
0000
0000
0000
0000
,
0001
0010
0100
1000
0001
0000
1000
0000
,
0010
0000
0100
0010
0000
1000
0000
0010
0000
0001
0000
0010
0100
0000
0010
0000
,
1000
0010
0100
0001
0010
0000
0100
0000
,
1000
0000
0101
0000
0000
1100
0000
0000
0110
0000
0010
0100
0000
0000
0000
0000
,
2000
3200
0302
0203
,
2300
3020
0230
0302
,
2003
3020
0032
0023
,
0130
0000
0100
0001
0000
0000
1000
0000
0100
1000
0000
0000
1001
0000
0000
0000
,
0002
0023
2030
3020
,
0031
0000
1000
0001
0000
0100
0000
0010
0000
0000
1001
0000
0000
0000
0000
0000
,
1000
0000
0001
0100
0000
0010
0000
0100
0000
1001
0000
0000
0000
0000
0000
0000
,
0001
0000
1000
0100
0000
0010
0000
0000
1001
0000
0000
0000
0000
0000
0000
0000
;

//--------------- dance-single - RH XO ----------------
#NOTEDATA:;
#STEPSTYPE:dance-single;
#DESCRIPTION:RH XO;
#DIFFICULTY:Hard;
#METER:13;
#RADARVALUES:0.608589,0.581773,0.213006,0.138454,0.995804,400,380,20,13,0,0,0,0,0,0.608589,0.581773,0.213006,0.138454,0.995804,400,380,20,13,0,0,0,0,0;
#DISPLAYBPM:128.000;
#CHARTNAME:;
#CHARTSTYLE:;
#CREDIT:djfipu;
#NOTES:
0000
0000
0000
0000
,
0000
0000
0000
0000
,
0000
0000
0000
0000
1000
0000
0000
0000
0010
0000
0000
0000
1000
0000
0000
0000
0010
0000
0000
0000
0100
0000
0000
0000
0001
0000
0000
0000
0000
0000
0000
0000
0000
1000
0000
0000
0100
0000
0000
0000
0000
0000
0010
0000
0000
0000
0000
0000
,
0100
0000
0000
0000
0000
0000
0000
0000
0000
1000
0000
0000
0001
0000
0000
0000
0000
0000
0100
0000
0000
0000
0000
0000
0010
0000
0000
0000
1000
0000
0000
0000
0001
0000
0000
0000
0100
0000
0000
0000
0010
0000
0000
0000
0100
0000
0000
0000
,
0001
0000
0010
0000
0100
0000
0000
1000
0000
0100
0000
0010
0100
0000
1000
0000
,
0001
0000
1000
0000
0010
0000
0000
0100
0000
0001
0000
0100
0010
0000
0100
0000
,
0001
0000
0000
0000
0010
0000
0000
0000
0001
0000
0000
0000
0010
0000
0000
0000
0100
0000
0000
0000
1000
0000
0000
0000
0001
0000
0000
0000
0000
0000
0000
0000
0000
1000
0000
0000
0010
0000
0000
0000
0000
0000
0100
0000
0000
0000
0000
0000
,
0001
0000
0000
0000
0000
0000
1000
0000
0000
0100
0000
0000
0000
0000
0000
0001
0000
0000
0000
0000
0000
0100
0000
0000
0000
0000
0000
0000
1000
0000
0000
0000
0010
0000
0000
0000
1000
0000
0000
0000
0001
0000
0000
0000
0010
0000
0000
0000
,
0100
0000
0000
0000
0010
0000
0000
0000
0100
0000
0000
0000
1000
0000
0000
0000
0000
0000
0000
0000
0000
0000
0000
0000
0001
0000
0000
0000
0000
0000
0000
0000
0000
0100
0000
0000
0010
0000
0000
0000
0000
0000
1000
0000
0000
0000
0000
0000
,
0001
0000
0000
1000
0010
0000
0000
0100
0001
0000
0000
0010
0100
0000
0000
0000
,
1000
0100
1000
0001
0010
0001
1000
0010
1000
0001
0100
0001
,
1000
0000
0001
0100
0000
0010
0100
0000
0010
0000
1000
0100
1000
0000
0010
0000
,
0001
0000
0010
0100
0000
0010
0000
1000
0000
0001
0000
0000
1000
0000
0100
0000
,
1000
0000
0000
0101
0000
0000
0000
0000
1000
0000
0010
0000
0100
0000
0001
0000
,
0010
0100
0010
0001
1000
0001
0100
0010
0100
0001
1000
0001
,
1000
0000
0000
1000
0000
0000
0020
0000
0000
0000
0000
0000
0130
0000
0000
0000
,
1001
0000
0001
0000
1000
0100
0010
0100
,
1000
0000
0010
0100
0000
0110
0000
1000
0001
0000
0000
0000
1001
0000
0000
0000
,
0000
0000
0000
0000
0001
0000
0000
0000
0010
0000
0000
0000
0001
0000
0000
0000
0010
0000
0000
0000
0100
0000
0000
0000
1000
0000
0000
0000
0000
0000
0000
0000
0000
0001
0000
0000
0100
0000
0000
0000
0000
0000
0010
0000
0000
0000
0000
0000
,
0100
0000
0000
0000
0000
0000
0000
0000
0000
0001
0000
0000
1000
0000
0000
0000
0000
0000
0100
0000
0000
0000
0000
0000
0010
0000
0000
0000
0001
0000
0000
0000
1000
0000
0000
0000
0100
0000
0000
0000
0010
0000
0000
0000
0100
0000
0000
0000
,
1000
0000
0000
0000
0010
0000
0000
0000
0100
0000
0000
0000
0001
0000
0000
0000
0000
0000
0000
0000
0000
1000
0000
0000
0000
0000
0000
0010
0000
0000
0000
0000
0000
0100
0000
0000
0001
0000
0000
0000
0000
0000
1000
0000
0000
0000
0000
0000
,
0001
0000
0100
0000
0010
0000
0000
0100
0000
1000
0000
0100
0010
0000
0100
0000
,
0001
0000
0000
0000
0010
0000
0000
0000
1000
0000
0000
0000
0010
0000
0000
0000
0100
0000
0000
0000
1000
0000
0000
0000
0001
0000
0000
0000
0000
0000
0000
0000
0000
1000
0000
0000
0010
0000
0000
0000
0000
0000
0100
0000
0000
0000
0000
0000
,
0001
0000
0000
0000
0000
0000
0010
0000
0000
0100
0000
0000
0000
0000
0000
0010
0000
0000
0000
0000
0000
1000
0000
0000
0010
0000
0000
0000
0001
0000
0000
0000
0010
0000
0000
0000
0100
0000
0000
0000
1000
0000
0000
0000
0010
0000
0000
0000
,
0001
0000
0000
0000
0010
0000
0000
0000
0100
0000
0000
0000
0010
0000
0000
0000
0000
0000
0100
0000
0000
0000
0000
0000
0001
0000
0000
0000
0000
0000
0000
0000
0000
0100
0000
0000
0010
0000
0000
0000
0000
0000
1000
0000
0000
0000
0000
0000
,
0100
0000
0010
0001
0000
0000
1000
0000
0010
0100
0000
0000
1001
0000
0000
0000
,
0001
0000
1000
0100
0000
0010
0000
1000
0000
0010
0000
0100
1000
0000
0001
0000
,
0100
0000
0010
0100
0000
0010
0000
0001
0000
0010
0000
0100
0001
0000
1000
0000
,
0001
0010
0100
1000
0001
0010
0100
1000
0010
0100
0001
1000
,
0020
0230
0302
2003
,
3001
0100
0001
0010
0100
1000
0002
0000
2003
0000
3020
0000
,
1030
0100
0010
0001
0000
0000
1000
0001
0100
0010
0000
0000
,
1000
0010
0100
0001
0000
0000
1000
0001
0010
0100
0000
0000
,
1000
0000
0000
0010
0100
0000
0001
0000
2000
0000
0000
0000
3001
0000
0000
0000
,
0000
0000
0000
0000
1000
0000
0000
0000
1000
0000
0000
0000
0010
0000
0000
0000
0100
0000
0000
0000
0010
0000
0000
0000
0001
0000
0000
0000
0000
0000
0000
0000
0000
0010
0000
0000
0100
0000
0000
0000
0000
0000
0000
0000
0000
0000
0000
0000
,
0000
0000
1001
0000
0000
1100
0000
0000
0001
0000
0010
0001
0000
0000
0000
0000
,
0000
0001
0001
0010
0100
0010
1000
0000
0000
0000
0000
0000
,
0010
0000
0100
1000
0000
0010
0000
1001
0000
1000
0010
0000
0100
0000
0110
0000
,
0000
0000
1000
0000
1000
0000
0100
0000
0010
0000
0100
0000
0001
0000
0000
0000
0000
0000
0100
0000
0000
0010
0000
0000
,
0010
0000
0110
0000
0000
0011
0000
0000
1000
0000
0010
0100
0000
0000
0000
0000
,
1000
0010
1000
0010
0100
0010
0100
0001
0100
0001
0010
0001
,
2000
3200
0320
0032
,
1003
0100
1000
0100
0010
0100
0010
0001
0010
0001
1000
0001
,
1000
0000
0010
0100
0000
0000
0001
0000
1000
0100
0000
0000
0110
0000
0000
0000
,
0010
0100
0010
0100
1000
0100
1000
0001
0100
0001
0100
0010
,
0100
0000
0010
0100
0000
0110
0000
0010
0000
0000
0110
0000
0000
0000
0000
0000
,
1001
0000
1000
0001
0000
1001
0000
1000
0000
0110
0000
0000
0000
0000
0000
0000
,
1001
0000
1000
0001
0000
1001
0000
0100
0110
0000
0000
0000
0000
0000
0000
0000
;

//--------------- dance-single - RH+ XO- JA SJ ----------------
#NOTEDATA:;
#STEPSTYPE:dance-single;
#DESCRIPTION:RH+ XO- JA SJ;
#DIFFICULTY:Challenge;
#METER:16;
#RADARVALUES:0.744,0.910601,0.479264,0.255607,1.299338,489,444,45,24,0,0,2,0,0,0.744,0.910601,0.479264,0.255607,1.299338,489,444,45,24,0,0,2,0,0;
#DISPLAYBPM:128.000;
#CHARTNAME:;
#CHARTSTYLE:;
#CREDIT:djfipu;
#NOTES:
0000
0000
0000
0000
,
0000
0000
0000
0000
,
0000
0000
0000
0000
0001
0000
0000
0000
1000
0000
0000
0000
0010
0000
0000
0000
0100
0000
0000
0000
0001
0000
0000
0000
0001
0000
0000
0000
0000
0000
0000
0000
0000
1000
0000
0000
0100
0000
0000
0000
0000
0000
0010
0000
0000
0000
0000
0000
,
0100
0000
0000
0000
0000
0000
0010
0000
0000
1000
0000
0000
0000
0000
0000
0010
0000
0000
0000
0000
0000
0001
0000
0000
0000
0000
0000
0000
1000
0000
0000
0000
1000
0000
0000
0000
1000
0000
0000
0000
0010
0000
0000
0000
0100
0000
0000
0000
,
0001
0000
0100
0000
0010
0000
0000
0100
0000
1000
0000
0100
0001
0000
0010
0000
,
0001
0000
1000
0100
0000
1000
0000
0001
0000
0010
0000
0001
0010
0100
1000
0000
,
0000
0000
0000
0000
1000
0000
0000
0000
0001
0000
0000
0000
0010
0000
0000
0000
0100
0000
0000
0000
1000
0000
0000
0000
1000
0000
0000
0000
0000
0000
0000
0000
0000
0001
0000
0000
0100
0000
0000
0000
0000
0000
0010
0000
0000
0000
0000
0000
,
0100
0000
0000
0000
0000
0000
0010
0000
0000
0001
0000
0000
0000
0000
0000
0010
0000
0000
0000
0000
0000
1000
0000
0000
0000
0000
0000
0000
0001
0000
0000
0000
0001
0000
0000
0000
0001
0000
0000
0000
1000
0000
0000
0000
0100
0000
0000
0000
,
0010
0000
0000
0000
0100
0000
0000
0000
1000
0000
0000
0000
0001
0000
0000
0000
0000
0000
0000
0000
0000
0100
0000
0000
0000
0000
0000
0001
0000
0000
0000
0000
0000
1000
0000
0000
0100
0000
0000
0010
0000
0000
0001
0000
0000
0000
0000
0000
,
1000
0000
0010
0100
0000
0010
0000
0001
0000
0010
0000
0100
0001
0010
0100
0000
,
1000
0001
1000
0001
1000
0000
0001
0010
0001
0010
0001
0000
0010
0100
0010
0100
0010
0000
0100
1000
0100
1000
0100
0000
,
0110
0000
0000
0000
0000
0000
0000
0000
0000
1001
0000
0000
0000
0000
0000
0000
0000
0000
1100
0000
0000
0000
0000
0000
0000
0000
0000
0001
0000
0000
0000
0000
0000
1000
0000
0000
0100
0000
0000
0000
0010
0000
0000
0000
0001
0000
0000
0000
,
1000
0000
0001
0100
0000
1000
0000
0100
0000
0001
0000
0000
0100
0000
0010
0000
,
0100
0000
0000
1001
0000
0000
0000
1000
0000
0010
0100
0000
0001
0000
1000
0000
,
0001
1000
0001
1000
0100
0000
1000
0100
1000
0100
0010
0000
0100
0010
0100
0010
0001
0000
0010
0001
0010
0001
1000
0000
,
1001
0000
0000
0000
0000
0000
0000
0000
0000
1001
0000
0000
0000
0000
0000
0000
0000
0000
0004
0000
4000
0000
0000
0000
0000
0000
0000
0000
0000
0000
3003
0000
0000
0000
0000
0000
0110
0000
0000
0000
0000
0000
0000
0000
0000
0000
0000
0000
,
0001
0000
0000
0000
0010
0100
0000
0010
0000
0001
1000
0000
0010
0000
0100
0000
,
0110
0000
0100
0101
0000
1001
0000
1000
1100
0000
0000
0000
1001
0000
0000
0000
,
0000
0000
0000
0000
1000
0000
0000
0000
0010
0000
0000
0000
1000
0000
0000
0000
0100
0000
0000
0000
0010
0000
0000
0000
0010
0000
0000
0000
0000
0000
0000
0000
0000
0001
0000
0000
0100
0000
0000
0000
0000
0000
0010
0000
0000
0000
0000
0000
,
1000
0000
0000
0000
0000
0000
0001
0000
0000
0010
0000
0000
0100
0000
0000
1000
0000
0000
0001
0000
0000
0100
0000
0000
0000
0000
0000
0000
0010
0000
0000
0000
0010
0000
0000
0000
0010
0000
0000
0000
0100
0000
0000
0000
0001
0000
0000
0000
,
0010
0000
0000
0000
0001
0000
0000
0000
0100
0000
0000
0000
0000
0000
0000
0000
0000
0000
0000
0000
0000
0010
0000
0000
0000
0000
0000
1000
0000
0000
0000
0000
0000
0200
0000
0000
0000
0000
0000
0000
0000
0000
1300
0000
0000
0100
0000
0000
,
0020
0000
0000
0032
0000
0000
2003
0000
3002
0000
0203
0000
0000
0000
0301
0000
,
0000
0000
0000
0000
0001
0000
0000
0000
0100
0000
0000
0000
0001
0000
0000
0000
0010
0000
0000
0000
0100
0000
0000
0000
0100
0000
0000
0000
0000
0000
0000
0000
0000
1000
0000
0000
0001
0000
0000
1000
0000
0000
0100
0000
0000
0000
0000
0000
,
0010
0000
0000
0000
0000
0000
0200
0000
0000
0000
0000
0000
2300
0000
0000
0000
0000
0000
3200
0000
0000
2300
0000
0000
0000
0000
0000
0000
3010
0000
0000
0000
0010
0000
0000
0000
0010
0000
0000
0000
0100
0000
0000
0000
0010
0000
0000
0000
,
0100
0000
0000
0000
0001
0000
0000
0000
0010
0000
0000
0000
0000
0000
0000
0000
0000
0000
0000
0000
0000
0001
0000
0000
0000
0000
0000
0010
0000
0000
0000
0000
0000
0001
0000
0000
1000
0000
0000
0000
0000
0000
0010
0000
0000
0000
0000
0000
,
1010
0000
0010
0110
0000
0000
0011
0000
0001
0101
0000
0000
1001
0000
0000
0000
,
0001
0000
0000
0000
0000
0000
1000
0000
0000
0000
0000
0000
0100
0000
0000
0000
0000
0000
0000
0000
0000
0100
0000
0000
0000
0000
0000
0000
0000
0000
1000
0000
0000
0100
0000
0000
1000
0000
0000
0000
0001
0000
0000
0000
0010
0000
0000
0000
,
0100
1000
0001
0100
0001
1000
0020
0000
0000
0030
0000
0000
,
0000
1000
0100
0010
0100
1000
0001
0100
0010
0100
0001
1000
,
0002
2003
3200
0320
,
0030
0100
0010
0100
1000
0001
0200
0300
0020
0030
0200
0300
,
0001
0010
0100
1000
0020
0000
1030
0010
0100
0001
2000
0000
,
3001
0010
0100
0010
0001
0010
0100
1000
0100
0010
0100
1000
,
0001
0000
0000
0000
0000
0000
0000
0000
0000
1000
0000
0000
0001
0000
0000
0000
0000
0000
0100
0000
0000
0010
0000
0000
0100
0000
0000
0000
0010
0000
0000
0000
1000
0000
0000
0000
0001
0000
0000
0000
1000
0000
0000
0000
0100
0000
0000
0000
,
0000
0000
0000
0000
0010
0000
0000
0000
0010
0000
0000
0000
0001
0000
0000
0000
0100
0000
0000
0000
1000
0000
0000
0000
0100
0000
0000
0000
0000
0000
0000
0000
0000
0010
0000
0000
0100
0000
0000
0000
0000
0000
0010
0000
0000
0000
0000
0000
,
1000
0000
0011
0000
0000
1010
0000
0000
0001
0000
0100
0010
0000
0000
0000
0000
,
0000
0000
0000
0000
0010
0000
0000
0000
0010
0000
0000
0000
1000
0000
0000
0000
0100
0000
0000
0000
0001
0000
0000
0000
0100
0000
0000
0000
0000
0000
0000
0000
0000
0100
0000
0000
0010
0000
0000
0000
0000
0000
0001
0000
0000
0000
0000
0000
,
0001
0000
0000
0000
0000
0000
0010
0000
0000
0100
0000
0000
0000
0000
0000
0010
0000
0000
0000
0000
0000
1000
0000
0000
0000
0000
0000
0010
0000
0000
0000
0000
0001
0000
0000
0000
0010
0000
0000
0000
0100
0000
0000
0000
1000
0000
0000
0000
,
0000
0000
0000
0000
0100
0000
0000
0000
0100
0000
0000
0000
1000
0000
0000
0000
0010
0000
0000
0000
0001
0000
0000
0000
0010
0000
0000
0000
0000
0000
0000
0000
0000
0010
0000
0000
0100
0000
0000
0000
0000
0000
0001
0000
0000
0000
0000
0000
,
0001
0000
1001
0000
0000
1100
0000
0000
1010
0000
0010
0100
0000
0000
0000
0000
,
0001
0010
0100
1000
0001
0000
1000
0100
0010
0001
1000
0000
0001
0100
0010
1000
0001
0000
1000
0010
0100
0001
1000
0000
,
0002
0000
0000
0000
0203
0000
0000
0000
0320
0000
0000
0000
2030
0000
0000
3000
,
0001
0100
0010
1000
0001
0000
1000
0010
0100
0001
1000
0000
0001
0010
0100
1000
0001
0000
1000
0100
0010
0001
1000
0000
,
1001
0000
0101
0101
0000
0000
0110
0000
1010
1010
0000
0000
1001
0000
0000
0000
,
1000
0010
1000
0100
1000
0000
0001
0010
0001
0100
0001
0000
1000
0100
1000
0010
1000
0000
0001
0100
0001
0010
0001
0000
,
0011
0000
1000
1100
0000
1001
0000
0101
0000
0000
1001
0000
0000
0000
1000
0001
,
0101
0000
0100
0110
0000
1010
0000
1100
0000
0011
0000
0010
0100
0000
1000
0000
,
1001
0000
0000
0000
0000
0000
1001
0000
0000
1001
0000
0000
0000
0000
0000
1001
0000
0000
0000
0000
1001
0000
0000
0000
1001
0000
0000
0000
0000
0000
0000
0000
0000
0000
0000
0000
0000
0000
0000
0000
0000
0000
0000
0000
0000
0000
0000
0000
;
