#TITLE:bit mania;
#SUBTITLE:;
#ARTIST:AKIRA YAMAOKA;
#TITLETRANSLIT:;
#SUBTITLETRANSLIT:;
#ARTISTTRANSLIT:;
#GENRE:;
#CREDIT:;
#MUSIC:bit mania.ogg;
#BANNER:bit mania.png;
#BACKGROUND:bit mania-bg.png;
#CDTITLE:;
#SAMPLESTART:48.649;
#SAMPLELENGTH:13.986;
#SELECTABLE:YES;
#OFFSET:0.000;
#BPMS:0.000=148.000;
#STOPS:;
#BGCHANGES:;
#FGCHANGES:;

//--------------- dance-single - ----------------
#NOTES:
     dance-single:
     :
     Hard:
     11:
     0,0,0,0,0:
0000
0000
0000
0000
,
0000
0000
0000
0000
,
2002
3003
0100
0110
,
0010
0000
0001
0001
0001
0000
1000
1000
,
1000
0010
0100
0110
,
1000
0000
1000
0100
1000
0000
0001
0010
,
0001
0010
0100
1100
,
0001
0000
0001
0100
0001
0000
1000
0010
,
1000
0001
0010
1010
,
1000
0000
1000
0100
1000
0000
0001
0010
,
0001
0010
1000
0110
,
0002
0100
0100
0103
,
0010
0001
0011
1010
,
2200
0000
3300
0100
,
0001
0000
0010
0000
0011
0000
1000
0010
,
2000
0100
0100
3100
,
0010
0001
0010
0001
,
0200
0010
0010
0310
,
1000
0010
0100
0001
,
0001
0000
0100
0000
0001
0010
0100
0000
,
1000
0000
0010
0000
1000
0100
0010
0000
,
0001
0000
0100
0000
1000
0010
1000
0010
,
1000
0001
0011
1100
,
1000
0000
0100
0000
0010
0001
0001
0000
,
0010
0000
0100
0000
1000
0100
0100
0000
,
0010
0000
0010
0000
0001
0100
0001
0100
,
0001
0000
0001
0000
1000
0100
0010
0001
,
0010
0000
0010
0000
0000
0100
0110
0000
,
0001
0000
0001
0000
0000
1000
1100
0000
,
0100
0000
0100
0000
0000
0010
0011
0000
,
0220
0330
0100
0010
,
0001
0010
0100
0010
0100
1000
0100
1000
,
0100
1000
0100
0010
0001
0000
0010
0000
,
0100
0010
0001
0001
0100
0100
0010
0010
,
0001
0010
0100
1000
0010
0000
0100
0000
,
1000
0100
0010
0100
0010
0100
1000
0100
,
0010
0001
0010
0001
0010
0000
0100
0000
,
0010
0100
0010
0100
1000
0100
0010
0001
,
0010
0100
0010
0100
0010
0000
1001
0000
,
1000
0010
1000
0010
1000
0100
0100
0100
,
0001
0100
0001
0100
0001
0000
0010
0000
,
0100
1000
0001
0010
0100
1000
0010
0100
,
0010
0001
1000
0100
0010
0000
1010
0000
,
1000
0100
0010
0000
0001
0010
0100
0000
,
1000
0100
0010
0001
0010
0100
1000
0000
,
1000
1000
0100
0000
0001
0001
0010
0000
,
2000
0000
0000
0100
3001
0000
0010
0000
,
0100
0000
0100
0010
0100
0000
0010
0001
,
0010
0001
1000
0011
,
0001
0000
0010
0100
0010
0000
0100
1000
,
0100
0001
0100
1100
,
0001
0000
0001
0010
0100
0000
0100
0010
,
0001
0001
1000
0110
,
0001
0000
1000
0100
0010
0000
0010
0100
,
1000
1010
0110
0101
,
2002
3003
0000
0000
;
