#VERSION:0.83;
#TITLE:bag;
#SUBTITLE:;
#ARTIST:RevenG;
#TITLETRANSLIT:;
#SUBTITLETRANSLIT:;
#ARTISTTRANSLIT:;
#GENRE:SPIRITUAL;
#CREDIT:;
#MUSIC:bag.ogg;
#BANNER:bag.png;
#BACKGROUND:bag-bg.png;
#CDTITLE:;
#SAMPLESTART:7.745;
#SAMPLELENGTH:15.000;
#SELECTABLE:YES;
#OFFSET:1.473;
#BPMS:0.000=130.001;
#STOPS:;
#TIMESIGNATURES:0.000=4=4;
#BGCHANGES:0.000=../BGAs/27em.mp4=1.000=0=0=0=StretchNoLoop====,
99999.000=-nosongbg-=1.000=0=0=0=StretchNoLoop====
;
#FGCHANGES:;

//--------------- dance-single - forcednature ----------------
#NOTEDATA:;
#STEPSTYPE:dance-single;
#DESCRIPTION:forcednature;
#CREDIT:forcednature;
#DIFFICULTY:Beginner;
#METER:4;
#RADARVALUES:0,0,0,0,0;
#NOTES:
0000
0000
0000
0000
,
0000
0000
0000
0000
,
0000
0000
0000
0000
,
1000
0000
1000
0000
,
0001
0001
0001
0000
,
0010
0000
0000
0000
,
0001
0000
0100
0000
,
0010
0000
0000
0000
,
1000
0000
0001
0000
,
1001
0000
0000
0000
,
0000
1000
0000
0000
0000
0000
0000
0100
0000
0000
0000
0000
,
0000
0010
0000
0000
0000
0000
0000
0001
0000
0000
0000
0000
,
0000
0100
0000
0000
0000
0000
0000
0000
0000
0000
0000
0000
,
1001
0000
0000
0000
,
1000
1000
0001
0001
,
1000
0000
0010
0000
,
0100
0000
0001
1000
,
0001
1000
0001
0001
,
0001
0001
0010
0000
,
1001
0000
0000
0000
,
1000
0000
0010
0000
,
0100
0000
0001
0000
,
0010
0000
0000
0000
,
1001
0000
0000
0000
,
1000
0000
0000
0000
1000
0000
0000
0000
1000
0000
0000
0000
,
1001
0000
0000
0000
,
0001
0000
0000
0000
0001
0000
0000
0000
0001
0000
0000
0000
,
1001
0000
0000
0000
,
0100
0000
0000
0000
0100
0000
0000
0000
0100
0000
0000
0000
,
1001
0000
0010
0000
,
0100
0010
0100
0000
,
2002
0000
0000
0000
,
0000
0000
3003
0000
,
1001
0000
1001
0000
,
1001
0000
0000
0000
0000
0000
0001
0000
0001
0000
0001
0000
,
2000
0000
0000
3000
,
0020
0000
0000
0030
,
0200
0000
0000
0300
,
0002
0000
0000
0003
,
1000
0000
0000
0000
1000
0000
0000
0000
1000
0000
0000
0000
,
1000
0000
0000
0000
1000
0000
0000
0000
0000
0000
0000
0000
,
0001
0000
0000
0000
0000
0001
0000
0000
0000
0001
0000
0000
,
0000
0001
0000
0000
0000
0001
0000
0000
0000
0000
0000
0000
,
1000
1000
0100
1000
,
0001
0001
1000
0000
,
0001
0001
0100
0001
,
1000
0010
0100
0000
,
0001
0010
0100
0000
,
0000
1000
0000
0000
1000
0000
0000
0001
0000
0000
0001
0000
,
0000
1000
0000
0000
0001
0000
0000
0000
0000
2002
0000
0000
,
3003
0000
0000
0000
;

//--------------- dance-single - forcednature ----------------
#NOTEDATA:;
#STEPSTYPE:dance-single;
#DESCRIPTION:forcednature;
#CREDIT:forcednature;
#DIFFICULTY:Easy;
#METER:6;
#RADARVALUES:0,0,0,0,0;
#NOTES:
0000
0000
0000
0000
,
0000
0000
0000
0000
,
0000
0000
0000
0000
,
1001
0000
1001
0000
,
0001
1000
1001
0000
,
0001
0000
0000
0000
0010
0000
0000
0000
0100
0000
0000
0000
,
0010
0000
0000
0000
0001
0000
0000
0000
1000
0000
0000
0000
,
0200
0000
0000
0000
0300
0000
0000
0000
1000
0000
0000
0000
,
0001
0000
0000
0000
0100
0000
0000
0000
0010
0000
0000
0000
,
1001
0000
0000
0000
0000
0001
0000
0001
0000
0000
0000
1000
,
0000
0000
0000
1000
0000
0000
0000
0001
0000
0000
0000
0010
,
0000
0000
0000
0001
0000
0000
0000
0100
0000
0000
0000
0010
,
0000
0000
0000
1000
0000
0000
0000
0001
0000
0000
0000
0000
,
1001
0000
0000
0000
0001
0000
0000
0000
0100
0000
0000
0000
,
0002
0023
0230
2300
,
3010
0000
0000
0000
1000
0000
0000
0000
0001
0000
0000
0000
,
0100
0000
0000
0000
0001
0000
1000
0000
0000
1001
0000
0000
,
1000
1001
0001
0001
,
0001
0000
0000
0001
0000
0000
0001
1000
0001
1000
0000
0000
,
0010
0000
0000
0000
1000
0000
0000
0000
0100
0000
0000
0000
,
1000
0000
0000
0000
0001
0000
0000
0000
0010
0000
0000
0000
,
0200
0000
0000
0000
0300
0000
0000
0000
0010
0000
0000
0000
,
0001
0000
0000
0000
1000
0000
0000
0000
0010
0000
0000
0000
,
1001
1000
0100
1000
,
0010
0000
0100
0000
,
0001
0100
0001
0010
,
0100
0000
1000
0001
,
1000
0010
0001
0010
,
1000
0000
0100
1000
,
0001
0010
1000
0010
,
0001
0000
0000
1000
0000
0000
0001
1000
0001
1000
0000
0000
,
0020
0030
0020
0030
,
0020
0000
0000
0030
0000
0000
0010
0000
0000
0000
0100
0000
,
0001
1000
0001
1000
,
0010
0000
0000
0010
0000
0000
0100
0010
0100
0000
0010
0000
,
2000
3000
0200
0300
,
0020
0030
0001
1000
,
2002
3003
0001
0100
,
0001
0000
0000
1000
0000
0000
0100
0000
1000
0000
1000
0000
,
0020
0000
0000
0000
0100
0000
0000
0000
0100
0000
0000
0000
,
1000
0000
0000
0000
1030
0000
0000
0000
0010
0000
0000
0000
,
0200
0000
0000
0000
0000
0001
0000
0000
0000
0001
0000
0000
,
0000
0010
0000
0000
0000
0310
0000
0000
0000
0000
0000
0000
,
1001
1000
0100
1000
,
0001
0100
0001
1000
,
1001
0001
0010
0001
,
1000
0010
0100
1001
,
0001
0010
0100
1001
,
0000
0110
0000
0000
1001
0000
0000
0110
0000
0000
1001
0000
,
0000
0110
0000
0000
1000
0000
0001
0000
0000
2002
0000
0000
,
3003
0000
0000
0000
;

//--------------- dance-single - forcednature ----------------
#NOTEDATA:;
#STEPSTYPE:dance-single;
#DESCRIPTION:forcednature;
#CREDIT:forcednature;
#DIFFICULTY:Medium;
#METER:10;
#RADARVALUES:0,0,0,0,0;
#NOTES:
0000
0000
0000
0000
,
0000
0000
0000
0000
,
0000
0000
0000
0000
,
1001
0000
1001
0000
,
1001
1001
2002
3003
,
1000
0100
1000
0000
0001
0000
0010
0000
0100
0000
1000
0000
,
0001
0000
0100
0000
0001
1000
0001
0000
0010
0000
0100
0000
,
2000
0000
0000
0000
3001
0000
0100
0000
0001
0000
1000
0000
,
0001
0010
0001
0000
0100
0000
0010
0000
1000
0100
0000
0000
,
1000
0001
1000
0000
0000
0010
0000
0110
0000
0000
0000
0100
,
0000
0001
0000
1000
0100
1000
0000
0001
0000
0010
0100
0010
,
0100
0000
1000
0100
0000
1000
0000
0001
0000
0100
0001
0100
,
0000
0010
0000
1000
0000
0001
1000
0001
0000
1001
0000
0000
,
1000
0100
1000
0000
0001
0000
0100
0000
0010
0000
1000
0000
,
0001
0000
0000
1000
0000
0000
0001
0000
0000
1000
0000
0000
0001
0000
0000
0000
0000
0000
0000
0000
0010
0000
0000
0000
0001
0000
0000
0000
0000
0000
0000
0000
1000
0000
0000
0000
0010
0000
0000
0000
0000
0000
0000
0000
0000
0000
0000
0000
,
1000
0001
1000
0000
0001
0000
0010
0000
0100
0010
0100
0000
,
1000
0000
0001
0000
0100
0000
0010
1000
0001
0100
0000
0000
,
0010
1000
0001
0100
0000
0000
0010
1000
0000
0001
0100
0000
,
0010
1000
0000
0001
0100
0000
0001
1000
0001
1000
0000
0000
,
0001
0010
0001
0000
0010
0000
0100
0000
1000
0000
0001
0000
,
0100
0001
0100
0000
0010
0000
1000
0000
0100
0000
0001
0000
,
0200
0000
0000
0000
1300
0000
0001
1000
0001
0000
0010
0000
,
0100
0010
0100
0000
1000
0000
0001
0000
0100
0010
0000
0000
,
1000
0001
0100
0001
0000
1000
0010
0000
1000
0001
0000
0000
,
1000
0000
0100
0010
0000
0000
0001
0000
0010
0100
0000
0000
,
1000
0001
1000
0100
0000
0010
0001
0000
1000
0010
0000
0000
,
0100
0000
0010
0100
0000
0000
0001
1000
0001
1000
0000
0000
,
0001
0010
0100
0010
0000
0001
1000
0000
0100
1000
0000
0000
,
0010
0000
0100
0001
0000
1000
0010
0000
1000
0001
0000
0000
,
0010
0100
1000
0100
0000
0010
0001
0000
1000
0010
0000
0000
,
1001
0000
0000
0110
0000
0000
0001
1000
0001
1000
0000
0000
,
0100
1000
0000
1000
0000
0000
0010
1000
0000
1000
0000
0000
,
0100
1000
0000
1000
0000
0010
0100
0000
0001
0000
0010
0000
,
0110
1000
0110
0001
,
1001
0000
0000
0100
0000
0000
0001
1000
0001
0000
1001
0000
,
0120
0030
2000
0000
,
3200
0000
0000
0000
0000
0000
0320
0000
0000
0031
0100
0001
,
1000
0000
0000
1000
0100
1000
0001
0000
0000
0010
0000
0010
,
0001
0000
0000
0100
0000
0100
0010
0000
1000
0001
1000
0001
,
0000
2000
0000
0100
0000
0100
0000
0001
0000
0001
0000
0100
,
0000
0100
0000
0001
0000
0001
0000
3100
0000
1000
0002
0000
,
0000
0100
0000
0100
0000
1000
0000
1000
0000
0100
0000
0100
,
0000
1000
0000
1000
0000
0100
0000
1003
0000
1001
0000
0000
,
0001
0010
0100
0010
0000
0001
0010
0000
0100
1000
0000
0000
,
0001
1000
0001
0100
0000
0010
0100
0000
0010
1000
0000
0000
,
1000
0100
0010
0100
0000
1000
0001
0000
0010
0001
0000
0000
,
1001
0000
0000
0110
0000
0000
0001
0010
0100
1000
0000
0000
,
1001
0000
0000
0110
0000
0000
0001
0010
0100
1000
0000
0000
,
0000
0001
0100
0000
0010
1000
0000
0001
0010
0000
0100
1000
,
0000
0001
0100
0000
0001
1000
0001
1000
0000
2002
0000
0000
,
3003
0000
0000
0000
;

//--------------- dance-single - forcednature ----------------
#NOTEDATA:;
#STEPSTYPE:dance-single;
#DESCRIPTION:forcednature;
#CREDIT:forcednature;
#DIFFICULTY:Hard;
#METER:15;
#RADARVALUES:0,0,0,0,0;
#NOTES:
0000
0000
0000
0000
,
0000
0000
0000
0000
,
0000
0000
0000
0000
,
1001
0000
1001
0000
,
1001
1001
2002
3003
,
0001
0000
0001
0000
1000
0001
0100
0000
0010
0000
1000
0000
0010
0000
0100
0000
0001
0000
1000
0000
0001
0000
0010
0000
,
0010
0001
0010
0100
1000
0100
0010
0001
1000
0010
1000
0100
,
0002
0000
0000
0000
0103
0010
0100
1000
0001
0100
0001
1000
,
1000
0010
1000
0001
0010
0100
1000
0001
1000
1001
0000
0000
,
1010
0010
0100
0001
1000
0010
1000
0010
0001
0010
1000
0001
,
0100
0010
1000
0001
0010
0100
1000
0001
0010
1000
0010
0010
,
0010
0001
1000
0100
1000
0001
0100
0010
0100
1000
0100
0001
,
1000
0010
1000
0001
0010
0100
1000
0001
0100
0110
0000
0000
,
1000
1000
1000
0100
1000
0001
0010
0100
0010
0001
1000
0010
,
0100
0000
0000
0001
0000
0000
0100
0000
0000
1000
0000
0000
0100
0000
0000
0000
0000
0000
0000
0000
0001
0000
0000
0000
0101
0000
0000
0000
0000
0000
0000
0000
1000
0000
0000
0000
1010
0000
0000
0000
0000
0000
0000
0000
0001
0000
0000
0000
,
0010
0010
0010
0001
1000
0100
0001
0100
1000
0001
0010
0100
,
1000
0010
0100
0001
0100
1000
0100
0001
0010
2001
0000
3000
,
0100
1000
0010
1002
0000
0003
0100
0001
0010
0100
1000
0010
,
0100
0001
0010
0100
1000
0010
1001
1100
1001
0101
0000
0000
,
0001
0000
0001
0000
1000
0001
0100
0000
0010
0000
1000
0000
0100
0000
0010
0000
0001
0000
1000
0000
0001
0000
0100
0000
,
0100
0001
0100
0010
1000
0010
0100
0001
1000
0100
1000
0010
,
0002
0000
0000
0000
0013
0100
0010
1000
0001
0010
0001
1000
,
1000
0100
1000
0001
0100
0010
1000
0001
1000
1001
0000
0000
,
0101
0001
1000
0200
0000
0310
0002
0000
0103
0020
0000
1030
,
0100
0100
1000
0001
0100
0010
0001
0010
1000
0010
0010
0000
,
1001
1000
0001
0020
0000
0130
2000
0000
3010
0200
0000
0301
,
0010
0010
0001
0100
0010
1000
0100
0010
0110
1001
0000
0000
,
1010
0010
0100
0002
0000
1003
0020
0000
0130
2000
0000
3100
,
0001
0001
0100
0010
1000
0001
0010
0100
0010
1001
0000
0000
,
0011
0010
0100
2000
0000
3001
0020
0000
0130
0002
0000
0103
,
1000
0001
0100
0001
1000
0100
1100
1001
0101
1001
0000
0000
,
0001
0010
0010
0001
1000
0001
1000
0010
0010
1000
0001
1000
,
0001
0010
0010
0001
1000
0001
0100
0010
1000
0001
0100
0010
,
1001
0000
1000
0100
0010
0001
1001
0000
0001
0100
0010
1000
,
1001
0000
1000
0001
0100
0001
1000
0010
1010
0000
0110
0000
,
2001
0000
0000
3100
1000
0100
0020
0000
0000
0031
1000
0001
,
0100
0000
0010
0000
1000
0000
0010
0000
0100
0000
0001
0000
0010
0000
0100
0000
0010
0000
0001
1000
0001
0000
1000
0000
,
1001
0000
0000
0000
0000
0000
0001
0100
0001
0000
0100
0000
0020
0000
0000
0000
0000
0000
1030
0001
1000
0000
0001
0000
,
0010
0000
0100
0000
1000
0000
0100
0000
0010
0000
0001
0000
1000
0001
1000
0000
0010
0000
0100
0000
0100
0000
0010
0000
,
0200
0001
0000
0001
0000
0010
0000
1000
0000
0010
0000
0301
,
0100
0010
0100
0010
1000
0001
0100
0010
0000
0010
1001
1000
,
0200
1000
0000
0010
0000
0001
0001
0001
0000
0010
0000
1300
,
0000
0100
0010
0011
0000
0011
0000
0001
1000
1001
0000
0000
,
1000
0000
0100
1000
0001
0000
1000
0000
0100
1000
0001
0000
0020
0000
0230
0000
2300
0000
3200
0000
0320
0000
0032
0000
,
1003
0000
0010
1000
0001
0000
1000
0000
0010
1000
0001
0000
0010
0000
0100
0000
1000
0000
0001
0000
1001
0000
0000
0000
,
0001
0000
0100
0001
1000
0000
0001
0000
0100
0001
1000
0000
0002
0000
0023
0000
0230
0000
2300
0000
3200
0000
0320
0000
,
0031
0000
1000
0000
0100
1000
0001
0000
0100
0001
1000
0000
0010
0000
0100
0000
0110
0000
1001
0000
0000
0000
0000
0000
,
0110
0000
0001
0000
0100
0001
1000
0000
0100
1000
0001
0000
0010
0000
0100
0000
0110
0000
1001
0000
0000
0000
0000
0000
,
1001
0000
1000
0100
0010
0000
0001
0000
1000
0100
0010
0000
1001
0000
0001
0100
0010
0000
1000
0000
0001
0100
0010
0000
,
1001
0000
1000
0010
0100
0000
1001
0000
0001
0000
0010
0000
0110
0000
1000
0000
0001
0000
2002
0000
0000
0000
0000
0000
,
3003
0000
0000
0000
;

//--------------- dance-double - forcednature ----------------
#NOTEDATA:;
#STEPSTYPE:dance-double;
#DESCRIPTION:forcednature;
#CREDIT:forcednature;
#DIFFICULTY:Easy;
#METER:6;
#RADARVALUES:0,0,0,0,0;
#NOTES:
00000000
00000000
00000000
00000000
,
00000000
00000000
00000000
00000000
,
00000000
00000000
00000000
00000000
,
00011000
00000000
00011000
00000000
,
00010000
00001000
00011000
00000000
,
00100000
00000000
00000000
00000000
00010000
00000000
00000000
00000000
00100000
00000000
00000000
00000000
,
01000000
00000000
00000000
00000000
10000000
00000000
00000000
00000000
00010000
00000000
00000000
00000000
,
02000000
00000000
00000000
00000000
03000000
00000000
00000000
00000000
00001000
00000000
00000000
00000000
,
00010000
00000000
00000000
00000000
00010000
00000000
00000000
00000000
00001000
00000000
00000000
00000000
,
00011000
00000000
00000000
00000000
00000000
00000000
00000000
00000100
00000000
00000000
00000000
00001000
,
00000000
00000000
00000000
00000010
00000000
00000000
00000000
00001000
00000000
00000000
00000000
00000001
,
00000000
00000000
00000000
00000010
00000000
00000000
00000000
00000100
00000000
00000000
00000000
00000010
,
00000000
00000000
00000000
00000100
00000000
00000000
00000000
00010000
00000000
00000000
00000000
00000000
,
00011000
00000000
00000000
00000000
00000000
00000000
00000000
00000000
00001000
00000000
00000000
00000000
,
02000000
03020000
20030000
30200000
,
01300000
00000000
00000000
00000000
00010000
00000000
00000000
00000000
00100000
00000000
00000000
00000000
,
00001000
00000000
00010000
00011000
,
00010000
00011000
00001000
00001000
,
00001000
00000000
00000000
00001000
00000000
00000000
00001000
00010000
00001000
00010000
00000000
00000000
,
00000100
00000000
00000000
00000000
00001000
00000000
00000000
00000000
00000010
00000000
00000000
00000000
,
00001000
00000000
00000000
00000000
00000001
00000000
00000000
00000000
00000010
00000000
00000000
00000000
,
00000200
00000000
00000000
00000000
00000300
00000000
00000000
00000000
00010000
00000000
00000000
00000000
,
00001000
00000000
00000000
00000000
01000000
00000000
00000000
00000000
00010000
00000000
00000000
00000000
,
10010000
10000000
00010000
10000000
,
01000000
00000000
00100000
00000000
,
00001000
00010000
00000100
00010000
,
00001000
00000000
00000010
00000100
,
00000010
00000001
00001000
00000001
,
00000100
00000000
01101000
00000000
,
00010000
00001000
00100000
00001000
,
00010000
00001000
00022000
00033000
,
00200000
00300000
00020000
00030000
,
00200000
00300000
00010000
00000000
,
01000000
00100000
01000000
00100000
,
01000000
00000000
00000000
01000000
00000000
00000000
00100000
00000000
00100000
00000000
00100000
00000000
,
20000000
30000000
02000000
03000000
,
00200000
00300000
00001000
00010000
,
00022000
00033000
00000100
00001000
,
00000010
00001000
00000001
00000000
,
00000020
00000000
00000100
00000000
,
00000100
00000000
00000130
00000000
,
00020000
00000000
00001000
00000000
,
00001000
00000000
00031000
00000000
,
00011000
00010000
00001000
00010000
,
00000100
00001000
00000100
00000010
,
00001001
00000001
00000100
00000001
,
00001000
00000100
00010000
00011000
,
00000000
01000000
00001000
00011000
,
00000000
00100000
00000000
00000000
00001000
00000000
00000000
00100000
00000000
00000000
00001000
00000000
,
00000000
00100000
00000000
00000000
00000000
00000000
00010000
00000000
00000000
20020000
00000000
00000000
,
30030000
00000000
00000000
00000000
;

//--------------- dance-double - forcednature ----------------
#NOTEDATA:;
#STEPSTYPE:dance-double;
#DESCRIPTION:forcednature;
#CREDIT:forcednature;
#DIFFICULTY:Medium;
#METER:10;
#RADARVALUES:0,0,0,0,0;
#NOTES:
00000000
00000000
00000000
00000000
,
00000000
00000000
00000000
00000000
,
00000000
00000000
00000000
00000000
,
00011000
00000000
00011000
00000000
,
00011000
00011000
00022000
00033000
,
00000100
00001000
00000100
00000000
00000010
00000000
00000001
00000000
00000100
00000000
00000010
00000000
,
00001000
00000000
00000100
00000000
00010000
00001000
00010000
00000000
00001000
00000000
00100000
00000000
,
00020000
00000000
00000000
00000000
01030000
00000000
00100000
00000000
01000000
00000000
00010000
00000000
,
10000000
00100000
10000000
00000000
01000000
00000000
00010000
00000000
00001000
00010000
00000000
00000000
,
00001000
00010000
00001000
00000000
00000000
00000100
00000000
00000110
00000000
00000000
00000000
00000010
,
00000000
00001000
00000000
00000001
00001000
00000001
00000000
00000010
00000000
00000100
00001000
00000100
,
00001000
00000000
00000000
00000100
00000000
00010000
00000000
00001000
00000000
00010000
00001000
00010000
,
00000000
00001000
00000000
00100000
00000000
00010000
10000000
00010000
00000000
10010000
00000000
00000000
,
10000000
01000000
10000000
00000000
00010000
00000000
01000000
00000000
00010000
00000000
00100000
00000000
,
00001000
00000000
00000000
00010000
00000000
00000000
00001000
00000000
00000000
00010000
00000000
00000000
00001000
00000000
00000000
00000000
00000000
00000000
00000000
00000000
00010000
00000000
00000000
00000000
00000100
00000000
00000000
00000000
00000000
00000000
00000000
00000000
00001000
00000000
00000000
00000000
00000100
00000000
00000000
00000000
00000000
00000000
00000000
00000000
00000000
00000000
00000000
00000000
,
00001000
00000001
00001000
00000000
00000001
00000000
00000010
00000000
00000100
00000010
00000100
00000000
,
00010000
00000000
00001000
00000000
01000000
00000000
00010000
00100000
00001000
00100000
00000000
00000000
,
00010000
00100000
00001000
00100000
00000000
00000000
00010000
00100000
00000000
00001000
00100000
00000000
,
00010000
00100000
00000000
00001000
00100000
00000000
00001000
00010000
00001000
00010000
00000000
00000000
,
00000100
00001000
00000100
00000000
00001000
00000000
00000010
00000000
00000100
00000000
00000001
00000000
,
00000010
00000100
00000010
00000000
00000100
00000000
00010000
00000000
00001000
00000000
00100000
00000000
,
02000000
00000000
00000000
00000000
13000000
00000000
00010000
10000000
00010000
00000000
00100000
00000000
,
01000000
00100000
01000000
00000000
10000000
00000000
01000000
00000000
00010000
00001000
00000000
00000000
,
00010000
00000100
00001000
00000100
00000000
00001000
00000010
00000000
00000100
00000010
00000000
00000000
,
00000100
00000000
00000001
00000010
00000000
00000000
00000100
00000000
00001000
00000010
00000000
00000000
,
00010000
00001000
01000000
00010000
00000000
01000000
00100000
00000000
10000000
01000000
00000000
00000000
,
00100000
00000000
01000000
00100000
00000000
00000000
00001000
00010000
00001000
00010000
00000000
00000000
,
00000100
00001000
00000100
00010000
00000000
00001000
00010000
00000000
00001000
00100000
00000000
00000000
,
00010000
00000000
01000000
00100000
00000000
10000000
01000000
00000000
10000000
00010000
00000000
00000000
,
00100000
00001000
00010000
00001000
00000000
00010000
00000100
00000000
00001000
00000100
00000000
00000000
,
00011000
00000000
00000000
00011000
00000000
00000000
00001000
00010000
00001000
00010000
00000000
00000000
,
00000100
00010000
00000000
00010000
00000000
00000000
00001000
00010000
00000000
00010000
00000000
00000000
,
00000100
00010000
00000000
00010000
00000000
00001000
00010000
00000000
00001000
00000000
00100000
00000000
,
00110000
00001000
00011000
00000010
,
00001010
00000000
00000000
00010000
00000000
00000000
00001000
00010000
00001000
00000000
00011000
00000000
,
00200000
00000000
00320000
00000000
,
02030000
00000000
00000000
00000000
00000000
00000000
03200000
00000000
00000000
10300000
01000000
10000000
,
00010000
00000000
00000000
00010000
00100000
00010000
00100000
00000000
00000000
00001000
00000000
00001000
,
00010000
00000000
00000000
00000100
00000000
00000100
00001000
00000000
00000001
00001000
00000001
00001000
,
00000000
00000010
00000000
00000010
00000000
00000100
00000000
00000100
00000000
00001000
00000000
00001000
,
00000000
00010000
00000000
00010000
00000000
00100000
00000000
10000000
00000000
01000000
00100000
00000000
,
00000000
01000000
00000000
01000000
00000000
00010000
00000000
00010000
00000000
00001000
00000000
00001000
,
00000000
00000010
00000000
00000010
00000000
00000001
00000000
00000010
00000000
00000110
00000000
00000000
,
00000100
00010000
00001000
00010000
00000000
00001000
00100000
00000000
00010000
00100000
00000000
00000000
,
00010000
10000000
00010000
01000000
00000000
00100000
01000000
00000000
00100000
10000000
00000000
00000000
,
01000000
10000000
01000000
00100000
00000000
00010000
00100000
00000000
00001000
00010000
00000000
00000000
,
00011000
00000000
00000000
00000100
00000000
00000000
00001000
00000001
00000100
00000010
00000000
00000000
,
00011000
00000000
00000000
01000000
00000000
00000000
00010000
10000000
01000000
00100000
00000000
00000000
,
00000000
00001000
00010000
00000000
00001000
00010000
00000000
00001000
00010000
00000000
00001000
00010000
,
00000000
00001000
00010000
00000000
00000100
00001000
00000100
00000010
00000000
00002002
00000000
00000000
,
00003003
00000000
00000000
00000000
;

//--------------- dance-double - forcednature ----------------
#NOTEDATA:;
#STEPSTYPE:dance-double;
#DESCRIPTION:forcednature;
#CREDIT:forcednature;
#DIFFICULTY:Hard;
#METER:15;
#RADARVALUES:0,0,0,0,0;
#NOTES:
00000000
00000000
00000000
00000000
,
00000000
00000000
00000000
00000000
,
00000000
00000000
00000000
00000000
,
00011000
00000000
00011000
00000000
,
00011000
00000000
00000000
00011000
00000000
00000000
00011000
00000000
00000000
00010000
00001000
00010000
,
00100000
00000000
00100000
00000000
01000000
00100000
01000000
00000000
00100000
00000000
10000000
00000000
00010000
00000000
10000000
00000000
01000000
00000000
00100000
00000000
01000000
00000000
00010000
00000000
,
00010000
00001000
00010000
00001000
00000010
00000100
00000010
00000001
00001000
00000001
00000100
00001000
,
00020000
00000000
00000000
00000000
00031000
00010000
00001000
01000000
00010000
01000000
00001000
00010000
,
00010000
00000100
00010000
00001000
00000010
00000100
00000010
00000001
00001000
00001001
00000000
00000000
,
00001100
00000100
00010000
00001000
00100000
00010000
01000000
00100000
01000000
00010000
10000000
00010000
,
00100000
01000000
00010000
01000000
00100000
00001000
00010000
00000100
00001000
00000001
00000010
00000010
,
00000010
00000001
00000100
00000001
00001000
00000100
00000010
00001000
00000010
00000100
00010000
00001000
,
00100000
00010000
10000000
00100000
00010000
00100000
10000000
00010000
01000000
10010000
00000000
00000000
,
00010000
00010000
00010000
00100000
01000000
00100000
00001000
00010000
00000100
00000010
00000001
00001000
,
00000010
00000000
00000000
00000100
00000000
00000000
00001000
00000000
00000000
00010000
00000000
00000000
00200000
00000000
00000000
00000000
00000000
00000000
00000000
00000000
10000000
00000000
00000000
00000000
20300000
00000000
00000000
00000000
00000000
00000000
00000000
00000000
31000000
00000000
00000000
00000000
20000000
00000000
00000000
00000000
00000000
00000000
00000000
00000000
30010000
00000000
00000000
00000000
,
00100000
00100000
00100000
01000000
10000000
01000000
00100000
01000000
00010000
00001000
00000010
00000100
,
00000010
00000001
00001000
00000010
00001000
00000001
00000100
00001000
00010000
00002000
00000000
00000000
,
00003100
00001000
00010000
00002000
00000000
00000000
00003100
00001000
00010000
01000000
00010000
00001000
,
00000100
00001000
00010000
01000000
00010000
00001000
00100000
00000010
00100000
00000010
00000000
00000000
,
00001000
00000000
00001000
00000000
00000010
00001000
00000010
00000000
00001000
00000000
00000001
00000000
00000100
00000000
00000001
00000000
00000010
00000000
00000100
00000000
00000010
00000000
00001000
00000000
,
00001000
00010000
00001000
00010000
01000000
00100000
01000000
10000000
00010000
10000000
00100000
00010000
,
00002000
00000000
00000000
00000000
00013000
00001000
00010000
00000010
00001000
00000010
00010000
00001000
,
00001000
01000000
00001000
00010000
00100000
01000000
00100000
10000000
00010000
10010000
00000000
00000000
,
00010000
01000000
00100000
02000000
00000000
03100000
00020000
00000000
00031000
00000200
00000000
00000301
,
00000100
00000100
00000010
00001000
00000100
00010000
00001000
00000010
00000100
00000010
00000001
00000000
,
00001000
00000100
00000010
00002000
00000000
00013000
02000000
00000000
03100000
00002000
00000000
00013000
,
00100000
00100000
10000000
00010000
01000000
00100000
00010000
00001000
00010000
00011000
00000000
00000000
,
00010000
00000010
00001000
00000200
00000000
00010300
00002000
00000000
00103000
00020000
00000000
01030000
,
00100000
10000000
01000000
00010000
01000000
00100000
00001000
00000000
00010000
00011000
00000000
00000000
,
00001000
00000010
00000100
00000002
00000000
00000103
00020000
00000000
00031000
00200000
00000000
00310000
,
01000000
00100000
01000000
00001000
00010000
00001000
00100000
00000010
00100000
00000010
00000000
00000000
,
00010000
00001000
00000100
00000010
00000000
00000010
00010000
00001000
00000100
00000010
00000000
00000010
,
00010000
00001000
00000100
00000010
00000000
00000010
00010000
00000000
00001000
00000000
01000000
00010000
,
00110000
00000000
00001000
00010000
00000000
00000010
00001010
00000000
00010000
00001000
00000000
00100000
,
00110000
00000000
00001000
00010000
00000100
00001000
00000001
00000100
00000101
00000000
00001001
00000000
,
00020100
00000000
00000000
00000000
00000000
00130000
20000000
00000000
00000000
00000000
31000000
00100000
,
01000000
00010000
00001000
00000010
00000100
00000010
00001000
00010000
00001000
01000000
00100000
00010000
,
00011000
00000000
00000000
00000100
00000010
00001000
00011000
00000000
00000000
00100000
01000000
00010000
,
00001000
00010000
00000100
00001000
00000001
00000010
00000001
00000100
00001000
00010000
00100000
10000000
,
00200000
00010000
00000000
00010000
00000000
01000000
00000000
10000000
00000000
01000000
00000000
00310000
,
00100000
01000000
00100000
01000000
00000000
00100000
00010000
00001000
00000000
00001000
00011000
00010000
,
00000200
00001000
00000000
00000010
00000000
00000001
00000001
00000001
00000000
00000010
00000000
00001000
,
00000000
00010300
00001000
00011000
00000000
00011000
00000000
00100000
00010000
10010000
00000000
00000000
,
10000000
00100000
00010000
00001000
00000010
00000001
00000200
00000320
00020030
00032000
00003020
00000230
,
00001300
00000001
00000100
00001000
00010000
01000000
10000000
00100000
00010000
00001000
00011000
00000000
,
00000001
00000010
00001000
00010000
00100000
10000000
02000000
03200000
00302000
00023000
00230000
02300000
,
03010000
10000000
01000000
00010000
00001000
00000100
00000001
00000010
00001000
00011000
00000000
00000000
,
00010000
01000000
10000000
00100000
01000000
10000000
01000000
00001000
00010000
00011000
00000000
00000000
,
00001000
00000010
00001000
00010000
00100000
00010000
00001000
00000010
00001000
00010000
00100000
00010000
,
00001000
00000010
00000001
00000100
00000010
00000100
00001000
00010000
00001000
00022000
00000000
00000000
,
00033000
00000000
00000000
00000000
;
