#VERSION:0.83;
#TITLE:bad idea right?;
#SUBTITLE:;
#ARTIST:Olivia Rodrigo;
#TITLETRANSLIT:;
#SUBTITLETRANSLIT:;
#ARTISTTRANSLIT:;
#GENRE:;
#ORIGIN:;
#CREDIT:;
#BANNER:banner.png;
#BACKGROUND:bad idea right-bg.png;
#PREVIEWVID:;
#JACKET:jacket.png;
#CDIMAGE:;
#DISCIMAGE:;
#LYRICSPATH:;
#CDTITLE:;
#MUSIC:bad idea right.ogg;
#OFFSET:-0.340000;
#SAMPLESTART:53.817997;
#SAMPLELENGTH:14.769000;
#SELECTABLE:YES;
#BPMS:0.000=130.000;
#STOPS:112.500=1.385,
148.000=2.077,
151.500=1.615;
#DELAYS:;
#WARPS:;
#TIMESIGNATURES:0.000=4=4;
#TICKCOUNTS:0.000=4;
#COMBOS:0.000=1;
#SPEEDS:0.000=1.000=0.000=0;
#SCROLLS:0.000=1.000;
#FAKES:;
#LABELS:0.000=Song Start;
#BGCHANGES:-2.000=bad idea right.avi=1.000=0=0=0=StretchNoLoop====,
99999=-nosongbg-=1.000=0=0=0 // don't automatically add -songbackground-
;
#KEYSOUNDS:;
#ATTACKS:
;

//---------------dance-single - ----------------
#NOTEDATA:;
#CHARTNAME:;
#STEPSTYPE:dance-single;
#DESCRIPTION:;
#CHARTSTYLE:;
#DIFFICULTY:Beginner;
#METER:3;
#RADARVALUES:0.114117,0.167896,0.049412,0.024706,0.000000,97.000000,91.000000,6.000000,3.000000,0.000000,0.000000,0.000000,0.000000,0.000000,0.114117,0.167896,0.049412,0.024706,0.000000,97.000000,91.000000,6.000000,3.000000,0.000000,0.000000,0.000000,0.000000,0.000000;
#CREDIT:Venomothim;
#NOTES:
// measure 0
0000
0000
0000
0000
,  // measure 1
0000
0000
0000
0000
,  // measure 2
0000
0000
0000
0000
,  // measure 3
0000
0000
0000
0000
,  // measure 4
0000
0000
0000
0000
,  // measure 5
1000
0000
1000
0000
,  // measure 6
0001
0000
0001
0000
,  // measure 7
0100
0000
0100
0000
,  // measure 8
0010
0000
0010
0000
,  // measure 9
0100
0000
0100
0000
,  // measure 10
0001
0000
0001
0000
,  // measure 11
1000
0000
1000
0000
,  // measure 12
0100
0000
0100
0000
,  // measure 13
0020
0000
0000
0000
,  // measure 14
0000
0030
0000
0100
,  // measure 15
0200
0000
0000
0000
,  // measure 16
0000
0300
0000
1000
,  // measure 17
2000
0000
0000
0000
,  // measure 18
0000
3000
0000
0001
,  // measure 19
0001
0000
1000
0000
,  // measure 20
0010
0000
0100
0000
,  // measure 21
0001
0000
0000
0000
,  // measure 22
0010
0000
0000
0000
,  // measure 23
0100
0000
0000
0000
,  // measure 24
1000
0000
0000
0000
,  // measure 25
0010
0000
0000
0000
,  // measure 26
0100
0000
0000
0000
,  // measure 27
0001
0000
0000
0000
,  // measure 28
1000
1000
0000
1000
,  // measure 29
0000
0001
0000
0001
,  // measure 30
0000
0100
0000
0100
,  // measure 31
0000
0010
0000
1001
,  // measure 32
0000
0001
0000
0001
,  // measure 33
0000
0010
0000
0010
,  // measure 34
0000
0100
0000
0100
,  // measure 35
0000
0010
0000
1001
,  // measure 36
0000
1000
0000
0000
,  // measure 37
0000
0000
0000
0000
,  // measure 38
0000
1000
0000
1000
,  // measure 39
0000
0001
0000
0001
,  // measure 40
0000
0100
0000
0100
,  // measure 41
0000
0010
0000
1001
,  // measure 42
0000
0001
0000
0001
,  // measure 43
0000
1000
0000
1000
,  // measure 44
0000
0010
0000
0100
,  // measure 45
0000
0010
0000
1001
,  // measure 46
0000
0001
0001
0001
,  // measure 47
0000
1000
0000
1000
,  // measure 48
0000
0010
0010
0010
,  // measure 49
0000
0100
0000
1001
,  // measure 50
0000
1000
1000
1000
,  // measure 51
0000
0100
0000
0100
,  // measure 52
0000
0010
0010
0010
,  // measure 53
0000
1001
0000
0000
,  // measure 54
0000
1000
0000
0000
,  // measure 55
0000
0001
0000
0000
,  // measure 56
0000
0100
0000
0000
,  // measure 57
0000
0010
0000
0000
,  // measure 58
0000
1000
0000
0000
;

//---------------dance-single - ----------------
#NOTEDATA:;
#CHARTNAME:;
#STEPSTYPE:dance-single;
#DESCRIPTION:;
#CHARTSTYLE:;
#DIFFICULTY:Easy;
#METER:7;
#RADARVALUES:0.248234,0.272896,0.098823,0.041176,0.000000,211.000000,199.000000,12.000000,5.000000,0.000000,0.000000,0.000000,0.000000,0.000000,0.248234,0.272896,0.098823,0.041176,0.000000,211.000000,199.000000,12.000000,5.000000,0.000000,0.000000,0.000000,0.000000,0.000000;
#CREDIT:Venomothim;
#NOTES:
0000
0000
0000
0000
,
0000
0000
0000
0000
,
0000
0000
0000
0000
,
0000
0000
0000
0000
,
0000
0000
0000
0000
,
1000
0100
0010
0000
,
0001
0100
0010
0000
,
1000
0001
0100
0000
,
0010
0010
0100
1001
,
0001
0100
0010
0000
,
1000
0100
1000
0000
,
0001
0010
0001
0000
,
0100
0100
0010
0010
,
2000
0000
0100
0000
,
0010
0000
0001
0100
,
3002
0010
0010
0100
,
0100
0010
0100
0010
,
2003
0100
0001
0100
,
0001
0010
0001
0010
,
3001
0100
0010
0110
,
0010
1000
0100
0110
,
1000
1000
1000
0000
,
0001
0001
0001
0000
,
0100
0100
0100
0000
,
0010
0010
0010
0000
,
1000
0100
0010
0000
,
0001
0100
0010
0000
,
1000
0100
0010
0001
,
1000
1000
0001
0000
0100
0000
0010
0000
,
0010
1000
0100
0010
,
0010
0001
1000
0100
,
0100
0010
0100
0110
,
1001
1000
0010
0100
,
0100
0001
0010
0100
,
0100
1000
0001
0100
,
0100
0000
0010
0010
0010
0000
0100
0000
,
1001
0001
0001
0001
,
0001
1000
0000
1000
0000
1000
0000
1000
,
0000
0001
0100
0010
,
1000
0001
0100
0010
,
1000
0001
0100
0010
,
1000
0100
0100
0010
,
1001
1000
0100
0010
,
0001
1000
0100
0010
,
0001
1000
0100
0010
,
0001
0000
0100
0100
0100
0000
0010
0000
,
1001
0001
1000
0001
,
1000
0010
0100
0010
,
0100
0001
0010
0001
,
0010
0100
1000
0011
,
1100
1000
0010
1000
,
0010
0100
0001
0100
,
0001
0010
0001
0010
,
0100
0000
1000
1000
0000
0000
0110
0000
,
0000
0001
1000
0001
,
1000
0100
0100
0100
,
0000
1000
0001
1000
,
0001
0100
0100
0100
,
0000
2002
0000
0000
,
0000
0000
0000
0000
,
0000
3003
0000
0000
;

//---------------dance-single - ----------------
#NOTEDATA:;
#CHARTNAME:;
#STEPSTYPE:dance-single;
#DESCRIPTION:;
#CHARTSTYLE:;
#DIFFICULTY:Medium;
#METER:10;
#RADARVALUES:0.358822,0.396940,0.140000,0.041176,0.000000,305.000000,288.000000,17.000000,5.000000,0.000000,0.000000,0.000000,0.000000,0.000000,0.358822,0.396940,0.140000,0.041176,0.000000,305.000000,288.000000,17.000000,5.000000,0.000000,0.000000,0.000000,0.000000,0.000000;
#CREDIT:Venomothim;
#NOTES:
0000
0000
0000
0000
,
0000
0000
0000
0000
,
0000
0000
0000
0000
,
0000
0000
0000
0000
,
0000
0000
0000
0000
,
1000
0100
0010
0000
0001
0000
0001
0000
,
1000
0010
1000
0000
0001
0100
0001
0000
,
0010
0010
0010
0000
0100
0100
0100
0000
,
0010
0001
0011
1100
,
0001
0000
1000
0000
0010
0100
0010
0000
,
1000
0000
0001
0000
0010
0100
0010
0000
,
0001
1000
0100
0000
1000
0001
0100
0000
,
0010
1000
0100
1000
0010
0000
0100
0000
,
0002
0010
1000
0100
,
1000
0000
0010
0000
1003
0100
0010
0100
,
2000
0010
0001
0100
,
0001
0000
0010
0010
0000
0001
3001
0000
,
0002
0100
0010
0100
,
1000
0010
0100
1003
,
0001
0010
0100
0000
0110
0000
1001
0000
,
1000
0010
0100
0000
0110
0000
1001
0000
,
1000
1000
1000
0000
0100
0000
0010
0000
,
0001
0001
0001
0000
0100
0000
0010
0000
,
1000
1000
1000
0000
0100
0000
0010
0000
,
0001
0001
0001
0000
0100
0000
0010
0000
,
0100
0100
0100
0000
0001
0000
0010
0000
,
0100
0100
0100
0000
1000
0000
0010
0000
,
0100
0100
0100
0000
0001
0000
0010
0000
,
0100
0100
1000
0010
0100
0010
1000
0000
,
1000
0000
0001
0010
0100
0010
0001
0000
,
0001
0000
1000
0010
0100
0001
1000
0000
,
1000
0000
0001
0010
0100
0000
1100
0000
,
0011
0000
1000
0001
0100
0010
1000
0000
,
1000
0000
0001
0010
0100
1000
0001
0000
,
0001
0000
0100
0001
0010
0100
1000
0000
,
1000
0000
0010
0010
0100
0000
0010
0000
,
1001
0000
1000
0100
1000
0010
1000
0100
,
1000
0001
0010
0001
0100
0001
0010
0001
,
0000
0000
1000
0010
0100
0010
1000
0000
,
1000
0000
0001
0010
0100
0010
0001
0000
,
0001
0000
1000
0100
0010
0001
1000
0000
,
1000
0000
0010
0100
0010
0000
1010
0000
,
0101
0000
0001
0010
0100
0010
0001
0000
,
0001
0000
1000
0010
0100
0010
1000
0000
,
1000
0000
0001
0100
0010
1000
0001
0000
,
0001
0000
1000
0100
1000
0000
1010
0000
,
0101
0000
1000
0100
0001
0100
1000
0000
,
1000
0000
0001
0100
1000
0100
0001
0000
,
0001
0000
1000
0010
0001
0010
1000
0000
,
1000
0000
0001
0010
0100
0000
1100
0000
,
0011
0000
0001
0010
1000
0010
0001
0000
,
0001
0000
1000
0100
0001
0100
1000
0000
,
1000
0000
0001
0100
1000
0100
0001
0000
,
0001
0000
0010
0010
0000
0000
1001
0000
,
0000
0000
1000
0100
1000
0000
0010
0000
,
0100
0000
0001
0010
0001
0000
0100
0000
,
0010
0000
1000
0100
0001
0000
0100
0000
,
0010
0000
0001
0100
1000
0000
0100
0000
,
0010
0220
0000
0000
,
0000
0000
0000
0000
,
0000
0330
0000
0000
;

//---------------dance-single - ----------------
#NOTEDATA:;
#CHARTNAME:;
#STEPSTYPE:dance-single;
#DESCRIPTION:;
#CHARTSTYLE:;
#DIFFICULTY:Challenge;
#METER:14;
#RADARVALUES:0.495292,0.471366,0.123529,0.823527,0.074117,421.000000,406.000000,15.000000,100.000000,0.000000,0.000000,0.000000,0.000000,0.000000,0.495292,0.471366,0.123529,0.823527,0.074117,421.000000,406.000000,15.000000,100.000000,0.000000,0.000000,0.000000,0.000000,0.000000;
#CREDIT:Venom ('BAD IDEA' Special);
#NOTES:
0000
0000
0000
0000
,
0000
0000
0000
0000
,
0000
0000
0000
0000
,
0000
0000
0000
0000
,
0000
0000
0000
0000
,
1000
0100
0010
0001
1000
0010
0100
0001
,
0010
0100
0010
0100
1000
0001
1001
0000
,
0001
0100
0010
0000
0010
0100
0001
0000
,
1000
0100
0010
0001
0100
0010
1000
0000
,
0001
0010
0001
0010
0001
0100
0001
0100
,
0010
1000
0010
1000
0100
1000
0100
1000
,
0010
0100
0001
0000
0010
0100
1000
0000
,
0001
1000
0001
1000
0010
0100
0010
0100
,
0002
0010
1000
0100
,
1000
0000
0010
0000
1003
0100
0001
0100
,
1000
1010
0101
0011
,
1100
0000
0001
1000
0000
1000
0010
0100
,
0001
1000
0100
1000
0001
0100
0001
1000
,
0010
1000
0100
0010
0001
0100
0001
0010
,
0001
0100
1000
0100
0010
0100
1001
0000
,
1000
0100
0001
0100
0010
0100
1001
0000
,
1000
0000
0000
0000
0200
0300
0000
0000
0200
0300
0000
0000
0001
0000
0000
0000
1000
0000
0000
0000
0200
0300
0000
0000
0200
0300
0000
0000
0001
0000
0000
0000
,
1000
0000
0000
0000
0020
0030
0000
0000
0020
0030
0000
0000
0001
0000
0000
0000
1000
0000
0000
0000
0020
0030
0000
0000
0020
0030
0000
0000
0001
0000
0000
0000
,
1000
0000
0000
0000
0200
0300
0000
0000
0200
0300
0000
0000
0001
0000
0000
0000
1000
0000
0000
0000
0200
0300
0000
0000
0200
0300
0000
0000
0001
0000
0000
0000
,
1000
0000
0000
0000
0020
0030
0000
0000
0020
0030
0000
0000
0001
0000
0000
0000
1000
0000
0000
0000
0020
0030
0000
0000
0020
0030
0000
0000
0001
0000
0000
0000
,
1000
0000
0000
0000
0200
0300
0000
0000
0200
0300
0000
0000
0001
0000
0000
0000
1000
0000
0000
0000
0020
0030
0000
0000
0020
0030
0000
0000
0001
0000
0000
0000
,
1000
0000
0000
0000
0200
0300
0000
0000
0200
0300
0000
0000
0001
0000
0000
0000
1000
0000
0000
0000
0020
0030
0000
0000
0020
0030
0000
0000
0001
0000
0000
0000
,
1000
0000
0000
0000
0200
0300
0000
0000
0200
0300
0000
0000
0001
0000
0000
0000
1000
0000
0000
0000
0020
0030
0000
0000
0020
0030
0000
0000
0001
0000
0000
0000
,
0110
0000
0000
0000
1001
0000
0000
0000
1000
0000
0000
0000
0100
0000
0000
0000
0002
0003
0000
0000
0002
0003
0000
0000
1000
0000
0000
0000
0100
0000
0000
0000
,
0002
0003
0000
0000
0002
0003
0000
0000
1000
0000
0000
0000
0010
0000
0000
0000
0002
0003
0000
0000
0002
0003
0000
0000
1000
0000
0000
0000
0010
0000
0000
0000
,
0002
0003
0000
0000
0002
0003
0000
0000
1000
0000
0000
0000
0100
0000
0000
0000
0002
0003
0000
0000
0002
0003
0000
0000
1000
0000
0000
0000
0100
0000
0000
0000
,
0001
0000
0000
0000
0100
0010
0000
0001
1000
0000
0010
0000
0100
0001
0000
1000
,
0001
0000
0000
0000
0000
0000
0000
0000
0001
0000
0000
0000
0100
0000
0000
0000
2000
3000
0000
0000
2000
3000
0000
0000
0001
0000
0000
0000
0100
0000
0000
0000
,
2000
3000
0000
0000
2000
3000
0000
0000
0001
0000
0000
0000
0010
0000
0000
0000
2000
3000
0000
0000
2000
3000
0000
0000
0001
0000
0000
0000
0010
0000
0000
0000
,
2000
3000
0000
0000
2000
3000
0000
0000
0001
0000
0000
0000
0100
0000
0000
0000
2000
3000
0000
0000
2000
3000
0000
0000
0001
0000
0000
0000
0010
0000
0000
0000
,
1000
0000
0000
0000
0010
0000
0100
0000
1000
0000
0001
0000
1000
0010
0000
1000
,
0001
0000
1000
0010
0001
0100
0001
0010
,
2000
3001
0010
1000
0100
1000
0010
0002
,
0103
0000
0010
0000
0100
0000
0010
0000
1000
0000
0000
0000
0200
0300
0000
0000
0200
0300
0000
0000
0001
0000
0000
0000
1000
0000
0000
0000
0200
0300
0000
0000
,
0200
0300
0000
0000
0001
0000
0000
0000
1000
0000
0000
0000
0020
0030
0000
0000
0020
0030
0000
0000
0001
0000
0000
0000
1000
0000
0000
0000
0020
0030
0000
0000
,
0020
0030
0000
0000
0001
0000
0000
0000
1000
0000
0000
0000
0200
0300
0000
0000
0200
0300
0000
0000
0001
0000
0000
0000
1000
0000
0000
0000
0020
0030
0000
0000
,
0020
0030
0000
0000
0001
0000
0000
0000
1000
0000
0100
0000
0000
0000
0010
0000
0001
0000
0000
0000
1000
0000
0000
0000
0010
0000
0100
0000
0000
0000
0001
0000
,
1000
0000
0000
0000
0000
0000
0000
0000
0001
0000
0000
0000
0100
0000
0000
0000
2000
3000
0000
0000
2000
3000
0000
0000
0001
0000
0000
0000
0100
0000
0000
0000
,
2000
3000
0000
0000
2000
3000
0000
0000
0001
0000
0000
0000
0010
0000
0000
0000
2000
3000
0000
0000
2000
3000
0000
0000
0001
0000
0000
0000
0010
0000
0000
0000
,
2000
3000
0000
0000
2000
3000
0000
0000
0001
0000
0000
0000
0100
0000
0000
0000
2000
3000
0000
0000
2000
3000
0000
0000
0001
0000
0000
0000
0010
0000
0000
0000
,
2000
3000
0000
0000
2000
3000
0000
0000
0010
0000
0000
0000
0100
0000
0000
0000
0010
0000
0000
0000
0100
0000
0000
0000
0001
0000
1000
0000
0000
0000
0001
0000
,
1000
0000
0000
0000
0010
0000
0000
0000
1000
0000
0000
0000
0100
0000
0000
0000
0002
0003
0000
0000
0002
0003
0000
0000
1000
0000
0000
0000
0100
0000
0000
0000
,
0002
0003
0000
0000
0002
0003
0000
0000
0001
0000
0000
0000
0100
0000
0000
0000
2000
3000
0000
0000
2000
3000
0000
0000
0001
0000
0000
0000
0100
0000
0000
0000
,
2000
3000
0000
0000
2000
3000
0000
0000
1000
0000
0000
0000
0100
0000
0000
0000
0002
0003
0000
0000
0002
0003
0000
0000
1000
0000
0000
0000
0100
0000
0000
0000
,
0002
0003
0000
0000
0002
0003
0000
0000
0100
0000
0010
0000
0000
0000
1000
0000
0001
0000
0000
0000
0010
0000
0000
0000
0001
0000
1000
0000
0000
0000
0100
0000
,
1000
0000
0000
0000
0001
0000
0000
0000
1000
0000
0000
0000
0010
0000
0000
0000
0002
0003
0000
0000
0002
0003
0000
0000
1000
0000
0000
0000
0010
0000
0000
0000
,
0002
0003
0000
0000
0002
0003
0000
0000
0001
0000
0000
0000
0010
0000
0000
0000
2000
3000
0000
0000
2000
3000
0000
0000
0001
0000
0000
0000
0010
0000
0000
0000
,
2000
3000
0000
0000
2000
3000
0000
0000
1000
0000
0000
0000
0010
0000
0000
0000
0002
0003
0000
0000
0002
0003
0000
0000
1000
0000
0000
0000
0010
0000
0000
0000
,
0100
0010
0110
0110
0000
0000
1001
0000
,
0000
0002
1003
0100
1000
0100
0001
0100
,
0001
0100
1000
0100
0001
0100
0010
0010
,
1001
0000
0001
0100
0001
0100
1000
0100
,
1000
0100
0001
0100
1000
0100
0010
0010
,
0110
2002
0000
0000
,
0000
0000
0000
0000
,
0000
3003
0000
0000
;

//---------------dance-single - ----------------
#NOTEDATA:;
#CHARTNAME:;
#STEPSTYPE:dance-single;
#DESCRIPTION:;
#CHARTSTYLE:;
#DIFFICULTY:Hard;
#METER:12;
#RADARVALUES:0.501175,0.471366,0.123529,0.049412,0.074117,426.000000,411.000000,15.000000,6.000000,0.000000,0.000000,0.000000,0.000000,0.000000,0.501175,0.471366,0.123529,0.049412,0.074117,426.000000,411.000000,15.000000,6.000000,0.000000,0.000000,0.000000,0.000000,0.000000;
#CREDIT:Venomothim;
#NOTES:
0000
0000
0000
0000
,
0000
0000
0000
0000
,
0000
0000
0000
0000
,
0000
0000
0000
0000
,
0000
0000
0000
0000
,
1000
0100
0010
0001
1000
0010
0100
0001
,
0010
0100
0010
0100
1000
0001
1001
0000
,
0001
0100
0010
0000
0010
0100
0001
0000
,
1000
0100
0010
0001
0100
0010
1000
0000
,
0001
0010
0001
0010
0001
0100
0001
0100
,
0010
1000
0010
1000
0100
1000
0100
1000
,
0010
0100
0001
0000
0010
0100
1000
0000
,
0001
1000
0001
1000
0010
0100
0010
0100
,
0002
0010
1000
0100
,
1000
0000
0010
0000
1003
0100
0001
0100
,
1000
1010
0101
0011
,
1100
0000
0001
1000
0000
1000
0010
0100
,
0001
1000
0100
1000
0001
0100
0001
1000
,
0010
1000
0100
0010
0001
0100
0001
0010
,
0001
0100
1000
0100
0010
0100
1001
0000
,
1000
0100
0001
0100
0010
0100
1001
0000
,
1000
0100
1000
0100
1000
0100
1000
0100
,
0001
0100
0001
0100
0001
0100
0001
0100
,
1000
0010
1000
0010
1000
0010
1000
0010
,
0001
0010
0001
0010
0001
0010
0001
0010
,
1000
0100
1000
0100
0001
0100
0001
0100
,
1000
0010
1000
0010
0001
0010
0001
0010
,
1000
0100
0001
0100
1000
0010
0001
0010
,
0110
1001
1000
0100
0010
0001
1000
0100
,
0010
0001
1000
0010
0100
0001
1000
0010
,
0100
0001
1000
0100
0001
0100
0001
0100
,
1000
0000
0000
0000
0001
0100
0000
0100
0001
0000
1000
0000
0100
1000
0000
0010
,
0100
0001
0100
0010
1000
0001
0100
0010
,
1000
0001
1000
0100
0010
0001
1000
0100
,
0010
0001
1000
0010
0001
0010
0001
0010
,
1000
0000
0001
0000
0010
0000
0100
0000
1000
0000
0001
0000
0100
0010
0000
0010
,
0100
0001
1000
0010
0001
0100
0001
0010
,
2000
3001
0010
1000
0100
1000
0010
0002
,
0103
0010
0100
0010
1000
0000
0100
0000
1000
0000
0100
0000
0001
0000
0100
0000
,
0001
0100
1000
0010
1000
0010
0001
0010
,
0001
0010
1000
0100
0001
0100
1000
0010
,
0001
0000
0010
0000
1000
0100
0000
0100
0010
0000
0001
0000
0100
0010
0000
1000
,
0001
1000
0001
0100
0001
0100
1000
0100
,
1000
0100
0001
0010
0001
0010
1000
0010
,
1000
0010
0001
0100
1000
0100
0001
0010
,
1000
0000
0010
0000
0001
0000
0001
0000
1000
0000
1000
0000
0100
0010
0100
0010
,
0100
0100
1000
0010
0001
1000
0100
0001
,
0100
0010
1000
0100
0001
1000
0010
0001
,
0010
0100
1000
0010
0001
1000
0100
0001
,
0100
0000
0010
0000
1000
0001
0000
0001
0010
0000
0100
0000
0010
0001
0000
1000
,
0010
0100
1000
0100
0001
1000
0010
0001
,
0010
0100
0001
0010
1000
0001
0100
1000
,
0100
0010
0001
0100
1000
0001
0010
1000
,
0010
0100
0110
0110
0000
0000
1001
0000
,
0000
0002
1003
0100
1000
0100
0001
0100
,
0001
0100
1000
0100
0001
0100
0010
0010
,
1001
0000
0001
0100
0001
0100
1000
0100
,
1000
0100
0001
0100
1000
0100
0010
0010
,
1001
0220
0000
0000
,
0000
0000
0000
0000
,
0000
0330
0000
0000
;
