#TITLE:avant-guerre;
#ARTIST:Osamu Kubota;
#BANNER:avant-guerre.png;
#BACKGROUND:avant-guerre-bg.png;
#JACKET:avant-guerre-jacket.png;
#CDTITLE:./CDTITLES/BEATMANIA IIDX.PNG;
#MUSIC:avant-guerre.ogg;
#SAMPLESTART:18.082;
#SAMPLELENGTH:15;
#BPMS:0=146,202=130,250=146;
#STOPS:77=0.82191780821917808219178082191781;
#BGCHANGES:1=avant-guerre.mp4=1=0=0=1=====;

//---------------dance-single - t7r----------------
#NOTES:
     dance-single:
     t7r:
     Beginner:
     4:
     :
0000
0000
0000
0000
,
0000
0000
0000
0000
,
0000
0000
0000
0000
,
0000
0000
0000
0000
,
0000
0000
0000
0000
,
0000
0000
0000
0000
,
0000
0000
0000
0000
,
0010
0000
0010
0000
,
0100
0100
0100
0000
,
0001
0001
0001
0000
,
1000
1000
1000
0000
,
0100
0000
0100
0000
,
0010
0000
0010
0000
,
0001
0000
0000
0000
,
1000
0000
0000
0000
,
0010
0000
0010
0000
,
0100
0000
0100
0000
,
0001
0000
0000
0000
,
1000
0000
0100
0000
,
0010
0000
0001
0000
,
0000
0000
0000
0000
,
0100
0000
0000
0000
,
0000
0000
0010
0000
,
0000
0000
0000
0000
,
1000
0000
0000
0000
,
0000
0000
0100
0000
,
0000
0000
0000
0000
,
0010
0000
0000
0000
,
0000
0000
0001
0000
,
0000
0000
0000
0000
,
1000
1000
1000
1000
,
1000
1000
0000
0000
,
0000
0000
0000
0000
,
0000
0000
0000
0000
,
0000
0000
0001
0000
,
0000
0000
0000
0000
,
0000
0000
0000
0000
,
0000
0000
0000
0000
0000
0100
0000
0000
,
0000
0000
0000
0000
0000
0010
0000
0000
,
0000
0000
0000
0000
0000
1000
0000
0000
,
0000
0000
0000
0000
0000
0100
0000
0000
,
0000
0010
0000
0010
0000
0010
0000
0000
,
0000
0000
0000
0000
0000
0001
0000
0000
,
0000
0000
0000
0000
0000
0100
0000
0000
,
0000
0000
0000
0000
0000
0010
0000
0000
,
0000
1000
0000
0000
0000
0001
0000
0000
,
0000
1000
0000
0000
0000
0010
0000
0000
,
0000
0100
0000
0000
0000
0010
0000
0000
,
0000
0010
0000
0000
0000
0000
0000
0000
,
0000
0000
0000
0000
,
0000
0000
1000
0000
,
0100
0000
0010
0000
,
0010
0000
0001
0000
,
0100
0000
0010
0000
,
0010
0000
1000
0000
,
0001
0000
0010
0000
,
0001
0000
0100
0000
,
0010
0000
1000
0000
,
0001
0000
0010
0000
,
0000
0000
0000
0000
,
0000
0000
0100
0000
,
0000
0000
0000
0000
,
0000
0000
1000
0000
,
0000
0000
0001
0000
,
0000
0000
0100
0000
,
0000
0000
0000
0000
0000
0000
0000
0010
,
0000
0000
0000
0100
,
0000
0000
0000
0000
,
0000
1001
0000
0000
;

//---------------dance-single - t7r----------------
#NOTES:
     dance-single:
     t7r:
     Easy:
     7:
     :
0000
0000
0000
0000
,
0000
0000
0000
0000
,
0000
0000
0000
0000
,
0000
0000
0000
0000
,
0000
0000
0000
0000
,
0000
0000
0000
0000
,
0000
0000
0000
0000
,
1000
0100
0010
0100
,
1000
0001
0200
0300
,
0001
1000
0200
0300
,
1000
0001
0020
0030
,
0001
0000
0100
0000
,
0010
0000
1000
0000
,
0001
0010
0100
0100
,
1000
0010
0100
0100
,
0001
0010
1000
0010
,
0001
1000
0010
0001
,
0010
0100
0100
0001
,
1000
0100
0010
0001
,
0100
0110
1000
0000
,
0000
0100
0000
0000
,
0010
0000
0000
0001
,
0000
1000
1000
0000
,
0000
0010
0000
0000
,
0100
0000
0000
0000
,
0001
0000
0010
0000
,
0000
0001
0000
1000
,
0010
0000
0000
0100
,
0001
0010
0001
0000
,
0100
0000
0010
1000
,
0100
0001
0100
1000
,
0001
0100
0001
0010
,
0001
0010
0001
1000
,
0010
1000
0001
1000
,
0100
1000
0010
1000
,
0010
1000
0010
0100
,
0001
0010
0001
1000
,
0100
0000
0010
0000
0000
0200
0000
0000
,
1300
0000
0000
0000
0000
0002
0000
0000
,
0103
0000
0000
0000
0000
0020
0000
0000
,
1030
0000
0000
0000
0000
0002
0000
1003
,
0000
0100
0000
0010
0000
0002
0000
0000
,
1003
0000
0000
0000
0000
0020
0000
0000
,
0130
0000
0000
0000
0000
0002
0000
0000
,
0013
0000
0000
0000
0000
0100
0000
1000
,
0000
0001
0000
0100
0000
0020
0000
1030
,
0000
0002
0000
1003
0000
0200
0000
1300
,
0000
0002
0000
1003
0000
0020
0000
1030
,
0000
0002
0000
1003
0000
0000
0000
0000
,
0000
0000
0000
0000
,
0000
0000
0001
0010
,
0100
0000
1100
0000
1000
0000
0010
0100
,
0020
0000
1030
0000
0001
0000
0010
0100
,
0020
0000
0031
0000
1000
0000
0010
0100
,
0020
1030
0100
1001
,
0010
1001
0100
1001
,
0010
0120
1030
0101
,
0001
1100
1000
0101
,
0001
2010
3001
0000
,
0000
0000
0000
0000
,
0000
0000
0000
0000
0000
0000
0000
0000
0000
0000
0000
0000
0000
0000
0000
0000
0000
0000
0000
0000
0000
0000
0000
0000
0000
0000
0000
0000
0000
0000
0000
0000
1000
0000
0000
0000
0000
0000
0000
0000
0000
1000
0000
0000
0000
0000
0000
0000
0000
0000
0000
0000
0000
0000
0000
0000
0000
0000
0000
0000
0000
0000
0000
0000
,
0000
0000
0000
0000
,
0000
0000
0000
0000
0000
0000
0000
0000
0000
0000
0000
0000
0000
0000
0000
0000
0000
0000
0000
0000
0000
0000
0000
0000
0000
0000
0000
0000
0000
0000
0000
0000
0000
0000
0000
0000
0000
0000
0000
0000
0000
0000
0000
0000
0000
0000
0000
0000
0010
0000
0000
0000
0000
0000
0000
0000
0000
0000
0000
0000
0000
0000
0000
0010
0000
0000
0000
0000
0000
0000
0000
0000
0000
0000
0000
0000
0000
0000
0000
0000
1000
0000
0000
0000
0000
0000
0000
0000
0000
0000
0000
0000
0000
0000
0000
0000
,
1000
0000
0001
0000
0001
0000
0100
0000
0100
0000
0010
0000
,
0010
0000
1000
0000
1000
0000
0001
0000
0010
0000
1000
0000
,
0010
0000
0001
0000
0100
0000
1000
0000
0000
0000
0000
0110
,
0000
0000
0000
0000
0100
0000
0000
0000
0000
1001
0000
0000
,
0000
0000
0000
1000
0000
0100
0000
0001
0000
0100
0000
0000
,
0000
1000
2000
0000
0000
0000
0000
0000
,
0000
0000
0000
0000
,
3000
0000
0000
0000
;

//---------------dance-single - t7r----------------
#NOTES:
     dance-single:
     t7r:
     Medium:
     11:
     :
0000
0000
0000
0000
,
0000
0000
0000
0000
,
0000
0000
0000
0000
,
0000
0000
0000
0000
,
0000
0000
0000
0000
,
0000
0000
0000
0000
,
0000
0000
0000
0000
,
1000
0100
0020
0031
,
0100
0010
0100
0010
0200
0000
0301
0000
,
0010
0100
0010
0100
0020
0000
0130
0000
,
1000
0001
1000
0001
2000
0000
3010
0000
,
1000
0200
0000
0310
0001
2000
0000
3001
,
0100
0000
0000
0020
0000
0000
0000
0000
0000
0130
0000
0000
0001
0000
0000
0000
0000
0000
1000
0000
0000
0000
0001
0000
,
0010
0000
0000
0001
0000
0000
1000
0000
0001
0100
0000
0001
,
1000
0000
0000
0010
0000
0000
1000
0000
0100
0010
0000
0001
,
1000
0010
1000
0000
0010
0001
0010
0000
,
1000
0100
1000
0000
0100
0001
0100
0000
,
0010
0000
0000
0100
0000
1000
0001
0000
0100
0010
0000
0100
,
0001
0000
0000
1000
0000
0000
0001
0000
0000
0010
0000
0000
1000
0000
0000
0000
0010
0000
0001
0000
0000
0000
0100
0000
,
0010
0000
0000
1001
0000
0000
1000
0000
0010
0000
1000
0000
,
1000
0000
0000
0000
0001
0000
0010
0000
0000
0000
0000
0000
0001
0000
0000
0000
1000
0000
0000
0000
0000
0100
0000
0000
,
0010
0000
0001
0000
1000
0000
1000
0000
0010
0000
0100
0000
,
0100
0000
0000
0001
0000
0000
1001
0000
0001
0000
0010
0000
,
0010
0000
0001
0100
0000
0000
0010
0000
1000
0000
0001
0000
,
1000
0000
0100
0000
0100
0000
0010
0000
0001
0000
1000
0000
,
0001
0000
0100
0000
0100
0000
0010
0000
1000
0000
1000
0000
,
0001
0000
0000
0000
0010
0000
0000
0000
0000
0000
0001
0000
0000
0000
0000
1000
0000
0000
0000
0000
0100
0000
0000
0000
,
0010
0000
0000
0000
0001
0000
0000
0000
0001
0000
0000
0000
1000
0000
0000
0010
0000
0000
0001
0000
0000
0000
0000
0000
,
0010
0000
0000
1000
0000
0000
0001
0000
0000
0000
0000
0000
0010
0000
0000
0000
1000
0000
0000
0000
1000
0000
0000
0000
,
0010
0000
0000
0000
0100
0000
1000
0000
0000
0000
0000
0000
0001
0000
0000
0100
0000
0000
0010
0000
0000
1000
0000
0000
,
0001
0011
1000
1100
,
0001
0101
1000
0010
,
0001
0000
0010
0000
1000
0000
0001
0010
,
0100
0000
0010
0000
1000
0000
0010
0001
,
1000
0000
0010
0100
0001
0000
0010
0000
,
1000
0010
0001
1000
,
0010
0000
0001
0010
0100
0000
0010
0100
,
0001
0000
0010
0100
1000
2000
0000
0001
,
3001
0000
0100
0010
0000
2000
0000
0001
,
3001
0000
0010
0100
0000
0020
0000
0001
,
0031
0000
0100
0010
1000
0002
0000
0013
,
0100
1000
0000
0001
0000
0200
0000
0010
,
0310
0000
1000
0001
0000
0020
0000
0100
,
0130
0000
0010
0001
0000
0200
0000
0010
,
0310
0000
1000
0001
0100
0010
0000
1000
,
0100
0010
0000
0001
0100
0020
0000
1030
,
0100
0020
0000
0031
1000
0020
0000
1030
,
0001
0020
0000
0031
0100
0020
0000
1030
,
0100
0020
0000
0130
0000
0000
0000
0000
,
0000
0000
0000
0000
,
0000
0000
0000
0000
0000
0000
1000
0000
0001
0100
0000
0000
,
1001
0000
1000
0000
0001
0010
0100
0010
,
0001
0000
0000
0000
0100
0000
0010
0000
0000
0000
0000
0000
1000
0000
0000
0010
0000
0000
0100
0000
0000
0010
0000
0000
,
1000
0000
0000
0000
0010
0000
0100
0000
0000
0000
0000
0000
0001
0000
0000
0010
0000
0000
0001
0000
0000
1000
0000
0000
,
0010
0000
0000
0000
1000
0000
0001
0000
0000
1000
0000
0000
0001
0000
0000
0020
0000
0000
0000
0000
0000
1030
0000
0000
,
0010
0200
0000
1300
0010
0200
0000
0310
,
1000
0000
1001
0000
1000
0020
0000
0031
,
0010
0200
0000
0301
0010
0200
0000
0310
,
0001
0000
0000
0000
0000
0000
0000
0000
1001
0000
0000
0000
0000
0000
0000
0000
1000
0000
0000
0000
0000
1001
0000
0000
0000
0000
0000
0000
0000
0000
0000
0000
,
0000
0000
0000
0000
,
0000
0000
0000
0000
0000
0000
0000
0000
0000
0000
0000
0000
0000
0000
0000
0000
0000
0000
0000
0000
0000
0000
0000
0000
0000
0000
0000
0000
0000
0000
0000
0000
0001
0000
0000
0000
0000
0000
0000
0000
0000
1001
0000
0000
0000
0000
0000
0000
0000
0000
0000
0000
0000
0000
0000
0000
0000
0000
0000
0000
0000
0000
0000
0000
,
0000
0000
0000
0000
,
0000
0000
0000
0000
0000
0000
0000
0000
0000
0000
0000
0000
0000
0000
0000
0000
0000
0000
0000
0000
0000
0000
0000
0000
0000
0000
0000
0000
0000
0000
0000
0000
0000
0000
0000
0000
0000
0000
0000
0000
0000
0000
0000
0000
0000
0000
0000
0000
1000
0000
0000
0000
0000
0000
0000
0000
0000
0000
0000
0000
0000
0000
0000
2010
0000
0000
0000
0000
0000
0000
0000
0000
0000
0000
0000
0000
0000
0000
0000
0000
3001
0000
0000
0000
0000
0000
0000
0000
0010
0000
0000
0000
0000
0000
0000
0000
,
0001
0000
1000
0010
1000
0000
0001
0100
0001
0000
1000
0100
,
1000
0000
0001
1000
0010
0000
1000
0001
0010
0000
0001
1000
,
0100
0000
1000
0010
0100
0001
1000
0000
0000
0000
0000
0210
,
0000
0000
0000
0000
0000
0000
0000
0000
0000
0000
0000
0000
0000
0000
0000
0000
0301
0000
0000
0000
0000
0000
0000
0000
0000
0000
0000
0000
0000
0000
0000
0000
0000
0000
0000
2001
0000
0000
0000
0000
0000
0000
0000
0000
0000
0000
0000
0000
,
0000
0000
0000
3100
0010
0100
1000
0001
0000
0100
0000
0000
,
0000
0010
0220
0000
0000
0000
0000
0000
,
0000
0000
0000
0000
,
0330
0000
0000
0000
;

//---------------dance-single - t7r----------------
#NOTES:
     dance-single:
     t7r:
     Hard:
     14:
     :
0000
0000
0000
0000
,
0000
0000
0000
0000
,
0000
0000
0000
0000
,
0000
0000
0000
0000
,
0000
0000
0000
0000
,
0000
0000
0000
0000
,
0000
0000
0000
0000
,
0002
0100
2003
0100
,
3001
0010
0100
1000
0020
0000
0031
0010
,
0100
0010
1000
0100
0020
0000
1030
0010
,
0100
0010
0001
0100
0020
0000
0031
0010
,
1000
0200
0010
1300
0001
0200
0010
0301
,
1000
0000
0000
0020
0000
0000
0100
0000
0000
1030
0000
0000
0002
0000
0000
0000
0000
0000
2003
0000
0000
0000
3001
0000
,
0100
0000
0000
0000
0000
0000
0000
0000
0001
0000
0000
0000
1000
0000
0000
0000
0000
0000
0000
0000
0001
0000
0000
0000
0010
0000
0000
0000
0000
0000
0100
0000
0000
1000
0000
0000
0001
0000
0000
0000
0000
0000
0100
0000
0000
0001
0000
0000
,
1000
0000
0000
0000
0000
0000
0000
0000
0010
0000
0000
0000
0100
0000
0000
0000
0000
0000
0000
0000
0001
0000
0000
0000
1000
0000
0000
0000
0000
0000
0100
0000
0000
0010
0000
0000
0001
0000
0000
0000
0000
0000
0100
0000
0000
0010
0000
0000
,
1000
0000
0000
0000
0001
0000
0000
0000
0010
0000
0000
0000
0001
0000
0000
1000
0000
0000
0001
0000
0000
0000
0000
0000
1000
0000
0000
0000
0010
0000
0000
0000
0100
0000
0000
0000
0010
0000
0000
0000
0100
0000
0000
0000
0001
0000
0000
0000
,
1000
0100
0010
0001
0100
0010
1000
0010
0100
0001
0010
0100
,
1000
0000
0001
0100
0010
0100
0001
1000
0100
0010
0001
1000
,
0001
0000
0000
0010
0000
0000
1000
0000
0000
0010
0000
0000
0100
0000
1000
0000
0010
0000
0100
0000
0000
0000
0010
0000
,
1000
0000
0000
0110
0000
0000
1001
0000
1000
0000
0100
0000
,
0010
0000
0000
0000
0100
0000
0010
0000
0001
0000
0000
0000
0100
0000
0000
0000
0010
0000
0000
0000
0000
1000
0000
0001
,
0000
0100
0000
0000
0001
0000
0000
0000
0100
0000
0000
0000
0010
0000
0000
0000
0100
0000
0000
0000
1000
0000
0000
0000
,
0100
0000
0010
1000
0000
0000
1001
0000
0001
0000
0010
0000
,
0100
0000
0010
0100
1000
0000
0010
0000
0100
0000
0001
1000
,
0010
0000
1000
0000
0010
0000
0100
0000
0010
0000
0001
0000
,
0010
0000
0100
0000
0001
0000
1001
0000
1000
0000
0100
0000
,
0010
0000
0000
0000
1000
0000
0010
0000
0000
0000
0100
0000
0000
0000
0000
1000
0000
0000
0010
0000
0100
0000
0001
0000
,
1000
0000
0000
0000
0001
0000
0000
0000
0100
0000
0000
0000
0010
0000
0000
0100
0000
0000
0010
0000
0000
1000
0000
0000
,
0100
0000
0000
0010
0000
0000
0001
0000
0000
1000
0000
0000
0001
0000
0000
0000
0010
0000
0000
0000
1000
0000
0000
0000
,
0010
0000
0000
0000
0001
0000
1000
0000
0000
0000
0010
0000
0000
0000
0001
0000
0000
0000
0010
0000
0000
1000
0000
0000
,
0001
0000
0000
0010
0000
0000
0000
0000
0000
0000
0000
0000
0100
0000
0000
0000
1000
0000
0000
0000
0000
0000
0000
0000
0001
0000
0000
0000
0100
0000
0000
0000
0000
0000
0000
0000
0010
0000
0000
0000
1000
0000
0000
0000
0000
0000
0000
0000
,
0001
0000
1000
0000
0000
0000
0010
0000
0100
0000
0000
0000
0010
0000
0000
0010
0000
0000
1000
0000
0000
1000
0000
0000
,
0001
0001
0010
0010
0001
1000
0100
0010
,
0001
1000
0010
0100
0010
0001
0010
0100
,
0010
0000
1000
0000
0001
0010
0000
0001
1000
0000
1000
0000
0010
0000
0010
0000
,
0100
0100
0001
0001
0010
0010
1000
0010
,
0001
0100
1000
0100
0010
0100
0001
0010
,
1000
0010
0100
0010
0001
0200
0000
1000
,
1300
0000
0100
0010
1000
0200
0000
0001
,
0301
0000
0100
0010
0001
0200
0000
1000
,
1300
0000
0100
0010
1000
0002
0000
0013
,
1000
0010
0100
0010
0001
2000
0000
0100
,
3001
0000
1000
0001
0100
0002
0000
0010
,
1003
0000
0001
1000
0100
2000
0000
0010
,
3001
0000
1000
0001
0100
0010
0001
0010
,
0100
0000
0002
0000
0000
0000
0013
0100
1000
0000
0200
0000
0000
0000
0001
0000
,
0010
2300
0000
0100
0001
3020
0000
0001
,
0100
2030
0000
0100
0001
3002
0000
0100
,
1000
0000
0000
2003
0000
0000
0000
0000
0000
3100
0000
0000
0010
0000
0001
0000
0100
0000
0010
0000
1000
0000
0100
0000
,
0010
0001
1000
0010
0100
0001
0010
0100
1000
0010
0100
0001
,
1000
0100
0010
0001
1000
0010
1000
0000
0001
0100
0001
0000
,
1010
0000
0000
0000
0001
0000
0100
0000
0001
0000
0000
0000
1000
0000
0000
0100
0000
0000
0010
0000
0000
0001
0000
0000
,
0010
0000
0100
0000
1000
0000
0010
0000
0100
0000
0001
0000
1000
0000
0000
0010
0000
0000
0001
0000
0000
0010
0000
0000
,
0100
0000
0001
0000
1000
0000
0001
0000
0010
0000
0100
0000
0010
0000
0000
1000
0000
0000
0010
0000
0000
0001
0000
0000
,
1000
0000
0010
0000
0100
0000
0001
0000
1000
0000
0100
0000
0010
0000
0000
0200
0000
0000
0001
0000
0000
0310
0000
0000
,
0001
0200
1000
0310
1000
0200
0001
0310
,
0001
0000
0110
0000
1000
0020
0001
0130
,
0001
0020
1000
0130
1000
0020
0100
1030
,
0001
0000
0000
0000
0000
0000
0000
0000
0110
0000
0000
0000
0000
0000
0000
0000
0001
0000
0000
0000
0000
1001
0000
0000
0000
0000
0000
0000
0000
0000
0000
0000
,
0000
0000
0000
0000
,
0000
0000
0000
0000
0000
0000
0000
0000
0000
0000
0000
0000
0000
0000
0000
0000
0000
0000
0000
0000
0000
0000
0000
0000
0000
0000
0000
0000
0000
0000
0000
0000
1000
0000
0000
0000
0000
0000
0000
0000
0000
1001
0000
0000
0000
0000
0000
0000
0000
0000
0000
0000
0000
0000
0000
0000
0000
0000
0000
0000
0000
0000
0000
0000
,
0000
0000
0000
0000
,
0000
0000
0000
0000
0000
0000
0000
0000
0000
0000
0000
0000
0000
0000
0000
0000
0000
0000
0000
0000
0000
0000
0000
0000
0000
0000
0000
0000
0000
0000
0000
0000
0000
0000
0000
0000
0000
0000
0000
0000
0000
0000
0000
0000
0000
0000
0000
0000
0001
0000
0000
0000
0000
0000
0000
0000
0000
0000
0000
0000
0000
0000
0000
0012
0000
0000
0000
0000
0000
0000
0000
0000
0000
0000
0000
0000
0000
0000
0000
0000
1003
0000
0000
0000
0000
0000
0000
0000
0100
0000
0000
0000
0000
0000
0000
0000
,
1000
0100
0001
0100
0001
0100
1000
0010
1000
0010
0001
0010
,
0001
0010
1000
0100
0001
0100
1000
0010
0001
0010
0100
0001
,
0010
0000
0100
0000
1000
0000
0010
0000
0100
0000
0001
0000
0010
0000
0000
0000
0000
0000
0000
0000
0000
0001
2000
0000
,
0000
0000
0000
0000
0000
0000
0000
0000
0000
0000
0000
0000
0000
0000
0000
0000
3010
0000
0000
0000
0000
0000
0000
0000
0000
0000
0000
0000
0000
0000
0000
0000
0000
0000
1000
0002
0000
0000
0000
0000
0000
0000
0000
0000
0000
0000
0000
0000
,
0000
0000
0000
0103
0001
0010
0100
1000
0000
0010
0000
0000
,
0000
1001
2002
0000
0000
0000
0000
0000
,
0000
0000
0000
0000
,
3003
0000
0000
0000
;

//---------------dance-double - t7r----------------
#NOTES:
     dance-double:
     t7r:
     Easy:
     7:
     :
00000000
00000000
00000000
00000000
,
00000000
00000000
00000000
00000000
,
00000000
00000000
00000000
00000000
,
00000000
00000000
00000000
00000000
,
00000000
00000000
00000000
00000000
,
00000000
00000000
00000000
00000000
,
00000000
00000000
00000000
00000000
,
00001000
01000000
00020000
00030000
,
10000000
01000000
00200000
00300000
,
00001000
00010000
00000020
00000030
,
00001000
00000001
00000020
00000030
,
00000001
00000000
00000100
00000000
,
00001000
00000000
00010000
00000000
,
00001000
00001000
01000000
00010000
,
10000000
10000000
01000000
00010000
,
00001000
00010000
00001000
00000010
,
00000001
00001000
00000001
00000100
,
00001000
00010000
00100000
01000000
,
00010000
00100000
01000000
10000000
,
00010000
00110000
00001000
00000000
,
00000000
00010000
00000000
00000100
,
00001000
00000000
00000000
00000001
,
00000000
00000100
00001000
00000000
,
00000000
00010000
00000000
00000000
,
00001000
00000000
00000000
00000000
,
01000000
00000000
00010000
00000000
,
00000000
10000000
00000000
00000000
,
00100000
00000000
00000000
00010000
,
00001000
00010000
00000010
00000000
,
00000000
00001000
00000000
00000000
,
00000001
00000010
00001000
00010000
,
00001000
00100000
00010000
00000000
,
10000000
00000000
00100000
00100000
,
00010000
00000000
00001000
00000000
,
00010000
00000000
00001000
00000000
,
00000010
00000000
00000100
00000100
,
00001000
00000000
00000001
00000000
,
00000100
00000000
00000000
00000000
00000000
00002000
00000000
00000000
,
00013000
00000000
00000000
00000000
00000000
00002000
00000000
00000000
,
01003000
00000000
00000000
00000000
00000000
00200000
00000000
00000000
,
10300000
00000000
00000000
00000000
00000000
02000000
00000000
03010000
,
00000000
00001000
00000000
01000000
00000000
00200000
00000000
00000000
,
00310000
00000000
00000000
00000000
00000000
00002000
00000000
00000000
,
00013000
00000000
00000000
00000000
00000000
00000200
00000000
00000000
,
00000310
00000000
00000000
00000000
00000000
00000001
00000000
00000000
,
00000000
00000100
00000000
00000000
00000000
00001000
00000000
00010000
,
00000000
00000010
00000000
00000100
00000000
00001000
00000000
00010000
,
00000000
00100000
00000000
10000000
00000000
01000000
00000000
00010000
,
00000000
00000010
00000000
00001000
00000000
00000000
00000000
00000000
,
00000000
00000000
00000000
00000000
,
00000000
00000000
00000001
00000100
,
00000010
00001010
00001000
00000100
,
00010000
00011000
00001000
01000000
,
00010000
10010000
10000000
00100000
,
01000000
00000000
01100000
00000000
10000000
02000000
00000000
00000000
,
03010000
00002000
00000000
00000000
00003100
00000002
00000000
00000000
,
00000013
00000000
00001001
00000000
00000001
00000020
00000000
00000000
,
00001030
00020000
00000000
00000000
01030000
20000000
00000000
00000000
,
30100000
01100000
00001000
00000000
,
00000000
00000000
00000000
00000000
,
00000000
00000000
00000000
00000000
00000000
00000000
00000000
00000000
00000000
00000000
00000000
00000000
00000000
00000000
00000000
00000000
00000000
00000000
00000000
00000000
00000000
00000000
00000000
00000000
00000000
00000000
00000000
00000000
00000000
00000000
00000000
00000000
00010000
00000000
00000000
00000000
00000000
00000000
00000000
00000000
00000000
00010000
00000000
00000000
00000000
00000000
00000000
00000000
00000000
00000000
00000000
00000000
00000000
00000000
00000000
00000000
00000000
00000000
00000000
00000000
00000000
00000000
00000000
00000000
,
00000000
00000000
00000000
00000000
,
00000000
00000000
00000000
00000000
00000000
00000000
00000000
00000000
00000000
00000000
00000000
00000000
00000000
00000000
00000000
00000000
00000000
00000000
00000000
00000000
00000000
00000000
00000000
00000000
00000000
00000000
00000000
00000000
00000000
00000000
00000000
00000000
00000000
00000000
00000000
00000000
00000000
00000000
00000000
00000000
00000000
00000000
00000000
00000000
00000000
00000000
00000000
00000000
00000100
00000000
00000000
00000000
00000000
00000000
00000000
00000000
00000000
00000000
00000000
00000000
00000000
00000000
00000000
00000100
00000000
00000000
00000000
00000000
00000000
00000000
00000000
00000000
00000000
00000000
00000000
00000000
00000000
00000000
00000000
00000000
00000010
00000000
00000000
00000000
00000000
00000000
00000000
00000000
00000000
00000000
00000000
00000000
00000000
00000000
00000000
00000000
,
00000010
00000000
00000001
00000000
00000001
00000000
00000100
00000000
00000100
00000000
00001000
00000000
,
00001000
00000000
00010000
00000000
00001000
00000000
01000000
00000000
00010000
00000000
10000000
00000000
,
01000000
00000000
00010000
00000000
00001000
00000000
00000100
00000000
00000000
00000000
00000000
00000110
,
00000000
00000000
00000000
00000000
00010000
00000000
00000000
00000000
00000000
00011000
00000000
00000000
,
00000000
00000000
00000000
00001000
00000000
01000000
00000000
00010000
00000000
10000000
00000000
00000000
,
00000000
00100000
00200000
00000000
00000000
00000000
00000000
00000000
,
00000000
00000000
00000000
00000000
,
00300000
00000000
00000000
00000000
;

//---------------dance-double - t7r----------------
#NOTES:
     dance-double:
     t7r:
     Medium:
     11:
     :
00000000
00000000
00000000
00000000
,
00000000
00000000
00000000
00000000
,
00000000
00000000
00000000
00000000
,
00000000
00000000
00000000
00000000
,
00000000
00000000
00000000
00000000
,
00000000
00000000
00000000
00000000
,
00000000
00000000
00000000
00000000
,
00010000
00000100
00002000
00003001
,
00000100
00000000
00000010
00001000
00000002
00000000
00000000
00000013
,
00001000
00000000
00010000
00001000
00020000
00000000
00000000
00031000
,
00100000
00000000
00010000
10000000
00200000
00000000
10300000
00000000
,
00010000
20000000
00000000
31000000
00100000
00002000
00000000
00013000
,
00000100
00000000
00000000
00002000
00000000
00000000
00000000
00000000
00000000
00003001
00000000
00000000
00000100
00000000
00000000
00000000
00000000
00000000
00001000
00000000
00000000
00000000
00010000
00000000
,
00000100
00000000
00000000
00010000
00000000
00000000
00001000
00000000
01000000
00010000
00000000
10000000
,
00010000
00000000
00000000
10000000
00000000
01000000
00100000
00000000
00000000
00010000
00000000
00000000
,
10000000
00000000
00100000
00010000
00002000
00000000
00003010
00000000
,
00000001
00000000
00001000
00000001
00000020
00000000
00001030
00000000
,
00010000
00000000
00000000
00001000
00000000
00100000
00010000
00000000
10000000
00010000
00000000
00000000
,
10000000
00000000
00000000
00100000
00000000
00000000
01000000
00000000
00000000
00010000
00000000
00000000
10000000
00000000
00000000
00000000
00000000
00000000
01000000
00000000
00000000
00000000
00010000
00000000
,
00001000
00000000
00000000
00000010
00000000
00000000
00001001
00000000
00000001
00000000
00000100
00000000
,
00000100
00000000
00000000
00000000
00000010
00000000
00001000
00000000
00000000
00000000
00000000
00000000
00000001
00000000
00000000
00000000
00000010
00000000
00000000
00000000
00000000
00001000
00000000
00000000
,
00010000
00000000
00001000
00000000
01000000
00000000
01000000
00000000
00100000
00000000
10000000
00000000
,
10000000
00000000
00000000
00010000
00000000
00000000
10010000
00000000
10000000
00000000
01000000
00000000
,
01000000
00000000
10000000
00100000
00000000
00000000
01000000
00000000
00001000
00000000
00010000
00000000
,
00000100
00000000
00001000
00000000
00001000
00000000
00000001
00000000
00000100
00000000
00001000
00000000
,
00010000
00000000
00000100
00000000
00000100
00000000
00010000
00000000
00001000
00000000
00001000
00000000
,
01000000
00000000
00000000
00000000
00100000
00000000
00000000
00000000
00000000
00000000
10000000
00000000
00000000
00000000
00000000
01000000
00000000
00000000
00000000
00000000
00100000
00000000
00000000
00000000
,
00001000
00000000
00000000
00000000
00010000
00000000
00000000
00000000
00010000
00000000
00000000
00000000
00000100
00000000
00000000
00001000
00000000
00000000
00000001
00000000
00000000
00000000
00000000
00000000
,
00000100
00000000
00000000
00000010
00000000
00000000
00001000
00000000
00000000
00000000
00000000
00000000
00000001
00000000
00000000
00000000
00000010
00000000
00000000
00000000
00000010
00000000
00000000
00000000
,
00001000
00000000
00000000
00000000
00010000
00000000
00001000
00000000
00000000
00000000
00000000
00000000
00010000
00000000
00000000
00100000
00000000
00000000
01000000
00000000
00000000
00010000
00000000
00000000
,
10000000
00100000
00010000
00001000
,
00000010
00000001
00001000
00000001
,
00000100
00000000
00001000
00000000
00010000
00000000
00001000
01000000
,
00010000
10000000
01000000
00100000
,
00010000
10000000
00100000
00010000
,
00001000
00000000
00000010
00000000
00000100
00000000
00001000
00000001
,
00000100
00000000
00000001
00001000
00000010
00000000
00001000
00000100
,
00010000
00000000
00001000
01000000
00010000
20000000
00000000
01000000
,
31000000
00000000
00100000
00010000
00000000
00200000
00000000
00001000
,
00301000
00000000
00010000
00001000
00000000
00020000
00000000
00000100
,
00030100
00000000
00001000
00000001
00000000
00000200
00000000
00000310
,
00000000
00001000
00000001
00000010
00000000
00002000
00000000
00010000
,
00013000
00000000
00000100
00001000
00000000
00000002
00000000
00000100
,
00000103
00000000
00000010
00001000
00000000
00000200
00000000
00010000
,
00010300
00000000
00001000
00010000
00001000
01000000
00000000
00100000
,
10000000
00020000
00000000
10030000
00010000
20000000
00000000
31000000
,
00100000
00020000
00000000
10030000
00000000
00200000
00000000
00310000
,
00001000
00020000
00000000
00030010
00000000
00002000
00000000
00003100
,
00000010
00000002
00000000
00001003
00000000
00000000
00000000
00000000
,
00000000
00000000
00000000
00000000
,
00000000
00000000
00000000
00000000
00000000
00000000
00001001
00000000
00000001
00000100
00000000
00000000
,
00002000
00000000
00013000
00000000
00001000
00010000
00100000
01000000
,
00010000
00000000
10000000
01000000
00010000
00001000
01000000
00100000
,
00010000
00000000
00001000
00010000
00001000
00000010
00000100
00001000
,
00000001
00000000
00000100
00001000
00010000
00200000
00000000
01300000
,
00010000
20000000
00000000
31000000
00100000
00002000
00000000
00013000
,
00001000
00000000
00000100
00000000
00000001
00000020
00000000
00001030
,
00010000
00002000
00000000
00013000
00100000
20000000
00000000
30010000
,
00100000
00000000
00000000
00000000
00000000
00000000
00000000
00000000
00001000
00000000
00000000
00000000
00000000
00000000
00000000
00000000
00010000
00000000
00000000
00000000
00000000
00010100
00000000
00000000
00000000
00000000
00000000
00000000
00000000
00000000
00000000
00000000
,
00000000
00000000
00000000
00000000
,
00000000
00000000
00000000
00000000
00000000
00000000
00000000
00000000
00000000
00000000
00000000
00000000
00000000
00000000
00000000
00000000
00000000
00000000
00000000
00000000
00000000
00000000
00000000
00000000
00000000
00000000
00000000
00000000
00000000
00000000
00000000
00000000
00010000
00000000
00000000
00000000
00000000
00000000
00000000
00000000
00000000
00011000
00000000
00000000
00000000
00000000
00000000
00000000
00000000
00000000
00000000
00000000
00000000
00000000
00000000
00000000
00000000
00000000
00000000
00000000
00000000
00000000
00000000
00000000
,
00000000
00000000
00000000
00000000
,
00000000
00000000
00000000
00000000
00000000
00000000
00000000
00000000
00000000
00000000
00000000
00000000
00000000
00000000
00000000
00000000
00000000
00000000
00000000
00000000
00000000
00000000
00000000
00000000
00000000
00000000
00000000
00000000
00000000
00000000
00000000
00000000
00000000
00000000
00000000
00000000
00000000
00000000
00000000
00000000
00000000
00000000
00000000
00000000
00000000
00000000
00000000
00000000
00000010
00000000
00000000
00000000
00000000
00000000
00000000
00000000
00000000
00000000
00000000
00000000
00000000
00000000
00000000
00000210
00000000
00000000
00000000
00000000
00000000
00000000
00000000
00000000
00000000
00000000
00000000
00000000
00000000
00000000
00000000
00000000
00000301
00000000
00000000
00000000
00000000
00000000
00000000
00000000
00000010
00000000
00000000
00000000
00000000
00000000
00000000
00000000
,
00000001
00000000
00001000
00000100
00001000
00000000
00000100
00010000
00000100
00000000
00010000
00001000
,
00010000
00000000
00001000
01000000
00001000
00000000
01000000
00100000
01000000
00000000
00100000
10000000
,
00100000
00000000
10000000
00010000
10000000
01000000
00100000
00000000
00000000
00000000
00000000
00021000
,
00000000
00000000
00000000
00000000
00000000
00000000
00000000
00000000
00000000
00000000
00000000
00000000
00000000
00000000
00000000
00000000
00030100
00000000
00000000
00000000
00000000
00000000
00000000
00000000
00000000
00000000
00000000
00000000
00000000
00000000
00000000
00000000
00000000
00000000
00000000
00012000
00000000
00000000
00000000
00000000
00000000
00000000
00000000
00000000
00000000
00000000
00000000
00000000
,
00000000
00000000
00000000
01003000
00100000
10000000
00010000
00100000
00000000
00001000
00000000
00000000
,
00000000
00010000
00022000
00000000
00000000
00000000
00000000
00000000
,
00000000
00000000
00000000
00000000
,
00033000
00000000
00000000
00000000
;

//---------------dance-double - t7r----------------
#NOTES:
     dance-double:
     t7r:
     Hard:
     14:
     :
00000000
00000000
00000000
00000000
,
00000000
00000000
00000000
00000000
,
00000000
00000000
00000000
00000000
,
00000000
00000000
00000000
00000000
,
00000000
00000000
00000000
00000000
,
00000000
00000000
00000000
00000000
,
00000000
00000000
00000000
00000000
,
00020000
00001000
00030200
00001000
,
00010300
00000100
00001000
00000001
00000200
00000000
00000310
00001000
,
00000001
00000010
00000100
00010000
00002000
00000000
01003000
00010000
,
10000000
00100000
01000000
00010000
20000000
00000000
31000000
00010000
,
00001000
00000200
00000000
00000301
00000010
00002000
00000000
00013000
,
01000000
00000000
00000000
20000000
00000000
00000000
00000000
00000000
00000000
30100000
00000000
00000000
02000000
00000000
00000000
00000000
00000000
00000000
03002000
00000000
00000000
00000000
00013000
00000000
,
00000100
00000000
00001000
00000001
00000000
00000100
00000010
00001000
00000001
00001000
00000100
00010000
,
00001000
00000000
00010000
00001000
00000000
01000000
00010000
10000000
00010000
00100000
01000000
10000000
,
00010000
10000000
00100000
00010000
00001000
00000010
00000001
00001000
,
00000001
00000010
00001000
00010000
00100000
10000000
00010000
00100000
,
00001000
00000000
00010000
00000100
00001000
00000001
00001000
00000000
00000001
00000100
00000010
00001000
,
00000100
00000000
00000000
00010000
00000000
00000000
00001000
00000000
00000000
00010000
00000000
00000000
01000000
00000000
10000000
00000000
00100000
00000000
01000000
00000000
00000000
00000000
00010000
00000000
,
10000000
00000000
00000000
10010000
00000000
00000000
11000000
00000000
10000000
00000000
01000000
00000000
,
00010000
00000000
00000000
00000000
00001000
00000000
00010000
00000000
00001000
00000000
00000000
00000000
00010000
00000000
00000000
00000000
00001000
00000000
00000000
00000000
00000000
00000100
00000000
00000010
,
00000000
00001000
00000000
00000000
00000001
00000000
00000000
00000000
00000010
00000000
00000000
00000000
00001000
00000000
00000000
00000000
00010000
00000000
00000000
00000000
00000100
00000000
00000000
00000000
,
00001000
00000000
00000001
00000100
00000000
00000000
00001000
00000000
00010000
00000000
00100000
00000000
,
01000000
00000000
00010000
10000000
01000000
00000000
00010000
00000000
00001000
00000000
01000000
00100000
,
00010000
00000000
00001000
00000000
00100000
00000000
00010000
00000000
10000000
00000000
01000000
00000000
,
00010000
00000000
00001000
00000000
00000010
00000000
00000110
00000000
00000100
00000000
00001000
00000000
,
00000001
00000000
00000000
00000000
00000100
00000000
00000010
00000000
00000000
00000000
00001000
00000000
00000000
00000000
00000000
00000001
00000000
00000000
00000100
00000000
00000010
00000000
00010000
00000000
,
00001000
00000000
00000000
00000000
00010000
00000000
00000000
00000000
01000000
00000000
00000000
00000000
00100000
00000000
00000000
01000000
00000000
00000000
00100000
00000000
00000000
00010000
00000000
00000000
,
10000000
00000000
00000000
00100000
00000000
00000000
00010000
00000000
00000000
00001000
00000000
00000000
00010000
00000000
00000000
00000000
00000100
00000000
00000000
00000000
00001000
00000000
00000000
00000000
,
00000001
00000000
00000000
00000000
00000100
00000000
00000010
00000000
00000000
00000000
00001000
00000000
00000000
00000000
00000001
00000000
00000000
00000000
00000010
00000000
00000000
00001000
00000000
00000000
,
00010000
00000000
00000000
00000100
00000000
00000000
00000000
00000000
00000000
00000000
00000000
00000000
00010000
00000000
00000000
00000000
00001000
00000000
00000000
00000000
00000000
00000000
00000000
00000000
01000000
00000000
00000000
00000000
00010000
00000000
00000000
00000000
00000000
00000000
00000000
00000000
10000000
00000000
00000000
00000000
00100000
00000000
00000000
00000000
00000000
00000000
00000000
00000000
,
00010000
00000000
00001000
00000000
00000000
00000000
00100000
00000000
00010000
00000000
00000000
00000000
10000000
00000000
00000000
00100000
00000000
00000000
10000000
00000000
00000000
00100000
00000000
00000000
,
00010000
00001000
00010000
00001000
00000010
00000100
00001000
00000001
,
00000100
00000001
00001000
00000100
00010000
00001000
01000000
00010000
,
10000000
00100000
01000000
00010000
10000000
01000000
10000000
01000000
,
00010000
00001000
00010000
00001000
00010000
00000100
00001000
00000001
,
00000100
00001000
00000100
00001000
00010000
00100000
01000000
00100000
,
10000000
01000000
00010000
00001000
00010000
02000000
00000000
00100000
,
03100000
00000000
00001000
00010000
00001000
00000200
00000000
00000010
,
00000310
00000000
00010000
00001000
00010000
02000000
00000000
00100000
,
03100000
00000000
00001000
00010000
00001000
00000020
00000000
00000130
,
00001000
00000001
00000100
00001000
00010000
00002000
00000000
00000010
,
00003010
00000000
00000100
00010000
00001000
00020000
00000000
00100000
,
00130000
00000000
01000000
00010000
10000000
00200000
00000000
00010000
,
00310000
00000000
00001000
00010000
00001000
00000020
00000000
00000130
,
00001000
00000000
00000001
00000000
00000100
00000000
00001000
00010000
00001000
00000000
00020000
00000000
00000000
00000000
00031000
00000000
,
00000100
00000002
00000000
00000013
00000100
00020000
00000000
00031000
,
00010000
02000000
00000000
13000000
00100000
02000000
00000000
03100000
,
00010000
00000000
00000000
00002000
00000000
00000000
00000000
00000000
00000000
00013000
00000000
00000000
00001000
00000000
00000010
00000000
00000100
00000000
00001000
00000000
00000000
00000000
00000001
00000000
,
00000100
00001000
00010000
00000100
00010000
00000000
00001000
01000000
00000000
00010000
10000000
00000000
,
01000000
00100000
00000000
00001000
00010000
00001000
01000000
00000000
00010000
10000000
00010000
00000000
,
10100000
00000000
00000000
00000000
00010000
00000000
10000000
00000000
01000000
00000000
00000000
00000000
00010000
00000000
00000000
00001000
00000000
00000000
00000010
00000000
00000000
00000100
00000000
00000000
,
00001000
00000000
00000001
00000000
00000100
00000000
00000001
00000000
00000000
00001000
00000000
00000000
00000001
00000000
00000000
00000010
00000000
00000000
00001000
00000000
00000000
00010000
00000000
00000000
,
00001000
00000000
00100000
00000000
00010000
00000000
10000000
00000000
00000000
00010000
00000000
00000000
10000000
00000000
00000000
00100000
00000000
00000000
00010000
00000000
00000000
00001000
00000000
00000000
,
00000010
00000000
00000100
00000000
00001000
00000000
00000001
00000000
00000100
00000000
00000010
00000000
00001000
00000000
00000000
00000200
00000000
00000000
00001000
00000000
00000000
00010300
00000000
00000000
,
00001000
02000000
00010000
03001000
00010000
00000020
00001000
00010030
,
00001000
00000000
00011000
00000000
00001000
00200000
00010000
00301000
,
00010000
00000020
00001000
00010030
00001000
02000000
00010000
03001000
,
00010000
00000000
00000000
00000000
00000000
00000000
00000000
00000000
00011000
00000000
00000000
00000000
00000000
00000000
00000000
00000000
00001000
00000000
00000000
00000000
00000000
01001000
00000000
00000000
00000000
00000000
00000000
00000000
00000000
00000000
00000000
00000000
,
00000000
00000000
00000000
00000000
,
00000000
00000000
00000000
00000000
00000000
00000000
00000000
00000000
00000000
00000000
00000000
00000000
00000000
00000000
00000000
00000000
00000000
00000000
00000000
00000000
00000000
00000000
00000000
00000000
00000000
00000000
00000000
00000000
00000000
00000000
00000000
00000000
10000000
00000000
00000000
00000000
00000000
00000000
00000000
00000000
00000000
11000000
00000000
00000000
00000000
00000000
00000000
00000000
00000000
00000000
00000000
00000000
00000000
00000000
00000000
00000000
00000000
00000000
00000000
00000000
00000000
00000000
00000000
00000000
,
00000000
00000000
00000000
00000000
,
00000000
00000000
00000000
00000000
00000000
00000000
00000000
00000000
00000000
00000000
00000000
00000000
00000000
00000000
00000000
00000000
00000000
00000000
00000000
00000000
00000000
00000000
00000000
00000000
00000000
00000000
00000000
00000000
00000000
00000000
00000000
00000000
00000000
00000000
00000000
00000000
00000000
00000000
00000000
00000000
00000000
00000000
00000000
00000000
00000000
00000000
00000000
00000000
00000010
00000000
00000000
00000000
00000000
00000000
00000000
00000000
00000000
00000000
00000000
00000000
00000000
00000000
00000000
00002010
00000000
00000000
00000000
00000000
00000000
00000000
00000000
00000000
00000000
00000000
00000000
00000000
00000000
00000000
00000000
00000000
00003001
00000000
00000000
00000000
00000000
00000000
00000000
00000000
00000010
00000000
00000000
00000000
00000000
00000000
00000000
00000000
,
00000001
00000010
00000100
00001000
00000100
00001000
00000100
00010000
00000100
00010000
00001000
00010000
,
00001000
00010000
00001000
01000000
00100000
10000000
00010000
10000000
01000000
10000000
01000000
00010000
,
00001000
00000000
00000010
00000000
00000100
00000000
00001000
00000000
00000001
00000000
00000100
00000000
00001000
00000000
00000000
00000000
00000000
00000000
00000000
00000000
00000000
00010000
00002000
00000000
,
00000000
00000000
00000000
00000000
00000000
00000000
00000000
00000000
00000000
00000000
00000000
00000000
00000000
00000000
00000000
00000000
01003000
00000000
00000000
00000000
00000000
00000000
00000000
00000000
00000000
00000000
00000000
00000000
00000000
00000000
00000000
00000000
00000000
00000000
00010000
20000000
00000000
00000000
00000000
00000000
00000000
00000000
00000000
00000000
00000000
00000000
00000000
00000000
,
00000000
00000000
00000000
31000000
10000000
00100000
01000000
00001000
00000000
00010000
00000000
00000000
,
00000000
00000010
00000220
00000000
00000000
00000000
00000000
00000000
,
00000000
00000000
00000000
00000000
,
00000000
00000000
00000000
00000000
,
00000330
00000000
00000000
00000000
;
