#VERSION:0.83;
#TITLE:alter ego;
#SUBTITLE:(kaya edit);
#ARTIST:Doechii & JT feat. Precious;
#TITLETRANSLIT:;
#SUBTITLETRANSLIT:;
#ARTISTTRANSLIT:;
#GENRE:;
#CREDIT:;
#MUSIC:alter-ego-kaya-edit.mp3;
#BANNER:alter_ego_kaya_edit_bn.png;
#BACKGROUND:alter_ego_kaya_edit_bg.png;
#CDTITLE:;
#SAMPLESTART:36.981;
#SAMPLELENGTH:14.769;
#SELECTABLE:YES;
#OFFSET:-0.112;
#BPMS:0.000=130.000
,79.000=260.000
,79.500=130.000
,79.750=65.000
,80.000=130.000
,160.000=260.000
,160.500=130.000
,160.750=65.000
,161.000=130.000
,183.000=260.000
,183.500=130.000
,183.750=65.000
,184.000=130.000
,247.000=260.000
,247.500=130.000
,247.750=65.000
,248.000=130.000
,311.000=260.000
,311.500=130.000
,311.750=65.000
;
#STOPS:164.500=0.923;
#WARPS:164.500=10.000;
#DISPLAYBPM:130.000;
#BGCHANGES:;
#FGCHANGES:;

//--------------- dance-single - dj kaya* ----------------
#NOTEDATA:;
#STEPSTYPE:dance-single;
#DESCRIPTION:dj kaya*;
#DIFFICULTY:Beginner;
#METER:5;
#RADARVALUES:0,0,0,0,0;
#NOTES:
0000
0000
0000
0000
,
0000
0000
0000
0000
,
0000
0000
0000
0000
,
0000
0000
0000
0000
,
0001
0000
1000
0000
,
0010
0000
0100
0000
,
0001
0000
1000
0000
,
0100
0000
0010
0000
,
0001
0001
0001
0000
,
1000
1000
1000
0000
,
0100
0100
0100
0000
,
0010
0010
0010
0000
,
0001
0100
1000
0100
,
0001
0100
1000
0000
,
1000
0100
0001
0100
,
1000
0100
0001
0000
,
0010
0100
1000
0000
,
0010
0100
0001
0000
,
1000
0100
0010
0000
,
0001
0100
0010
0000
,
1000
1000
1000
0100
,
0001
0100
1000
0000
,
0001
0001
0001
0100
,
1000
0100
0001
0000
,
0010
0010
0010
0000
,
1000
1000
1000
0000
,
0100
0100
0100
0000
,
0001
0001
1001
0000
,
0001
0001
0001
0010
,
1000
0010
0001
0000
,
1000
1000
1000
0010
,
0001
0010
1000
0000
,
0100
0100
0100
0000
,
0010
0010
0010
0110
,
0001
0001
0001
0000
,
1000
1000
1000
0000
,
1000
0001
0100
0000
,
0001
1000
0100
0000
,
0010
0001
0100
0000
,
0010
1000
0100
0000
,
0220
0000
0000
0000
0000
0000
0000
0330
,
0000
0000
0000
0000
,
0000
0000
0000
0000
,
0000
0000
0000
0000
,
2002
0000
0000
3003
,
1000
0001
1000
0000
,
0001
0100
0010
1000
,
0001
0100
0010
1000
,
0001
0010
0100
1000
,
0010
0100
0001
0000
,
1000
0100
0010
0001
,
1000
0100
0010
0001
,
1000
0010
0100
0001
,
0010
0100
1000
0000
,
0010
1000
0100
0000
,
0010
0001
0100
0000
,
0010
1000
0100
0000
,
0010
0001
0100
0000
,
0100
0001
0010
0110
,
0100
1000
0010
0110
,
0001
1000
0001
1000
,
0001
0000
0000
0000
0000
0000
2002
3003
,
1000
0100
1000
0100
,
0001
0100
0001
0000
,
0001
0100
0001
0100
,
1000
0100
1000
1000
,
1000
0010
1000
0010
,
0001
0010
0001
0000
,
0001
0010
0001
0010
,
1000
0010
1000
0000
,
1000
0100
0010
0001
,
1000
1000
1000
0000
,
0001
0100
0010
1000
,
0001
0001
0001
0000
,
0010
0001
1000
0000
,
0010
1000
0001
1001
,
0001
0010
0100
1000
,
0001
0001
0001
0000
;

//--------------- dance-single - dj kaya* ----------------
#NOTEDATA:;
#STEPSTYPE:dance-single;
#DESCRIPTION:dj kaya*;
#DIFFICULTY:Easy;
#METER:7;
#RADARVALUES:0,0,0,0,0;
#NOTES:
0000
0000
0000
0000
,
0000
0000
0000
0000
,
0000
0000
0000
0000
,
0000
0000
0000
0000
,
0001
1000
0001
0001
,
0100
0000
0010
0000
1000
0010
1000
0000
,
0001
0010
0100
0100
,
0010
0000
0001
0000
1000
0001
1000
0000
,
0001
0010
0100
1000
,
0001
0000
0100
0000
0010
1000
0010
0000
,
1000
0001
0010
0100
,
1000
0010
0000
0000
,
0100
0000
0100
0000
0001
1000
0001
0000
,
0010
0100
1000
0001
,
0100
0000
0001
0000
1000
0001
1000
0000
,
0001
0010
0100
0000
,
0010
0000
0001
0000
1000
0100
1000
0000
,
0100
0010
0001
0000
,
1000
0000
0010
0000
0100
0001
0100
0000
,
0010
1000
1001
0000
,
0001
0001
0010
0100
,
1000
0100
1000
0000
1100
0000
1100
0000
,
1000
0001
1000
0010
,
0100
0001
0100
0000
0101
0000
0101
0000
,
0001
0010
0100
0000
,
1000
0010
0100
0000
,
0001
0010
0100
0000
,
0010
0000
0001
0000
1000
0001
1000
0000
,
0010
0100
0001
1000
,
0100
0010
0100
0000
0110
0000
0110
0000
,
0010
0001
1000
0010
,
1000
0001
1000
0000
1001
0000
1001
0000
,
0001
0010
0100
0000
,
1000
0010
0100
0000
,
0001
0100
0010
1000
,
0100
0000
0010
0000
0001
1000
0001
1000
,
0000
1000
0000
0001
0000
0100
0010
0000
,
1000
0000
0001
0000
0010
0010
0100
0000
,
1000
0100
0001
0100
,
1000
0010
0001
0000
,
1001
0000
0000
0000
0001
0010
0100
0000
,
2000
0000
0000
0000
,
0000
0000
0000
0000
,
0000
0000
0000
0000
,
3001
1000
0100
0110
,
0010
0000
0001
0000
1000
0001
1000
0000
,
0010
0010
0100
0001
,
0010
0010
0100
1000
,
0010
0010
0100
0001
,
1000
0000
0001
1000
0001
0000
0001
0000
,
0010
0100
1000
1100
,
1000
0010
0100
0101
,
0001
0010
0100
1000
,
0000
0000
0001
1000
0001
1000
0001
0000
,
0100
0001
0010
0110
,
0100
1000
0010
0110
,
0100
0001
1000
1001
,
1000
0100
0010
0110
,
0010
0001
1000
1010
,
0010
1000
0001
0011
,
0010
0100
1000
0010
,
0100
0000
0001
0000
1000
0001
1000
0000
,
0100
0100
0010
0001
,
0100
0100
0010
1000
,
0001
0001
0010
0100
,
1000
0001
1000
0000
1000
0001
1000
0000
,
0100
0100
0010
0010
,
0001
0000
0001
0000
1000
0010
0100
0000
,
0001
0001
0100
0001
,
0011
1100
0011
1100
,
0001
0000
0001
0000
0010
0100
1000
0000
,
1100
1100
1010
1010
,
1000
0000
1000
0000
0010
0100
0001
0000
,
0101
0101
0011
0011
,
0010
0000
0001
0000
0010
0001
1000
0000
,
0010
0100
0001
1001
,
0001
0010
0100
1000
,
0010
0100
0002
0000
,
0003
0000
0000
0000
;

//--------------- dance-single - dj kaya* ----------------
#NOTEDATA:;
#STEPSTYPE:dance-single;
#DESCRIPTION:dj kaya*;
#DIFFICULTY:Medium;
#METER:11;
#RADARVALUES:0,0,0,0,0;
#NOTES:
0000
0000
0000
0000
,
0000
0000
0000
0000
,
0000
0000
0000
0000
,
0000
0000
0000
0000
,
1000
1000
0001
0001
,
0100
0000
0100
0000
0010
1000
0010
0000
,
1000
1000
0100
0100
,
0010
0000
0010
0000
0001
1000
0001
0000
,
0100
0000
0001
0000
0010
0001
0010
0000
,
0100
0000
1000
0000
0010
1000
0010
0000
,
1000
0000
0001
0000
0010
0100
0010
0000
,
0100
0000
1000
0000
0010
0100
0001
0000
,
0000
0010
0000
0010
0000
1000
0000
1000
,
0000
0001
0000
0001
0000
0100
1000
0001
,
0000
1000
0000
1000
0000
0010
0000
0010
,
0000
0100
0100
0001
0010
0100
1000
0000
,
0000
0001
0000
0001
0000
0100
0000
0100
,
0000
0010
0000
0010
0000
1000
0100
0010
,
0000
0001
0000
1000
0000
0010
0000
0100
,
0000
0001
0001
0010
0010
0100
2000
0000
,
3001
0000
0000
0001
0000
0000
0001
0000
0010
0000
0100
0000
0010
0000
0100
0000
,
1000
1001
1000
1001
,
1000
0000
0000
1000
0000
0000
1000
0000
0010
0000
0100
0000
0010
0000
0100
0000
,
0001
1001
0001
1001
,
0001
0000
0010
0100
1000
0000
2200
3300
,
1000
0000
0010
0100
0001
0000
0202
0303
,
0001
1000
0001
0000
0100
0010
0100
0000
,
0001
0010
0100
1000
0001
0001
0001
0000
,
1000
0000
0000
1000
0000
0000
1000
0000
0100
0000
0010
0000
0001
0000
1000
0000
,
0010
1010
0010
1010
,
0001
0000
0000
0001
0000
0000
0001
0000
0010
0000
0100
0000
1000
0000
0001
0000
,
0100
0101
0100
0101
,
0001
1000
0100
0000
1000
0001
0100
0000
,
0010
1000
0001
0000
0100
0100
0100
0000
,
0001
0000
1000
0100
0000
0000
1000
0000
0001
0100
0000
0000
,
0010
0000
0000
0000
1000
0000
0100
0000
0000
0000
0010
0000
0002
0000
0000
0000
0000
0000
0000
0000
0000
0003
0000
0000
,
0000
1000
0000
0001
0000
0100
0100
0000
,
0010
1000
0001
0000
0010
0000
0110
0000
,
0100
1000
0001
0000
0100
0001
1000
0000
,
0010
1000
0001
0100
,
0220
0330
0000
0000
1000
0001
0010
0000
,
0100
0000
0000
0000
0100
0000
0000
0000
0MM0
M00M
000M
00M0
0M00
0M00
0000
0M00
1001
0000
0000
0000
0000
0000
0000
0000
0000
0000
0000
0000
0000
0000
0000
0000
,
0000
0000
0000
0000
,
0000
0000
0000
0000
,
1001
0000
1000
0001
0010
0001
0100
0000
,
0010
0000
1000
0000
0100
0010
2002
3003
,
0001
0001
0001
0001
,
1000
1000
1000
1000
,
0010
0010
0010
0010
,
0100
0000
0100
0000
0100
0000
0100
0001
,
1000
0100
0010
0011
,
0001
0100
0010
1010
,
1000
1100
0001
0101
,
0000
0000
0100
0010
0100
0100
0100
0000
,
0001
0000
0010
0000
0100
0000
0022
0033
,
1000
0000
0010
0000
0100
0000
2020
3030
,
0001
0000
0100
0000
0010
0000
0202
0303
,
1000
0000
0100
0000
0010
0000
2200
3300
,
0001
0000
0010
0100
1000
0000
0022
0033
,
1000
0000
0010
0100
0001
0000
2020
3030
,
0001
0000
1000
0010
0000
0000
1000
0000
0001
0010
0000
0000
,
0110
0000
1001
0000
1000
0001
0100
0000
,
0010
0001
0010
1000
,
0010
0000
0001
0000
0010
1000
0100
0000
,
1000
0000
0000
1000
0000
0000
1000
0000
0010
0000
1000
0000
0010
0000
1000
0000
,
0001
0000
0101
0000
0001
0001
0001
0000
,
0010
0010
0100
0100
,
1000
0000
0000
0000
1000
0000
0000
0000
0001
0000
0000
0001
0000
0000
0001
0000
,
0100
0100
0010
0010
,
1001
0000
0110
0000
1000
0010
0100
0001
,
1000
1000
1000
1000
,
1010
0101
1010
0101
,
0001
0000
0001
0000
1000
1000
1000
0000
,
0011
1100
0011
1100
,
0001
0010
0100
0000
1000
0010
0100
0000
,
0001
0010
0100
0000
0010
0000
1001
0000
,
1000
0000
0001
0100
0000
0000
0001
0000
1000
0100
0000
0000
,
0010
0000
0000
0000
0001
0000
1000
0000
0000
0000
0010
0000
0100
0000
0000
0001
0000
0000
1001
0000
0000
0000
0000
0000
;

//--------------- dance-single - dj kaya* ----------------
#NOTEDATA:;
#STEPSTYPE:dance-single;
#DESCRIPTION:dj kaya*;
#DIFFICULTY:Hard;
#METER:13;
#RADARVALUES:0,0,0,0,0;
#NOTES:
0000
0000
0000
0000
,
0000
0000
0000
0000
,
0000
0000
0000
0000
,
0001
0000
1000
0000
0010
0100
0001
1000
,
0001
0000
0000
0000
0010
0000
0000
0100
0000
0000
0100
0000
0000
0000
1000
0000
,
0010
0000
0000
0000
0100
0000
0000
0001
0000
0000
0000
0000
0000
0000
0000
0000
,
1000
0000
0000
0000
0100
0000
0000
0010
0000
0000
0010
0000
0000
0000
0001
0000
,
0100
0000
0000
0000
0010
0000
0000
1000
0000
0000
0000
0000
0000
0000
0000
0000
,
0002
0000
0000
0000
1003
0000
0000
0010
0000
0000
0010
0000
0100
0000
0001
0000
,
1000
0000
0000
0000
0100
0000
0000
0010
0001
0000
0001
0000
1000
0000
0000
0000
,
1000
0000
0000
0000
0100
0000
0000
0010
0001
0000
1000
0000
0100
0000
1000
0000
,
0001
0000
0000
0000
0010
0000
0000
0200
0000
0000
0000
0000
0300
0000
0000
0000
,
1001
0000
0000
0000
1000
0000
0010
1000
0000
1000
0010
0000
0100
0000
0001
0000
,
0010
0000
0000
0000
0100
0000
0010
0001
0000
0001
0020
0000
0000
0000
0130
0000
,
0110
0000
0000
0000
1000
0000
0001
1000
0000
1000
0001
0000
0010
0000
0001
0000
,
1000
0000
0000
0000
0100
0000
0010
0001
1000
0000
0200
0000
0000
0000
0310
0000
,
0011
0000
0000
0000
0001
0000
1000
0010
0000
0010
0100
0000
0001
0000
0010
0000
,
0100
0000
0000
0000
1000
0000
0001
0100
0000
0100
0020
0030
0020
0030
0020
0030
,
1001
0000
0000
0000
1000
0000
0001
0010
0000
0100
1000
0000
0001
0000
1000
0000
,
0010
0000
0010
0000
0100
0000
0001
1000
0100
0000
0110
0000
2001
0000
0000
0000
,
3001
0010
0000
0001
0010
0000
1000
0000
0001
0000
0100
0000
1000
0000
0010
0000
,
0001
0020
1000
0000
0031
0020
1000
0000
,
1030
0100
0000
1000
0100
0000
0001
0000
1000
0000
0010
0000
0001
0000
0100
0000
,
1000
0200
0001
0000
1300
0200
0001
0000
,
0301
0000
0000
0000
0010
0100
0010
0000
1000
0000
0010
0000
0002
0000
0000
0000
,
1003
0000
0000
0000
0010
0100
0010
0000
0001
0000
0010
0000
2000
0000
0000
0000
,
3010
0000
0010
0000
0010
0000
0000
1000
0001
0000
1000
0000
0010
0000
0000
0100
,
0000
0100
0010
0100
0001
0000
1000
0001
0000
0001
0000
0001
0020
0000
0000
0000
,
0130
0001
0000
0100
0001
0000
1000
0000
0010
0000
0001
0000
0100
0000
1000
0000
,
0100
0002
0010
0000
0103
0002
0010
0000
,
0013
1000
0000
0010
1000
0000
0001
0000
0100
0000
0100
0000
1000
0000
0010
0000
,
0010
2000
0100
0000
3010
2000
0100
0000
,
3001
0010
0100
0000
1000
0010
0100
0000
,
0001
0000
1000
0000
0100
0000
0010
0001
0000
0001
0000
0001
2000
0000
0000
0000
,
3001
1000
0001
1000
0001
1000
0010
0100
0010
0100
0000
0000
,
0001
0000
0010
0000
0100
0000
1000
0000
0010
0000
0100
0000
0002
0000
0000
0023
0000
0000
0230
0000
0000
2300
0000
0000
,
3000
1000
1000
0001
0001
0010
0100
0000
,
0010
0001
0010
0000
0001
0000
1000
0001
1000
0000
0010
0000
0100
0000
0000
0000
,
0010
0000
0000
0010
1000
0000
0100
0000
0010
0100
0010
0000
0002
0000
0000
1003
,
0100
0010
0001
1000
2000
3100
0200
0300
,
0022
0033
0001
1000
0010
0001
0010
0000
,
0100
0000
0000
0000
0000
0000
0100
0000
0000
00M0
0000
0000
M00M
0000
000M
0000
M00M
0000
000M
0000
00M0
0000
0000
0000
0001
0000
0000
1000
0000
0000
0001
0000
0000
0000
0000
0000
0000
0000
0000
0000
0000
0000
0000
0000
0000
0000
0000
0000
,
0000
0000
0000
0000
,
0000
0000
0000
0000
0000
0000
0000
0000
0000
0000
0000
0000
0000
0000
0001
1000
,
0001
0000
0010
0000
0100
0000
0010
0100
1000
0000
0001
0000
1000
0000
0000
0010
,
0000
0010
0100
0000
0001
0000
0001
0010
0000
0010
0100
0000
2002
0000
3003
0000
,
1000
0100
0010
0001
,
1000
0000
0001
0000
0010
0000
0100
0100
,
1000
0010
0100
0001
,
1000
0000
0001
0001
0100
0000
0010
1000
,
0001
0000
0010
0000
0100
1000
0100
0000
1000
0100
1000
0000
0010
0000
0000
0000
,
1000
0000
0010
0000
0100
0001
0100
0000
0001
0100
0001
0000
0010
0000
0000
0000
,
0001
0000
0010
0000
0100
1000
0100
0000
1000
0000
0010
0000
0100
0001
0100
0000
,
0000
0000
0000
0000
0001
1000
0001
1000
0001
0000
0100
0000
0010
0000
0000
0000
,
1000
0000
0010
1000
0010
0000
0200
0000
1000
0000
0000
0000
0301
0000
0000
0000
,
0001
0000
0010
0100
0010
0000
0200
0000
0001
0000
0000
0000
1300
0000
0000
0000
,
1000
0000
0100
0010
0100
0000
0020
0000
1000
0000
0000
0000
0031
0000
0000
0000
,
0001
0100
0100
0020
0001
0000
1030
0000
,
0010
0000
0010
1000
0100
0000
0200
0000
0001
0000
0000
0000
1000
0000
0000
0000
,
0310
0000
0010
0001
0100
0000
0200
0000
1000
0000
0000
0000
0001
0000
0000
0000
,
0310
1000
0010
1000
0010
1000
0001
0100
0001
0100
0001
0100
,
0010
0000
0000
0000
1000
0000
0000
0000
0001
0010
0100
1000
0001
0000
0000
0000
,
0100
0000
0000
0000
0110
0000
0000
0010
1000
0000
0001
0000
1000
0000
0100
0000
,
0010
0000
0000
0000
0001
0000
0000
1000
0010
0000
0100
0000
2002
0000
3003
0000
,
1000
0010
0000
1000
0010
0000
0001
0000
1000
0000
0100
0000
0010
0000
0100
0000
,
0001
0000
0020
0000
1000
0000
0000
0000
0031
0000
0001
0000
0010
0100
0010
0100
,
1000
0000
0000
0000
1001
0000
0000
1000
0100
0000
0010
0000
0001
0000
1000
0000
,
0010
0000
0100
0000
0002
0000
0000
0000
1003
0010
1000
0010
0100
0000
0010
1000
,
0001
0000
0010
0000
0110
0000
0000
0001
1000
0000
0010
0000
0110
0000
0000
0100
,
0002
0000
0003
0000
2000
0000
3000
0000
0001
1000
0001
1000
0010
0100
0010
0100
,
0001
0000
1000
0000
0010
1000
0100
1000
,
0020
0001
1000
0001
,
1030
0000
0001
0000
0010
0001
0100
0001
,
0020
1000
0001
1000
,
0031
1000
0010
0100
,
0001
0000
0000
0000
1000
0000
0100
0010
0000
0010
0000
0000
0022
0000
0033
0000
,
1000
0010
1000
0010
1000
0010
0100
0001
0100
0001
0000
0000
,
0001
0000
0010
0000
0100
0000
1000
0000
0010
0000
0100
0000
0001
0000
0000
1000
0000
0000
2002
0000
0000
0000
0000
0000
,
3003
0000
0000
0000
;

//--------------- dance-single - dj kaya* ----------------
#NOTEDATA:;
#STEPSTYPE:dance-single;
#DESCRIPTION:dj kaya*;
#DIFFICULTY:Challenge;
#METER:15;
#RADARVALUES:0,0,0,0,0;
#NOTES:
0000
0000
0000
0000
,
0000
0000
0000
0000
,
MMMM
0000
MMMM
0000
,
0002
0003
0000
0000
0000
0000
0000
0000
2000
3000
0000
0000
0000
0000
0000
0000
0020
0030
0000
0000
0200
0300
0000
0000
0002
0003
2000
3000
0002
0003
2000
3000
,
0002
0003
0000
0000
0010
0000
0000
0000
0100
0000
0000
0000
0001
0000
0000
0000
0100
0000
0000
0000
0010
0000
0000
0000
0001
0000
0000
0000
1000
0000
0000
0000
,
0010
0000
0100
0000
1000
0000
0100
0010
0100
0000
0001
0000
1000
0000
0100
0010
,
0001
0010
0100
0001
0100
1000
0001
1000
,
0010
0100
0001
1000
0010
0010
0001
0010
,
0010
0100
0001
1000
0100
0100
0010
0000
,
1000
0000
0010
0000
0001
0000
1000
0001
0010
0000
0010
0000
0100
0000
0001
0000
,
0100
1000
0010
0001
0010
0010
0100
0010
,
0010
0001
0001
0010
1000
1000
0100
0M00
,
0000
0001
0100
0010
0100
1000
0100
0010
,
0100
0001
0010
0100
0010
1000
0010
0100
,
0010
0001
1000
0010
1000
0001
1000
0100
,
1000
0000
0010
0000
0100
0000
0001
0010
0100
1000
0010
0000
0100
0000
0001
1000
,
0001
1000
0100
0010
0100
0002
0203
2300
,
3000
0010
0100
0010
0001
2000
3200
0302
,
0003
0010
0100
0010
1000
0010
0100
0010
,
0001
0000
1000
0000
0001
0000
0100
0010
0100
0000
0110
0000
2002
0000
3003
0000
,
1000
0010
0000
0010
0100
0000
1000
0000
0100
0000
0100
0000
0002
0003
1000
0000
,
0001
0010
0100
0M00
0001
0010
0100
0M00
,
0001
0010
0000
0010
0100
0000
0001
0000
0100
0000
0100
0000
2000
3000
0001
0000
,
1000
0010
0100
0M00
1000
0010
0100
0M00
,
2000
0000
0000
0000
3010
0100
0010
1000
0001
0000
0010
0000
0120
0000
0000
0000
,
0031
0000
1000
0000
0100
0010
0100
1000
0001
0000
0100
0000
0210
0000
0000
0000
,
0301
1000
0001
0000
0100
0000
0001
1000
0001
0000
0011
0000
1100
0000
0000
0002
,
0000
0013
0100
1000
0001
0000
0100
0010
1000
0001
1000
0001
0020
0000
0000
0000
,
0031
0100
0000
0100
0010
0000
0001
0000
0010
0000
0010
0000
2000
3000
0001
0000
,
1000
0100
0010
00M0
1000
0100
0010
00M0
,
1000
0100
0000
0100
0010
0000
1000
0000
0010
0000
0010
0000
0001
0000
1000
0000
,
0001
0100
0010
00M0
0001
0100
0010
00M0
,
1001
0000
0000
0000
1000
0010
1000
0001
0100
0000
0001
0000
0022
0000
0033
0000
,
1000
0000
0001
0000
0010
0000
0100
0010
0100
1000
0001
1000
0020
0000
0000
0000
,
1030
0000
0010
0000
1000
0000
0001
0000
0100
0000
0001
0000
1000
0000
0010
0000
0100
0000
0001
0000
0000
0000
1000
0001
,
1000
0000
0000
0000
0100
0000
0000
0000
0010
0000
0000
0000
0001
0000
0000
0000
0100
0000
0000
0000
0010
0000
0000
0000
1000
0000
0000
0001
0000
0000
1000
0000
0000
0001
0000
0000
1000
0000
0000
0001
0000
0000
1000
0000
0000
0001
0000
0000
,
0000
2000
3100
0002
0103
0110
1001
0000
,
0001
1000
0001
0100
0010
0000
0100
0010
1000
0000
0001
0000
2000
0000
0000
0000
,
3100
0010
0000
0001
1000
0001
0010
0000
0100
1000
0001
0000
0200
0000
0000
0301
,
1000
0000
0000
0000
0000
0000
0010
0000
0000
0000
0000
0000
0100
0000
0000
0000
0000
0000
0000
0000
0000
0000
0000
0000
0010
0000
0000
0000
0000
0000
0000
0000
0000
0000
0000
0000
0001
0000
0000
0000
0000
0000
0000
0000
0000
0000
0000
0000
2000
0000
3000
0000
0000
0000
000M
0000
0000
000M
0000
0000
020M
0000
0300
000M
0000
0000
0000
0000
0000
0000
0000
0000
0002
0000
0003
0000
0000
0000
MM00
0000
0000
0M00
0000
0000
MM20
0000
0030
M000
0000
0000
MM00
0000
0000
0000
0000
0000
,
0021
0000
1030
0001
0100
1000
0100
0000
,
1000
0000
0000
0000
0001
0000
0000
0000
M0M0
MM0M
MM0M
MM0M
M0M0
0000
0000
0000
0001
0000
1000
0000
0001
0000
0000
0000
0000
0000
0000
0000
0000
0000
0000
0000
,
0000
0000
0000
0000
,
0000
0000
0000
0000
0000
0000
0000
0000
0000
0000
0000
0000
0000
0000
0001
1000
,
0001
0000
0010
0000
0100
0010
0100
1000
0001
0000
0001
1000
0010
0000
0000
0001
,
0000
0010
0100
0000
0001
0000
1000
0100
0000
0010
0001
0000
2002
0000
3003
0000
,
1000
0001
0010
0010
,
1000
0001
0100
0100
,
1000
0001
0010
0010
,
0001
0000
0010
0010
1000
0000
0010
0001
,
1000
0000
0001
0000
1000
0100
0010
0000
100M
0100
0010
0000
0011
0000
0000
0000
,
0001
0000
1000
0000
0001
0100
0010
0000
M001
0100
0010
0000
1010
0000
0000
0000
,
0001
0000
1000
0000
0100
0010
0001
0000
1000
0000
0001
0000
0100
0010
1000
0000
,
0000
0000
0000
0000
0001
0010
0100
1000
0010
0000
0010
0000
0100
0000
0100
0000
,
0010
0000
1000
0001
0010
0000
0010
0000
0200
0000
0000
0000
M0MM
0000
0000
0000
,
0310
0000
1000
0001
0100
0000
0100
0000
0020
0000
0000
0000
MM0M
0000
0000
0000
,
0130
0000
1000
0001
0100
0000
0100
0000
0010
0000
0020
0000
MM0M
0000
0000
0000
,
1030
0010
0010
0100
0200
0000
M0MM
0000
,
0301
0000
0100
0010
0001
0000
0001
0000
0021
0000
0000
0000
MM0M
0000
0000
0000
,
1030
0000
0010
0100
1000
0000
1000
0000
1200
0000
0000
0000
M0MM
0000
0000
0000
,
0310
0100
0001
0010
0100
1000
0001
0100
0010
1000
0100
0010
,
0001
0000
0000
0000
1000
0000
0000
0000
0001
0100
0010
1000
0002
0000
0000
0000
,
2003
0000
0000
0000
3001
0000
0010
0100
0010
0001
1000
0000
0010
0000
0100
0000
,
0001
0000
1000
0000
0100
0000
0000
0010
0001
0000
1000
0000
2002
0000
3003
0000
,
0001
0010
0000
0010
1000
0000
0001
0000
0100
0000
0100
0000
2000
3000
0001
0000
,
1000
0000
0010
0000
0001
0000
000M
0000
1000
0000
1000
0000
0010
0100
0010
0100
,
0002
0000
0000
0000
1003
0000
0100
0010
0100
1000
0001
0000
0010
0000
0100
0000
,
1000
0000
0000
0000
0001
0000
0000
0000
1000
0000
0010
0000
0100
0000
0001
0100
0001
0000
1000
0000
0001
0000
1000
0000
0010
0000
0000
0000
0100
0000
0001
0000
,
2000
0000
0010
0000
3010
0000
0100
0001
2000
0000
0100
0000
3100
0000
0010
0001
,
2000
3000
0001
0100
0020
0030
0100
0001
1000
0001
1000
0001
1000
0100
0010
0001
,
1000
0010
0000
1000
0010
0000
0001
0000
1000
0000
0100
0000
0010
0000
0100
0000
,
0001
0010
0100
0M00
0001
0010
0100
0M00
,
0001
0010
0000
0001
0010
0000
1000
0000
0001
0000
0001
0000
0001
0000
0100
0000
,
1000
0010
0100
0M00
1000
0010
0100
0M00
,
0000
1000
0001
0010
00M0
1000
0001
0010
,
00M0
0000
1000
0000
0001
0000
0010
0100
0000
0100
0000
0000
2002
0000
3003
0000
,
0001
0000
0010
0000
0001
0000
1000
0000
0010
0000
1000
0000
0001
0000
1000
0000
0010
0000
0200
0000
0300
0000
0001
1000
,
0001
0000
1000
0000
0010
0000
0100
0000
1000
0000
0100
0000
0001
0000
0000
0010
0000
0000
0220
0000
0000
0000
0000
0000
,
0000
0000
0000
0000
0000
0000
0000
0000
0000
0000
0000
0330
0000
0000
0000
0000
0000
0000
00M0
0000
00M0
0000
00M0
0000
0000
0000
0000
0000
0000
0000
0000
0000
;

//--------------- dance-double - dj kaya* ----------------
#NOTEDATA:;
#STEPSTYPE:dance-double;
#DESCRIPTION:dj kaya*;
#DIFFICULTY:Challenge;
#METER:16;
#RADARVALUES:0,0,0,0,0;
#NOTES:
000000000
000000000
000000000
000000000
,
000000000
000000000
000000000
000000000
,
MMMM00000
000000000
0000MMMM0
000000000
,
000100000
000000000
000000000
000000000
000010000
000000000
000000000
000000000
000100000
000000000
000010000
000000000
000100000
000010000
000100000
000010000
,
001000000
010000000
000100000
000010000
010000000
001000000
010000000
000100000
,
001000000
000000000
010000000
000000000
000100000
000000000
000010000
000100000
000010000
000000000
000000100
000000000
000001000
000000000
000010000
000000100
,
000010000
000000100
000001000
000010000
000100000
001000000
010000000
000010000
,
000100000
010000000
001000000
000100000
000000100
000010000
000100000
000000100
,
000010000
000100000
000010000
000000100
000100000
000010000
001000000
000000000
,
010000000
000000000
000100000
000000000
000010000
000000000
000001000
000000100
000010000
000000000
000000100
000000000
000100000
000000000
000010000
000000000
,
000001000
000000100
000100000
000010000
001000000
010000000
000100000
000010000
,
000001000
000000100
000100000
000010000
001000000
000010000
000000100
MMMM00000
,
000000000
000000010
000001000
000000010
000001000
000000100
000010000
000000100
,
000010000
000000000
000001000
000000000
000100000
000000000
000010000
000100000
000010000
000000000
001000000
000000000
000100000
000000000
001000000
000000000
,
010000000
100000000
001000000
100000000
001000000
010000000
000100000
010000000
,
000100000
000000000
001000000
000000000
000010000
000000000
000100000
000010000
000100000
000000000
000000100
000000000
000001000
000000000
000000010
000000000
,
000000000
000000100
000001000
000010000
000100000
000000200
000020300
000230000
,
000300000
010000000
001000000
000100000
000010000
020000000
030200000
000320000
,
000030000
000000100
000000010
000001000
000010000
000100000
001000000
100000000
,
010000000
000000000
001000000
000000000
001000000
000000000
000010000
000100000
000000100
000000000
000001100
000000000
000020020
000000000
000030030
000000000
,
000000010
000000100
000000000
000000100
000010000
000000000
000000010
000000000
000001000
000000000
000010000
000000000
000100000
000000000
001000000
000000000
,
100000000
001000000
000200000
000300000
100000000
010000000
000200000
000300000
,
100000000
001000000
000000000
001000000
000100000
000000000
100000000
000000000
010000000
000000000
000100000
000000000
000010000
000000000
000001000
000000000
,
000000010
000001000
000020000
000030000
000000010
000000100
000010000
000000100
,
000000010
000000000
000010000
000000000
000001000
000000100
000001000
000000100
000010000
000000000
000100000
000000000
022000000
000000000
033000000
000000000
,
100000000
000000000
000100000
000000000
010000000
001000000
010000000
001000000
000100000
000000000
000010000
000000000
000002200
000000000
000003300
000000000
,
000000010
000010000
000000010
000000000
000001000
000000000
000000100
000010000
000001000
000000000
000100000
000000000
000010000
000000000
000000000
001000000
,
000000000
001000000
010000000
001000000
000100000
000000000
100000000
001000000
010000000
000010000
000100000
000010000
002000000
000000000
003000000
000000000
,
100000000
001000000
000000000
001000000
000100000
000000000
100000000
000000000
010000000
000000000
000100000
000000000
000010000
000000000
000000100
000000000
,
000000010
000001000
000020000
000030000
000000010
000000100
000020000
000030000
,
000000010
000000100
000000000
000000100
000010000
000000000
000000010
000000000
000001000
000000000
000010000
000000000
000100000
000000000
001000000
000000000
,
100000000
001000000
000200000
000300000
100000000
010000000
000200000
000300000
,
100000000
001000000
010000000
100000000
000100000
010000000
001000000
000100000
,
000010000
000000000
001000000
000000000
000100000
000000000
000010000
000001000
000000010
000001000
000000010
000001000
000000200
000000000
000000300
000000000
,
000000100
000000000
000000010
000000000
000010000
000000000
000001000
000000000
000010000
000000000
000000100
000000000
000100000
000000000
000010000
000000000
001000000
000000000
020000000
000000000
000000000
030000000
000000000
000000000
,
001000000
000000000
000000000
000000000
000010000
000000000
000000000
000000000
000100000
000000000
000000000
000000000
000000100
000000000
000000000
000000000
000100000
000000000
000000000
000000000
000010000
000000000
000000000
000000000
001000000
000000000
000000000
000010000
000000000
000000000
001000000
000000000
000000000
000010000
000000000
000000000
000100000
000000000
000000000
000000100
000000000
000000000
000100000
000000000
000000000
000000100
000000000
000000000
,
000000000
000200000
000000100
000320000
001000000
000130000
000010000
000000000
,
001000000
000100000
010000000
000100000
010000000
000000000
000010000
000100000
000010000
000000000
000100000
000000000
000000200
000000000
000000300
000000000
,
000001000
000000100
000000000
000100000
000010000
000100000
000001000
000000000
000000100
000001000
000100000
000000000
000020000
000000000
000000000
001030000
,
000100000
010000000
000010000
000000000
000100000
000000000
000000100
000000000
000202000
000303000
000000000
000000000
020200000
030300000
000000000
000000000
,
200200000
300300000
000000000
000000000
100000000
000000000
001000000
000000000
100000000
000000000
000100000
000000000
010000000
000000000
000000000
000000000
,
000010000
000000000
000100000
000000000
00M00MM00
00M0M00M0
00M0M00M0
00M00MM00
000100000
000010000
000100000
000010000
000000000
000000000
000000000
000000000
,
000000000
000000000
000000000
000000000
,
000000000
000000000
000000000
000000000
000000000
000000000
000000000
000000000
000000000
000000000
000000000
000000000
000000000
000000000
000100000
000010000
,
000100000
000010000
000000100
000000000
000001000
000000100
000001000
000010000
000000010
000000000
000001000
000000000
000200000
000000000
000000000
000310000
,
000000000
000010000
001000000
000000000
100000000
000000000
100000000
010000000
000000000
001000000
000100000
000000000
200200000
000000000
300300000
000000000
,
100000000
000000000
000100000
000000000
000020000
000030000
000000020
000000030
,
000000010
000000000
000010000
000000000
000200000
000300000
200000000
300000000
,
100000000
000000000
000100000
000000000
000020000
000030000
000000020
000000030
,
000000010
000000000
000000100
000000010
000001000
000000000
000010000
000100000
,
001000000
000000000
100000000
000000000
010000000
100000000
010000000
000000000
001000000
010000000
001000000
000000000
000010000
000000000
000000000
000000000
,
000100000
000000000
000000100
000000000
000001000
000000010
000001000
000000000
000000100
000010000
000000100
000000000
000100000
000000000
000000000
000000000
,
000010000
000000000
000100000
000000000
001000000
010000000
001000000
000000000
100000000
000000000
010000000
000000000
001000000
010000000
001000000
000000000
,
000000000
000000000
000000000
000000000
000010000
000100000
000010000
000100000
000001000
000000000
000000100
000000000
000000010
000000000
000010000
000000000
,
000001100
000000000
000000010
000001000
000010000
000000000
000010000
000000000
000200000
000000000
000000000
000000000
100000000
000000000
000300000
000000000
,
011000000
000000000
100000000
010000000
000100000
000000000
000100000
000000000
000020000
000000000
000000000
000000000
000000010
000000000
000030000
000000000
,
000001100
000000000
000000010
000001000
000010000
000000000
000010000
000000000
000100000
000000000
000200000
000000000
100000000
000000000
000300000
000000000
,
011000000
100000000
010000000
000100000
000020000
000000000
000000010
000030000
,
000001100
000000000
000000010
000000100
000010000
000000000
000010000
000000000
000200000
000000000
000000000
000000000
100000000
000000000
000300000
000000000
,
011000000
000000000
100000000
001000000
000100000
000000000
000100000
000000000
000020000
000000000
000000000
000000000
000000010
000000000
000030000
000000000
,
000000100
000000010
000001000
000000100
000010000
000001000
000100000
000010000
001000000
000100000
010000000
001000000
,
100000000
000000000
000000000
000000000
100100000
000000000
000000000
000000000
100000000
010000000
001000000
000100000
020000000
000000000
000000000
000000000
,
031000000
000000000
000000000
000000000
100000000
000000000
001000000
100000000
001000000
010000000
000100000
000000000
001000000
000000000
000010000
000000000
,
000100000
000000000
000000000
000000000
010000000
000000000
001000000
000100000
001000000
000010000
000100000
000000000
000220000
000000000
000330000
000000000
,
000010000
000001000
000000000
000001000
000000010
000000000
000010000
000000000
000001000
000000000
000000010
000000000
000001000
000000000
000010000
000000000
,
000100000
000000000
001000000
000000000
200000000
000000000
300000000
000000000
001000000
000000000
000010000
000000000
000100000
000010000
000100000
000010000
,
000002000
000000000
000000000
000000000
000003100
000000000
000010000
000000010
000001000
000000100
000001000
000000000
000000010
000000000
000000100
000000000
,
000001000
000000000
000000000
000000000
000000000
000000000
000000000
000000000
000010000
000000000
000000010
000000000
000010000
000000000
000001000
000010000
000001000
000000000
000100000
000000000
000010000
000000000
010000000
000000000
001000000
000000000
000000000
000000000
100000000
000000000
001000000
000000000
,
200000000
000000000
000100000
000000000
300100000
000000000
100000000
010000000
000200000
000000000
000010000
000000000
000310000
000000000
000000100
000001000
,
000010000
000000000
000100000
001000000
010000000
000000000
010000000
001000000
000100000
010000000
001000000
010000000
000010000
000100000
000000100
000010000
,
000000010
000001000
000000000
000001000
000010000
000000000
000000010
000000000
000000100
000000000
000010000
000000000
000100000
000000000
010000000
000000000
,
100000000
010000000
000200000
000000000
100300000
001000000
000200000
000000000
,
100300000
010000000
000000000
010000000
000100000
000000000
100000000
000000000
001000000
000000000
000100000
000000000
000010000
000000000
000000100
000000000
,
000000010
000000100
000020000
000030000
000000010
000001000
000020000
000030000
,
000000000
000000100
000010000
000100000
000000000
001000000
000100000
000010000
,
000000000
000000000
000000100
000000000
000010000
000000000
000010000
000100000
000000000
000000100
000000000
000000000
000220000
000330000
000000000
000000000
,
000100000
000000000
000010000
000000000
010000000
000000000
001000000
000000000
010000000
000000000
000010000
000000000
000100000
000000000
000000100
000000000
000010000
000000000
000000020
000000000
000000000
000000030
000000000
000000000
,
000001000
000000000
000000100
000000000
000001000
000000000
000010000
000000000
000100000
000000000
001000000
000000000
100000000
000000000
000000000
000100000
000000000
000000000
100100000
000000000
000000000
000000000
000000000
000000000
;
