#TITLE:ZËNITH;
#SUBTITLE:;
#ARTIST:TЁЯRA;
#TITLETRANSLIT:ZENITH;
#SUBTITLETRANSLIT:;
#ARTISTTRANSLIT:TERRA;
#GENRE:;
#CREDIT:;
#MUSIC:ZENITH.ogg;
#BANNER:;
#BACKGROUND:;
#CDTITLE:;
#SAMPLESTART:42.930;
#SAMPLELENGTH:15.000;
#SELECTABLE:YES;
#OFFSET:0.964;
#BPMS:0.000=190.000;
#STOPS:;
#BGCHANGES:;
#FGCHANGES:;

//--------------- dance-single - ----------------
#NOTES:
     dance-single:
     :
     Beginner:
     5:
     0,0,0,0,0:
0000
0000
0000
0000
,
0000
0000
0000
0000
,
0002
0000
0003
0000
,
2000
0000
3000
0000
,
0001
0000
0100
0000
,
0010
0000
1000
0000
,
0001
0000
0001
0000
,
1000
0000
1000
0000
,
0100
0000
0100
0000
,
0200
0000
0000
0000
,
0000
0000
0300
0000
,
1000
0000
0000
0000
,
0010
0000
0000
0000
,
0100
0000
0000
0000
,
0001
0000
0000
0000
,
0010
0010
0010
0000
,
0010
0000
0010
0000
,
0100
0100
0100
0000
,
0100
0000
0000
0000
,
1000
1000
1000
0000
,
0001
0001
0001
0000
,
1000
1000
0010
0000
,
0100
0100
0001
0000
,
1000
1000
1000
0000
,
0001
0001
0001
0000
,
0100
0000
0020
0000
,
0030
1000
1000
1000
,
0001
0000
0010
0000
,
0001
0000
1000
0000
,
0100
0000
1000
0000
,
0010
0010
0010
0000
,
1000
0000
1000
0000
,
0010
0000
0010
0000
,
0100
0000
0100
0000
,
2002
0000
3003
0000
,
0001
0000
1000
0000
,
0001
0000
1000
0000
,
0100
0000
0010
0000
,
0100
0000
0010
0000
,
0001
0001
0100
0000
,
1000
1000
0100
0000
,
0001
0001
0010
0000
,
1000
1000
0010
0000
,
1000
0000
0100
0000
,
1000
0000
0010
0000
,
0100
0000
0001
0000
,
0010
0000
0001
0000
,
2000
0000
3000
0000
,
0002
0000
0003
0000
,
0200
0000
0300
0000
,
0010
0010
0010
0000
,
1001
0000
0000
1000
,
1001
0000
0000
1000
,
1001
0000
0110
0000
,
2002
0000
3003
0000
,
1000
1000
0100
0000
,
1000
1000
0100
0000
,
0010
0010
0001
0000
,
0010
0010
0001
0000
,
2000
0000
3000
0000
,
0002
0000
0003
0000
,
0200
0000
0300
0000
,
0020
0000
0030
0000
,
1000
1000
1000
0000
,
0001
0001
0001
0000
,
0100
0100
0100
0100
,
0010
0010
0010
0010
,
0020
0000
0030
1000
,
2000
0000
3000
0001
,
0002
0000
0003
0010
,
0010
0010
0010
0000
,
0001
0001
0001
0000
,
1000
1000
1000
0000
,
0010
0010
0010
0010
,
0020
0000
0030
0000
,
1000
0000
0001
0000
,
1000
0000
0001
0000
,
0100
0000
0010
0000
,
0100
0000
0010
0000
,
1000
1000
0100
0000
,
0001
0001
0100
0000
,
1000
1000
0010
0000
,
0001
0001
0010
0000
,
0001
0000
0100
0000
,
0001
0000
0010
0000
,
0100
0000
1000
0000
,
0010
0000
1000
0000
,
0002
0000
0003
0000
,
2000
0000
3000
0000
,
0200
0000
0300
0000
,
0010
0010
0010
0000
,
0001
0001
0010
0000
,
1000
1000
0010
0000
,
0001
0001
0100
0000
,
2000
0000
3000
0000
,
0020
0000
0030
0000
,
2002
0000
0000
0000
,
3003
0000
0000
0000
;

//--------------- dance-single - ----------------
#NOTES:
     dance-single:
     :
     Easy:
     9:
     0,0,0,0,0:
0000
0000
0000
0000
,
0000
0000
0000
0000
,
2000
0000
0000
3000
,
0002
0000
0000
0103
,
0010
0000
1000
0001
0000
0001
0000
2000
,
0000
3100
0100
0010
,
0002
0000
0203
0000
,
0320
0000
2030
0000
,
3001
0000
0010
0100
0000
0100
0000
2002
,
0000
0000
0000
0000
,
0000
0000
0000
3003
,
1000
0000
1000
0000
,
0001
0000
0001
0000
,
1000
0000
0100
0000
,
0001
0000
0000
0000
0100
0000
0000
1000
,
1000
1000
0010
0100
,
0001
0001
0010
0100
,
1000
0010
0100
0001
,
0000
1000
0001
1000
0001
0000
0000
0000
,
1000
0100
1000
0001
,
0100
0010
0100
0001
,
0010
0100
1000
0001
,
0020
0032
2003
3200
,
1300
0010
0100
0100
,
0010
0010
1000
0001
,
2000
0000
0000
0001
0002
0000
0000
0000
,
3003
1000
1000
1000
,
0001
0001
1000
1000
,
0010
1000
0001
0100
,
0200
0010
1000
0310
,
0002
1000
0100
1003
,
2000
0000
3000
0000
0001
0100
0010
0000
,
2000
3200
2300
3020
,
0130
0001
1000
0100
,
2002
0000
0000
3003
,
1000
0000
1000
0000
1000
0100
0001
0000
,
0001
0000
0001
0000
0001
0100
1000
0000
,
0010
0010
0100
0010
,
1000
0100
1000
0000
0001
0010
0001
0000
,
0200
0000
0300
0000
0001
0010
0001
0000
,
2000
0000
3000
0000
0100
1000
0100
0000
,
1000
0010
0100
0001
,
0010
0011
0110
1100
,
1000
0000
0100
0020
0001
0000
0031
0000
,
0100
0000
0001
2000
0100
0000
3100
0000
,
0100
0000
1000
0002
0100
0000
0103
0000
,
0010
0000
1000
0200
0010
0000
0310
0000
,
0002
0100
0100
0103
,
0020
2030
3002
0023
,
0130
1000
0001
0010
,
0002
0000
0203
0000
0320
0000
1030
0001
,
2000
0000
0000
0000
3000
0000
0001
0010
,
0002
0000
0000
0000
0003
0000
1000
0100
,
1000
0000
0001
0100
0000
0100
0000
0020
,
0000
0000
0000
0000
0030
0000
1000
0020
,
0100
0000
0130
0000
0010
0000
1000
0002
,
0010
0000
0013
0000
0100
0000
1000
0200
,
0010
0000
0310
0000
0001
0000
1000
0020
,
0100
0000
0130
0000
0002
0000
0000
0003
,
2000
0000
3020
0000
,
0230
0000
0302
0000
,
2003
0000
3200
0000
,
0320
0000
0001
0031
,
1000
0000
0010
0000
0100
0000
0001
1000
,
0001
0000
0010
0000
0100
0000
1000
0001
,
1000
0010
0100
0001
,
0002
0023
0230
2300
,
3001
0000
0100
0000
0001
0000
0010
0001
,
0010
0000
0100
0000
1000
0000
0010
1000
,
0010
0100
0001
1000
,
0100
0010
0100
0000
0010
0000
0000
0000
,
0120
0100
0100
0130
,
2000
3001
0200
0310
,
2000
0001
0001
3001
,
1000
0001
1000
0001
1000
0001
1000
0000
,
0001
0000
0001
0000
0001
0100
1000
0000
,
1000
0000
1000
0000
1000
0100
0001
0000
,
0010
0010
0100
0010
,
0001
0100
0001
0000
1000
0010
1000
0000
,
0200
0000
0300
0000
1000
0010
1000
0000
,
0002
0000
0003
0000
0100
0001
0100
0000
,
0001
0010
0100
1000
,
0010
1010
0110
0101
,
0001
0000
0100
0020
1000
0000
1030
0000
,
0100
0000
1000
0002
0100
0000
0103
0000
,
0100
0000
0001
2000
0100
0000
3100
0000
,
0010
0000
0001
0200
0010
0000
0310
0000
,
2000
0100
0100
3100
,
0020
0032
2003
3020
,
0130
0001
1000
0010
,
2000
3200
0320
0032
,
1003
0000
0100
0000
1000
0010
1000
0000
,
0001
0000
0100
0000
0001
0010
0001
0000
,
1000
0001
1000
0001
1000
0001
1000
0000
,
2002
0000
0000
0000
,
0000
0000
0000
0000
,
3003
0000
0000
0000
;

//--------------- dance-single - ----------------
#NOTES:
     dance-single:
     :
     Medium:
     13:
     0,0,0,0,0:
0000
0000
0000
0000
,
0000
0000
0000
1000
,
2000
0000
0000
0001
,
3002
0000
0000
0013
,
0100
0000
1000
0100
0000
2000
0000
3002
,
0000
0013
0001
0100
,
2020
3030
0202
0303
,
2200
3300
0022
0033
,
0001
0000
0100
0010
0000
1010
0000
0102
,
0000
0000
0000
0000
1003
0001
1000
0200
,
0000
0000
0000
0000
0300
0000
1000
0010
,
2000
0000
0001
3002
0000
0023
0000
0230
,
0000
0000
1000
1300
,
0002
0000
0103
0020
0000
2030
0000
3002
,
0000
0000
0010
0013
,
0100
0000
1000
0100
0000
1100
0000
0021
,
0000
0031
0100
0010
,
2000
0000
0000
3002
0000
0000
0203
0000
,
0000
0310
1000
0001
1000
0000
0000
0000
,
0001
0010
0002
0000
1003
0200
0000
1300
,
0002
0000
0013
0200
0000
1300
0002
0000
,
1003
0010
2000
0000
3001
0200
0000
0310
,
2000
3001
0002
1003
,
1000
0010
0100
0020
0000
2030
0000
3002
,
0000
0010
0013
0000
1100
0000
0011
0000
,
0002
0000
0000
1000
2000
0000
0000
0000
,
3003
0010
0010
0010
,
1000
1000
0100
0010
0001
0100
0100
0000
,
0001
0001
0010
0100
1000
0010
0010
0000
,
1000
0100
0001
0000
0001
0100
1000
0000
,
0020
2030
3002
0203
,
0301
0100
0001
0010
0100
1000
0100
0000
,
1000
0100
1000
0010
0100
0001
0100
0000
,
0001
0101
1000
1100
,
0001
0000
0000
0010
0000
0000
2002
0000
0000
0000
0000
0000
3003
0000
0000
0000
,
1000
0010
1000
0001
0200
0000
0301
0000
,
0010
0001
0010
0100
2000
0000
3010
0000
,
0100
0001
1000
0000
0100
1000
0001
0000
,
1000
0001
1100
0101
,
1000
0002
0100
0000
0013
0000
0100
1000
,
0010
0200
0001
0000
0310
0000
1000
0001
,
1000
0200
0010
0000
1300
0000
0001
0100
,
0010
1010
1100
1001
,
0002
0010
1000
0010
,
0103
0010
0000
0010
2000
0000
3001
0010
,
0200
1000
0001
1000
,
0310
0001
0000
0001
0100
0000
0010
0000
,
2020
0000
0030
0000
3001
0100
0001
0010
,
0002
2003
3200
0320
,
0031
1000
0010
0100
0001
0010
0001
0100
,
0001
1000
0100
0010
0001
1000
0010
1000
,
0001
0000
0102
0000
0000
0000
1003
0100
,
1000
0000
0012
0000
0000
0000
1003
0010
,
0200
0000
0010
0320
0000
2030
0000
3002
,
0000
0000
0000
0000
0000
0000
1003
0200
,
0010
0300
1000
0020
0100
0030
1000
0002
,
0010
0003
1000
0020
0100
0030
1000
0001
,
1000
0000
1000
0010
0000
1010
0000
0201
,
0000
0301
0010
0100
2000
0000
3002
0000
,
2003
0000
0000
0010
0000
3010
0000
0010
,
0100
0200
0000
0320
0000
2030
0000
3001
,
0020
0000
0000
0230
0000
0000
0000
0000
,
1300
0001
0000
0001
1000
0000
1000
0001
,
1000
0001
0010
0100
1000
0010
0100
0100
,
0001
0100
0010
1000
0001
0010
0100
0100
,
2000
0000
0000
3002
0000
0000
0203
0000
,
0310
1000
0100
1000
0010
0100
0001
0010
,
0001
0000
0001
0000
0001
0010
1000
0010
,
0001
0000
0001
0000
0001
0100
1000
0100
,
0001
0000
0001
0000
0001
0010
0100
1000
,
0010
0100
0001
0002
0000
0000
2003
0000
,
3010
1000
0010
1000
0100
0010
0100
0010
,
0001
0100
0001
0100
0010
1000
0010
1000
,
0001
0010
0001
0100
0010
1000
0100
1000
,
0001
0001
0100
0010
1000
0100
0010
0000
,
0001
0010
0001
1000
0200
0000
1300
0000
,
0010
1000
0010
0100
0002
0000
0013
0000
,
0100
1000
0001
0000
0100
0001
1000
0000
,
0001
1000
0101
1100
,
0001
2000
0100
0000
3010
0000
0100
0001
,
0010
0200
1000
0000
0310
0000
0001
1000
,
0001
0200
0010
0000
0301
0000
1000
0100
,
0010
0011
0101
1001
,
2000
0010
0001
0010
,
3100
0010
0000
0010
0002
0000
1003
0010
,
0200
0001
1000
0001
,
0310
1000
0000
1000
0100
0000
0010
0000
,
0012
0010
1000
0100
,
2003
3002
0203
0320
,
1030
0001
0010
0100
1000
0010
1000
0100
,
1000
0001
0100
0010
1000
0001
0010
0001
,
1000
0000
1000
0000
0001
0000
0100
0010
,
0100
0100
0010
1000
,
0001
0010
0100
1000
0001
0100
0010
1000
,
2002
0000
0000
3003
,
1000
0100
1000
0100
0000
0000
0010
0001
0010
0001
0000
0000
,
2002
0000
0000
0000
,
3003
0000
0000
0000
;

//--------------- dance-single - ----------------
#NOTES:
     dance-single:
     :
     Hard:
     16:
     0,0,0,0,0:
0000
0000
0000
0000
,
0000
0000
0000
0010
,
2002
0000
0000
0000
3000
0000
0000
0203
,
0000
0310
0010
1000
0001
0000
0011
0000
,
2100
0000
0000
0000
3010
0100
0000
0210
,
0000
0310
1000
0001
0100
0010
1000
0000
,
0202
0300
0020
0033
,
2200
0300
0020
3030
,
2001
0000
0000
3001
0100
0010
0000
0120
,
0000
1030
0001
0010
0100
1000
1000
2000
,
0000
0000
0000
0000
0000
0000
3001
0010
0001
0000
0100
0000
0010
0000
0000
0000
,
2010
0000
3002
0000
,
0023
0000
0000
0130
1000
0000
1100
0000
,
0012
0000
2003
0000
,
3020
0000
0000
0130
0002
0000
0000
1003
,
1000
0100
1000
0000
0012
0000
1003
0010
,
1000
0001
0100
0000
1020
0000
0130
0001
,
1000
0100
0010
0000
0210
0000
1300
0001
,
0000
0001
0001
1000
2002
0000
3003
0000
,
0001
0100
0020
1000
1030
0002
0100
0103
,
0020
1000
1030
0002
0010
0013
0100
1000
,
0001
0100
0020
1000
1030
0002
0010
0013
,
0200
1000
1300
0002
0100
0103
0010
1000
,
0010
1000
0100
1100
0000
0011
0000
0001
,
1000
0010
1010
0000
0101
0000
1001
0000
,
1000
0100
0010
0001
1000
0010
0100
0001
,
1000
0000
1000
0000
0100
0000
1000
0001
0100
0000
0010
0100
0010
0000
1000
0000
,
0001
0010
0100
2100
0000
3001
0000
0012
,
0000
0103
0010
2000
0000
0001
3001
0000
,
0102
0000
0103
2000
0000
3100
0001
0010
,
0200
0000
0000
1300
0002
0000
0000
0103
0020
0000
0000
1030
0002
0000
0000
0000
,
2003
0000
3200
0000
0301
1000
0010
0000
,
0002
0000
0203
0000
1300
0001
0010
0000
,
1000
0000
0001
0100
0001
0000
1000
0010
1000
0000
0001
0010
0001
0000
0010
0000
,
0100
0000
0000
0110
0000
0000
2002
0000
0000
0000
0000
0000
3003
0000
0000
0000
,
1000
0000
0100
0000
0010
0000
0001
0000
0010
0000
0100
0000
1000
0000
0001
0010
,
0001
0000
1000
0000
0010
0000
0100
0000
0001
0000
0100
0000
0010
0000
1000
0010
,
1000
0001
0100
2000
0000
3100
0001
2000
,
0000
0100
3001
0000
0101
0000
1100
0000
,
1000
1000
0020
0100
0130
0010
2000
0001
,
3001
1000
0200
0010
0310
0100
0002
0100
,
0103
0001
0200
0010
0310
0100
2000
0001
,
3001
0000
0022
0033
0202
0303
2002
3003
,
1000
1000
0010
2020
3030
0022
0033
1002
,
0000
1003
0100
0001
1000
0010
0001
1000
,
2100
0000
3001
0202
0303
2200
3300
2001
,
0000
3001
0100
1000
0001
0010
1000
0000
,
1002
0000
0100
0000
1003
0100
0001
0100
,
2000
0000
0000
3001
0200
0000
0000
0310
2000
0000
0000
3001
0020
0000
0000
0130
,
2000
0001
3001
0012
0000
1003
0100
0010
,
0001
0010
0001
0010
0001
1000
0001
1000
0001
0100
0001
0100
0010
1000
0010
1000
,
0010
0000
1002
0000
0000
1003
0100
0010
,
0011
0000
2100
0000
0000
3001
0100
0010
,
2010
0000
3001
0101
0000
0011
0000
1000
,
0100
1100
0000
1000
0002
0000
0103
0010
,
1000
0000
0001
0100
0002
0000
1003
0100
2000
0000
3001
0000
0010
0000
0100
0000
,
1000
0000
0001
0010
0002
0000
1003
0010
2000
0000
3001
0000
0100
0000
0010
0000
,
2000
0000
3001
0012
0000
0103
0010
1000
,
0001
0000
0010
0000
0100
1000
0100
1000
0200
0000
0000
0000
0320
0000
0000
0000
,
0032
0000
0003
0011
0000
2100
0000
3001
,
0100
0010
0010
0110
0000
2001
0000
3001
,
0010
0010
0100
1100
0000
0021
0000
0031
,
0002
0100
0103
0010
2000
0100
3100
0010
,
0001
0000
0100
0000
0010
0000
0100
0000
1000
0000
0100
0000
0001
0000
1000
0001
,
1000
0000
0100
0000
0010
0000
0100
0000
0001
0000
0100
0000
1000
0000
0001
1000
,
0001
0100
0010
2000
0000
3001
1001
0000
,
1000
0100
1000
0100
1000
0001
1000
0001
0100
0001
0100
0001
0010
0001
0010
0001
,
0010
0000
0000
0000
0101
0000
0000
0000
0011
0000
0001
0010
0100
0000
1000
0000
,
1010
0000
0000
0000
1100
0000
0000
0000
1010
0000
1000
0010
0100
0000
0001
0000
,
1001
0000
0000
0000
0110
0000
0000
0000
1001
0000
1000
0100
0010
0000
0001
0000
,
0001
0010
0100
2000
0000
0001
3002
0000
,
1003
0010
1000
0000
0010
1000
0010
0000
1000
0010
1000
0000
0010
0000
0100
0000
,
0001
0010
0001
0000
0010
0001
0010
0000
0001
0010
0001
0000
0010
0000
0100
0000
,
1000
0000
1000
0010
1000
0000
0010
0100
0010
0000
0100
0001
0100
0000
0001
0000
,
1000
0001
1000
0001
1000
0001
1000
0001
1000
0001
1000
0001
2000
0000
0000
0000
,
3001
0000
0100
0000
0010
0000
1000
0000
0010
0000
0100
0000
0001
0000
1000
0010
,
1000
0000
0001
0000
0010
0000
0100
0000
1000
0000
0100
0000
0010
0000
0001
0010
,
0001
1000
0100
0002
0000
0103
1000
0002
,
0000
0100
1003
0000
1100
0000
0101
0000
,
0001
0001
0020
0100
0130
0010
0002
1000
,
1003
0001
0200
0010
0310
0100
2000
0100
,
3100
1000
0200
0010
0310
0100
0002
1000
,
1003
0100
1100
0000
1010
0000
1001
0001
,
1000
0001
0010
0022
0033
2020
3030
2001
,
0000
3001
0100
1000
0001
0010
1000
0001
,
0102
0000
1003
2200
3300
0202
0303
1002
,
0000
1003
0100
0001
1000
0010
0001
0000
,
2001
0000
0100
0000
3001
0100
1000
0100
,
0002
0000
0000
1003
0200
0000
0000
0310
0002
0000
0000
1003
0020
0000
0000
0130
,
0002
1000
1003
2010
0000
3001
0100
0010
,
1000
0010
1000
0010
1000
0001
1000
0001
1000
0100
1000
0100
0010
0001
0010
0001
,
0010
0000
0100
0000
1000
0000
0001
0000
0100
0000
0010
0000
1000
0000
0001
1000
,
0001
0000
0100
0000
0010
0000
1000
0010
1000
0000
0010
0000
0100
0000
0000
0000
,
0101
0001
0010
0100
1100
1000
0010
0100
,
2002
0000
0000
3003
,
1000
0100
0010
0001
1000
0100
0010
0100
1000
0001
0010
0100
,
2000
0000
0000
0000
,
3000
0000
0000
0000
;
