#VERSION:0.83;
#TITLE:Z Toba Na Chacie;
#SUBTITLE:;
#ARTIST:Daria Zawialow;
#TITLETRANSLIT:;
#SUBTITLETRANSLIT:;
#ARTISTTRANSLIT:;
#GENRE:;
#CREDIT:;
#MUSIC:Z Toba Na Chacie.ogg;
#BANNER:Z Toba Na Chacie-bn.png;
#BACKGROUND:Z Toba Na Chacie-bg.png;
#CDTITLE:cdtitle.png;
#SAMPLESTART:50.248;
#SAMPLELENGTH:18.788;
#SELECTABLE:YES;
#OFFSET:-0.000;
#BPMS:0.000=102.990;
#STOPS:;
#SPEEDS:0.000=1.000=0.000=0;
#SCROLLS:0.000=1.000;
#TICKCOUNTS:0.000=4;
#TIMESIGNATURES:0.000=4=4;
#LABELS:0.000=Song Start,
8.000=flya,
24.000=fip,
84.000=flya,
116.000=fip,
128.000=flya,
136.000=fiup,
144.000=flya,
152.000=fip,
160.000=flya
;
#COMBOS:0.000=1;
#ORIGIN:;
#PREVIEWVID:;
#JACKET:Z Toba Na Chacie-jacket.png;
#CDIMAGE:;
#DISCIMAGE:;
#BGCHANGES:0.000=Z Toba Na Chacie.mp4=1.000=0=0=0=StretchNoLoop==CrossFade_Fastest==,
99999.000=-nosongbg-=1.000=0=0=0=StretchNoLoop====
;
#FGCHANGES:;

//--------------- dance-single - Team Red Under Armour T-Shirt ----------------
#NOTEDATA:;
#STEPSTYPE:dance-single;
#DESCRIPTION:Team Red Under Armour T-Shirt;
#DIFFICULTY:Beginner;
#METER:2;
#RADARVALUES:0.117295,0.147677,0.045615,0.118598,0,90,85,5,13,0,0,0,0,0,0.117295,0.147677,0.045615,0.118598,0,90,85,5,13,0,0,0,0,0;
#CHARTNAME:;
#CHARTSTYLE:;
#CREDIT:djfipu;
#NOTES:
0000
0000
0000
0000
,
0000
0000
0000
0000
,
1000
0000
0001
0000
,
0100
0000
0001
0000
,
0010
0000
0100
0000
,
0020
0030
0000
0000
,
0001
0000
1000
0000
,
0010
0000
1000
0000
,
0001
0000
0100
0000
,
0020
0030
0000
0000
,
1000
0000
0100
0000
,
0010
0000
0001
0000
,
1000
0000
0001
0000
,
0200
0300
0000
0000
,
0001
0000
1000
0000
,
0010
0000
0100
0000
,
0010
0000
1000
0000
,
0200
0300
0000
0000
,
1000
1000
1000
0000
,
0001
0001
0001
0000
,
1000
0000
0000
0000
,
0110
0000
0000
0000
,
1001
0000
1000
0000
,
0100
0000
0010
0000
,
0100
0000
0100
0000
,
1000
0000
0001
0000
,
0010
0000
0001
0000
,
1000
0000
0100
0000
,
0010
0000
0010
0000
,
0001
0000
1000
0000
,
1001
0000
1000
0000
,
0100
0000
1000
0000
,
0002
0003
0002
0003
,
0002
0003
0002
0003
,
1001
0000
0001
0000
,
0100
0000
0010
0000
,
2000
3000
2000
3000
,
2000
3000
2000
3000
,
1001
0000
0001
0000
,
0010
0000
0100
0000
,
1000
0000
1000
0000
,
0001
0000
0100
0000
,
0010
0000
0100
0000
,
0001
0000
1000
0000
,
0001
0000
0001
0000
,
1000
0000
0010
0000
,
0200
0300
0000
0000
;

//--------------- dance-single - Team Red Under Armour T-Shirt ----------------
#NOTEDATA:;
#STEPSTYPE:dance-single;
#DESCRIPTION:Team Red Under Armour T-Shirt;
#DIFFICULTY:Easy;
#METER:5;
#RADARVALUES:0.002607,0.041737,0.009123,0,0,2,1,1,0,0,0,0,0,0,0.002607,0.041737,0.009123,0,0,2,1,1,0,0,0,0,0,0;
#CHARTNAME:;
#CHARTSTYLE:;
#CREDIT:djfipu;
#NOTES:
0000
0000
0000
0000
,
0000
0000
0000
0000
,
0002
0203
0301
0001
,
2000
3200
1300
1000
,
0020
0230
0310
1000
,
0001
0000
0000
0000
,
0002
2003
3100
0100
,
0020
0230
1300
1000
,
0002
2003
3010
0100
,
0001
0000
0000
1001
,
2000
3020
0130
0010
,
2000
3200
0310
0100
,
2000
3002
0103
0010
,
1000
0000
0000
0000
,
0002
0023
0130
0010
,
0002
0203
0310
0100
,
0002
2003
3100
0010
,
0001
0000
0000
0000
,
0200
0300
0200
0000
0310
0000
1000
0000
,
0200
0300
0200
0000
0310
0000
0001
0000
,
1001
0000
0000
0000
,
0110
0000
0000
0000
,
1001
0000
1000
0100
,
1000
0001
0100
0000
,
0010
0010
0100
0100
,
0001
0001
1000
1000
,
0100
0100
0010
0001
,
0010
0100
1000
0100
,
1000
1000
0001
0001
,
0100
0010
0100
0001
,
1000
0100
1000
0010
,
0100
0001
1000
0100
,
0020
0030
0020
0030
,
0020
0030
0020
0030
,
0001
1000
0010
0100
,
0010
1000
0001
0010
,
0200
0300
0200
0300
,
0200
0300
0200
0300
,
1001
0001
0100
0010
,
0100
0001
1000
0100
,
0010
0010
0100
0100
,
1000
0001
0100
0010
,
0100
0001
0100
0010
,
1000
0010
1000
0100
,
0010
0010
0100
0100
,
1000
0001
0100
0010
,
2000
3000
0000
0000
;

//--------------- dance-single - Team Red Under Armour T-Shirt ----------------
#NOTEDATA:;
#STEPSTYPE:dance-single;
#DESCRIPTION:Team Red Under Armour T-Shirt;
#DIFFICULTY:Medium;
#METER:7;
#RADARVALUES:0.002607,0.041737,0.009123,0,0,2,1,1,0,0,0,0,0,0,0.002607,0.041737,0.009123,0,0,2,1,1,0,0,0,0,0,0;
#CHARTNAME:XO-;
#CHARTSTYLE:;
#CREDIT:djfipu;
#NOTES:
0000
0000
0000
0000
,
0000
0000
0000
0000
0000
0000
0000
1000
,
0020
0000
0230
0000
0310
0000
0100
0001
,
2000
0000
3002
0000
0013
0000
0100
1000
,
0002
0000
0203
0000
0301
0000
1000
0100
,
0010
0100
1000
0101
,
0200
0000
0302
0000
1003
0000
0001
1000
,
0200
0000
0320
0000
0130
0000
1000
0100
,
0020
0000
0032
0000
1003
0000
0010
0100
,
0010
1000
0001
1001
,
0002
0000
2003
0000
3001
0000
1000
0001
,
0200
0000
0302
0000
0013
0000
0100
1000
,
0002
0000
2003
0000
3010
0000
0100
0001
,
1000
0100
0010
0001
,
2000
0000
3020
0000
0130
0100
0001
1000
,
0200
0000
2300
0000
3001
0001
0010
0100
,
2000
0000
3002
0000
0103
0100
0010
1000
,
0010
0100
0001
1000
,
0200
0300
0200
0300
0010
0100
1000
0100
,
0020
0030
0020
0030
0001
1000
0001
0100
,
0001
0101
0000
1100
,
1001
0000
0000
0101
0000
0000
1010
0000
0000
0110
0000
0000
1001
0000
0000
0000
,
0011
0000
0001
0000
1000
0100
0001
0000
,
0001
0100
1000
0000
0001
0000
0100
0000
,
0010
0000
0000
1000
0000
0000
0001
0000
0000
1000
0000
0000
0100
0000
0020
0000
,
0000
0200
0330
0000
0010
0001
1000
0001
,
0200
0000
0301
0000
0001
0100
1000
0000
,
1000
0100
0001
0000
1000
0000
0100
0000
,
0010
0000
0000
0001
0000
0000
1000
0000
0000
0010
0000
0000
0100
0000
0020
0000
,
0000
0200
0330
0000
0010
0000
1000
0000
,
0001
0100
0001
0000
1000
0100
1000
0000
,
0010
0100
0010
0000
1000
0001
1000
0000
,
0100
1000
0100
0000
0010
0001
0010
0000
,
0001
0100
0001
0000
1000
0010
1000
0000
,
0001
0010
0100
0000
1000
0001
0100
0000
,
0010
1000
0100
0000
0010
0001
0100
0000
,
0001
0010
1000
0000
1000
0010
0001
0000
,
1000
0010
0001
0000
0001
0010
1000
0000
,
1001
0000
0001
0000
0100
0100
0010
0000
,
1000
1000
0001
0000
0010
0010
0100
0000
,
1000
0000
0000
0001
0000
0000
0100
0000
0000
0010
0000
0000
1000
0000
0002
0000
,
0000
2000
3003
0000
1000
0010
0100
0010
,
1000
1000
0001
0000
0010
0010
0100
0000
,
0010
0010
0001
0000
0100
0100
0010
0000
,
1000
0000
0000
0010
0000
0000
0100
0000
0000
0001
0000
0000
1000
0000
0200
0000
,
0000
0020
0330
0000
0000
0010
0001
0100
,
0020
0030
0000
0000
;

//--------------- dance-single - Team Red Under Armour T-Shirt ----------------
#NOTEDATA:;
#STEPSTYPE:dance-single;
#DESCRIPTION:Team Red Under Armour T-Shirt;
#DIFFICULTY:Hard;
#METER:9;
#RADARVALUES:0.384466,0.421935,0.054738,0.301056,0.06386,295,289,6,33,0,0,0,0,0,0.384466,0.421935,0.054738,0.301056,0.06386,295,289,6,33,0,0,0,0,0;
#CHARTNAME:XO;
#CHARTSTYLE:;
#CREDIT:Highflyer;
#NOTES:
0000
0000
0000
0000
,
0000
0000
0000
0000
0000
0000
0000
0001
,
2000
0000
3002
0000
0103
0010
1000
0100
,
0020
0000
0230
0000
0310
0001
1000
0010
,
0200
0000
0302
0000
1003
0100
1000
0001
,
0100
0010
0100
0001
,
2000
0000
3200
0000
0310
0100
1000
0001
,
0200
0000
0320
0000
0130
0001
0010
0100
,
2000
0000
3002
0000
1003
0010
0100
0001
,
0010
0100
0010
1001
,
2000
0000
3020
0000
0130
0010
1000
0001
,
0020
0000
0230
0000
0310
0001
1000
0010
,
0200
0000
0320
0000
0130
0010
1000
0001
,
0010
0100
0010
0001
,
2000
0000
3020
0000
0130
0001
0010
0100
,
2000
0000
3002
0000
0103
0010
0100
0001
,
0020
0000
0230
0000
0310
0001
1000
0001
,
0100
0010
1000
0001
,
0020
0000
0230
0000
0310
0001
1000
0010
,
0200
0000
0302
0000
1003
0100
0010
0100
,
1000
0001
0000
0100
0000
0000
0000
0000
0000
0000
0000
0000
0000
0000
0000
0000
,
0010
1000
0000
0010
0100
0000
0001
0010
0000
0100
0010
0000
0001
0000
1000
0000
,
1010
1000
0100
1000
0001
0100
1000
0001
,
1000
0100
0001
1000
0200
0000
0310
0000
,
0001
0000
0100
0010
0000
0000
1000
0000
0001
0010
0000
0000
0200
0000
2000
0000
,
0000
3300
0100
0000
0010
0001
1000
0010
,
0120
0000
1030
0001
1000
0100
0001
1000
,
0001
0100
1000
0002
0200
0303
0001
1000
,
0010
0000
0100
0001
0000
0000
0010
0000
0100
1000
0000
0000
0002
0000
2000
0000
,
0000
3003
0001
0000
1000
0000
0010
0100
,
0010
1000
0001
0010
0100
1000
0100
0010
,
0001
1000
0010
0100
0001
0100
0010
1000
,
0200
0010
0310
0001
2000
0010
3010
0100
,
0002
0010
0013
0100
2000
0010
3010
0100
,
0110
0100
0001
0010
0100
0010
0001
1000
,
0010
0100
0010
1000
0001
0010
0001
1000
,
0002
0100
0103
0010
2000
0100
3100
1000
,
0020
0100
0130
0001
0020
0100
0130
1000
,
1001
0001
0100
0010
0100
0001
1000
0001
,
0010
0100
1000
0100
0010
0001
1000
0010
,
0100
0000
0001
1000
0000
0000
0001
0000
0100
0010
0000
0000
2000
0000
0020
0000
,
0000
3030
1000
0000
0001
0100
0010
0100
,
0110
0010
1000
0001
0010
0100
1000
0001
,
0100
0010
1000
0010
0200
0301
1000
0100
,
1000
0000
0001
0100
0000
0000
0001
0000
1000
0100
0000
0000
0020
0000
0200
0000
,
0000
0330
0010
0000
0001
1000
0010
2000
,
0002
3003
0000
0000
;

//--------------- dance-single - Team Red Under Armour T-Shirt ----------------
#NOTEDATA:;
#STEPSTYPE:dance-single;
#DESCRIPTION:Team Red Under Armour T-Shirt;
#DIFFICULTY:Challenge;
#METER:13;
#RADARVALUES:0.563015,0.527419,0.072983,0.264565,0.611236,432,424,8,29,12,0,0,0,0,0.563015,0.527419,0.072983,0.264565,0.611236,432,424,8,29,12,0,0,0,0;
#CHARTNAME:RH XO DS- DT- FS- KS-;
#CHARTSTYLE:;
#CREDIT:Highflyer x djfipu;
#NOTES:
0000
0000
0000
0000
,
0000
0000
0000
0000
,
1000
0000
0000
0000
0000
0001
0100
0000
0001
1000
0000
0000
0100
0000
0010
0001
0000
0000
0100
0000
0010
1000
0000
0001
,
0020
0000
0000
0000
0000
0130
1000
0000
0001
1000
0000
0010
0100
0000
0001
0000
0000
0010
0000
0000
0100
0000
0000
0010
,
0001
0000
0000
1000
0000
0001
0100
0000
0001
1000
0000
0000
0100
0000
0010
0000
0000
0100
0000
0000
1000
0000
0000
0000
,
0001
0000
0000
0000
0000
1000
0010
0000
1000
0010
0000
0100
0001
0000
1000
0100
0000
0000
1001
0000
0000
0001
0000
0000
,
0100
0000
0000
0010
0000
1000
0100
0000
1000
0001
0000
0000
0100
0000
0000
0001
0000
0010
0000
0000
0100
0000
0000
0000
,
0010
0000
0000
0001
0000
1000
0010
0000
1000
0001
0000
0000
0100
0000
0010
0000
0000
0100
0000
0000
0001
0000
0000
0000
,
0010
0000
0000
0001
0000
0100
0010
0000
0100
0001
0000
0000
1000
0000
0000
0001
0000
1000
0000
0000
0100
0000
0000
0000
,
0001
0000
0000
0100
0000
1000
0001
0000
0000
0100
0000
0000
0000
0000
0010
0100
0000
0000
1001
0000
0000
1000
0000
0000
,
0010
0000
0000
1000
0000
0001
0010
0000
0001
1000
0000
0000
0001
0000
0100
0000
0000
1000
0000
0000
0100
0000
0000
0000
,
0001
0000
0000
1000
0000
0010
0100
0000
0100
0001
0000
0000
1000
0000
0100
0000
0000
0001
0000
0000
0100
0000
0000
0000
,
1000
0000
0000
0100
0000
0010
0001
0000
1000
0010
0000
0000
0100
0000
0000
0001
0000
0010
0000
0000
1000
0000
0000
0000
,
0010
0000
0000
0001
0000
1000
0100
0000
0010
0100
0000
0000
0000
0000
0100
1000
0000
0000
0001
0000
0000
0100
0000
0000
,
0010
0000
0000
0100
0000
1000
0100
0000
0001
1000
0000
0000
0001
0000
0010
0000
0000
1000
0000
0000
0010
0000
0000
0001
,
1000
0000
0000
0010
0000
0100
0001
0000
0000
1000
0000
0000
0001
0000
0100
0000
0000
1000
0000
0000
0100
0000
0000
0000
,
0001
0000
0000
0010
0000
0100
0001
0000
0000
0100
0000
0000
1000
0000
0010
0000
0000
0100
0000
0000
1000
0000
0000
0000
,
0200
0000
0000
0300
0000
0001
0100
0000
0000
0001
0000
0000
0000
0000
0010
0100
0000
0000
1000
0000
0000
0001
0000
0000
,
0200
0000
0000
0000
0000
0000
0010
0000
0000
0000
0000
0000
0302
0000
0000
0000
0000
0000
1000
0000
0000
0000
0000
0000
1003
0000
0000
0100
0000
0000
0000
0000
0000
0001
0000
0000
0000
0000
0000
0100
0000
0000
0000
0000
0000
0000
1000
0000
,
0002
0000
0010
0000
2003
0000
0001
0000
3001
0100
0000
1000
0000
0100
0000
0000
,
0001
1000
0000
0110
0000
0000
0000
0000
0000
0000
0000
0000
0000
0000
0001
0000
,
1000
0001
0000
1000
0100
0000
0010
0001
0000
0100
0010
0000
1001
0000
0000
0000
,
0001
0000
0000
0000
0000
0000
0100
0000
0000
0000
0010
0000
1000
0000
0000
0000
0001
0000
1000
0000
0000
0010
0000
0000
1000
0000
0000
1000
0000
0000
0001
0000
0000
0020
0000
0000
0000
0000
0000
0030
0000
0000
001M
0000
0000
0000
0000
0000
,
1000
0001
1000
0200
0300
M100
0002
0000
0013
0000
0100
0000
1000
0000
0001
0000
,
0100
0000
0001
0010
0M00
0010
1000
0000
1000
0010
0M00
0010
0200
0000
2300
0000
,
3001
0000
0000
0100
0000
0000
0010
0000
0000
1000
0000
0000
0100
0000
0010
0001
0000
0000
1000
0000
0000
0010
0000
0000
,
0110
0000
0100
0000
0001
0000
1000
0001
0001
0010
0001
0200
0000
0300
010M
0000
,
1000
0100
1000
0020
0030
M010
0002
0000
2003
0000
3010
0000
0100
0000
0001
0000
,
0010
0000
0001
0100
00M0
0100
1000
0000
1000
0100
00M0
0100
0001
0000
1000
0000
,
0001
0000
0000
0100
0000
0000
0010
0000
0000
1000
0000
0001
0010
0000
0100
0010
0000
0000
0001
0000
0000
0100
0000
0000
,
0110
0000
0000
1000
0000
0001
1000
0000
0000
0100
0000
0000
0100
0000
1000
0001
0000
0000
0100
0000
0000
0010
0000
0000
,
0100
0000
0000
0100
0000
0001
1000
0000
0000
0100
0000
0000
0100
0000
1000
0001
0000
0000
0100
0000
0000
0010
0000
0000
,
2000
0100
3001
0100
0002
0100
1003
0100
,
2000
0010
3001
0010
0002
0010
1003
0001
,
0010
0000
0000
0010
0000
0001
1000
0000
0000
0010
0000
0000
0010
0000
1000
0001
0000
0000
0010
0000
0000
0100
0000
0000
,
0010
0000
0000
0010
0000
0001
1000
0000
0000
0010
0000
0000
0010
0000
1000
0001
0000
0000
0100
0000
0000
0001
0000
0000
,
0002
0100
0013
0100
2000
0010
3100
0010
,
0002
0000
0000
0010
0000
0000
0103
0000
0000
0010
0000
0000
1000
0000
0001
0100
0000
0000
0010
0000
0000
1000
0000
0000
,
1001
0000
0000
0001
0000
0100
0010
0000
1000
0100
0000
0000
1000
0000
0001
0100
0000
0000
0010
0000
0000
1000
0000
0000
,
0001
0000
0000
1000
0000
0010
0100
0000
0001
0010
0000
0000
0100
0000
1000
0001
0000
0000
1000
0000
0000
0010
0000
0000
,
1000
0000
0001
0010
0M00
0010
1000
0000
1000
0100
00M0
0100
0002
0000
2003
0000
,
3010
0000
0000
0100
0000
0000
0001
0000
0000
0010
0000
0000
0100
0000
1000
0001
0000
0000
0100
0000
0000
0010
0000
0000
,
1010
0000
0000
1000
0000
0000
0001
0000
0000
0010
0000
0000
0100
0000
0000
1000
0000
0000
0001
0000
0000
0100
0000
0010
,
1000
0000
0000
0001
0000
0000
0010
0000
0000
0100
0000
1000
0020
0000
0030
0100
0000
0000
0001
0000
0000
1000
0000
0000
,
0001
0000
1000
0010
0M00
0010
0001
0000
0001
0100
00M0
0100
2000
0000
3002
0000
,
0103
0000
0000
0010
0000
0000
1000
0000
0000
0100
0000
0000
0010
0000
0001
1000
0000
0000
0010
0000
0000
0100
0000
0000
,
0002
2000
3003
0000
0000
0000
0000
0000
;
