#TITLE:ヤバイオンナ;
#SUBTITLE:;
#ARTIST:ラジカル・ツグ&ミッキー・マサシ;
#TITLETRANSLIT:Yabai onna;
#SUBTITLETRANSLIT:;
#ARTISTTRANSLIT:Rajikaru・Tsugu & Mikki・Masashi;
#GENRE:LATIN ROCK;
#CREDIT:;
#MUSIC:Yabai onna.ogg;
#BANNER:Yabai onna.png;
#BACKGROUND:Yabai onna-bg.png;
#CDTITLE:;
#SAMPLESTART:71.760;
#SAMPLELENGTH:15.000;
#SELECTABLE:YES;
#OFFSET:0.000;
#BPMS:0.000=125.000;
#STOPS:;
#BGCHANGES:10.800=Yabai onna.avi=1.000=0=0=1===CrossFade_Fastest==,
198.500=Yabai onna-bg.png=1.000=0=0=1,
99999.000=-nosongbg-=1.000=0=0=0=StretchNoLoop====;
#FGCHANGES:;

//--------------- dance-single - KAYSTAR ----------------
#NOTES:
     dance-single:
     KAYSTAR:
     Beginner:
     2:
     0,0,0,0,0:
0000
0000
0000
0000
,
0000
0000
0000
0000
,
0000
0000
0000
0000
,
0000
0000
0000
0000
,
0000
0000
0000
1000
,
0000
1000
0000
1000
,
0000
0000
0000
0010
,
0000
0000
0000
0100
,
0000
0000
0000
0001
,
0000
0001
0000
0001
,
0000
0000
0000
0010
,
0000
0000
0000
0100
,
0000
0000
0000
1000
,
0000
0000
0000
0010
,
0000
0000
0000
0100
,
0000
0000
0000
0001
,
0000
0000
0000
0010
,
0020
0000
0030
0000
,
0000
0000
0000
0100
,
0200
0000
0300
0000
,
0000
0000
0000
1000
,
0000
0000
0000
0010
,
0000
0000
0000
0100
,
0000
0000
0000
0001
,
0000
0000
0000
1000
,
0000
0000
0000
0100
,
0000
0000
0000
0010
,
0000
0000
0000
0001
,
0000
0000
0000
0100
,
0000
0100
0000
0100
,
0000
0000
0000
0010
,
0000
0010
0000
0010
,
0000
0000
0000
2000
,
0000
3000
0000
0200
,
0000
0300
0000
0020
,
0000
0030
0000
0002
,
0000
0003
0000
0000
,
0000
0000
0000
1000
,
0000
1000
0000
1000
,
0000
0000
0000
0010
,
0000
0000
0000
0100
,
0000
0000
0000
0001
,
0000
0001
0000
0001
,
0000
0000
0000
0010
,
0000
0000
0000
0100
,
0000
0000
0000
1000
,
0000
0000
0000
0010
,
0000
0000
0000
0100
,
0000
0000
0000
0001
,
0000
2002
0000
0000
,
0000
0000
0000
3003
;

//--------------- dance-single - KAYSTAR ----------------
#NOTES:
     dance-single:
     KAYSTAR:
     Easy:
     5:
     0,0,0,0,0:
0000
0000
0000
0000
,
0000
0000
0000
0000
,
0000
0000
0000
0000
,
0000
0000
0000
0000
,
0000
0000
0000
1000
,
0100
0000
0100
1000
,
0001
0100
0000
0020
,
0000
1030
0001
0010
,
0000
0110
0000
0001
,
0100
0000
0100
0010
,
1000
0001
0000
0020
,
0000
0130
1000
2002
,
0000
0000
3003
0001
,
0001
0100
0100
0010
,
0010
1000
1000
0001
,
0010
0100
1000
2002
,
0000
0000
3003
0001
,
0100
0000
0100
0010
,
1000
0001
0000
1000
,
0100
0000
0100
0010
,
0001
1000
0000
0010
,
0100
0001
0000
0010
,
0000
0010
0000
0001
,
0100
0010
0000
1000
,
0000
0001
0000
0010
,
0100
1000
0000
0010
,
0000
0010
0000
1000
,
0100
0010
0000
0001
,
0000
1000
0000
0010
,
0010
0010
0000
0100
,
0000
0001
0000
0010
,
0010
0010
0000
0100
,
0000
1000
0000
0001
,
0001
0001
0000
1000
,
1000
1000
0000
0100
,
0010
0001
0000
2000
,
0000
0000
0000
3001
,
0000
0000
0000
1000
,
0010
0000
0010
0100
,
0001
1000
0100
0020
,
0000
0031
1000
0010
,
0100
0110
0000
0001
,
0010
0000
0010
0100
,
1000
0001
0100
0020
,
0000
1030
0100
0110
,
0000
0000
0000
1000
,
1000
0010
0010
0100
,
0100
0001
0001
1000
,
0100
0010
0001
0100
,
0000
0220
0000
0000
,
0000
0000
0000
0330
;

//--------------- dance-single - KAYSTAR ----------------
#NOTES:
     dance-single:
     KAYSTAR:
     Medium:
     8:
     0,0,0,0,0:
0000
0000
0000
0000
,
0000
0000
0000
0000
,
0000
0000
0000
0000
0000
0000
0000
0000
0000
0000
0000
0000
0001
0000
0000
0100
,
0000
0000
0010
0000
0000
1000
0000
0000
0001
0000
0010
0000
0100
0000
0000
0000
,
0000
0000
1000
0000
0010
1000
0010
0000
,
0100
0000
0001
0000
0010
0001
0010
0000
,
0100
0000
1000
0000
0001
0000
0100
0010
,
0100
0000
0000
0000
0001
0000
0000
0000
1000
0000
0000
0000
0100
0000
0000
0010
,
0000
0001
0000
0000
0100
0001
0100
0000
,
0010
0000
1000
0000
0100
1000
0100
0000
,
0010
0000
0001
0000
1000
0000
0010
0100
,
0010
1000
0001
2002
,
0000
0000
3003
1000
,
0010
0001
0010
1000
,
0100
0000
0000
0000
0001
0000
0000
0000
0100
0000
0000
0000
1000
0000
0000
0010
,
0000
0000
0100
0000
0000
0001
0000
0000
0010
0000
0100
0000
2000
0000
0000
0000
,
3000
0002
0003
0100
,
0101
0000
0000
0000
0001
0000
0000
1000
0000
0000
0010
0000
0000
0000
0000
0000
,
0100
0001
0010
0100
,
1100
0000
0000
0000
1000
0000
0000
0001
0000
0000
0010
0000
0000
0000
0000
0000
,
0100
1000
0010
0100
,
0001
1000
0001
0000
0010
0000
0001
1000
,
0001
0100
0000
0010
,
1000
0001
0010
0000
0100
0000
1000
0000
,
1000
1000
0000
0010
,
1000
0001
1000
0000
0100
0000
1000
0001
,
1000
0010
0000
0100
,
0001
0000
1000
0000
0100
0000
0000
0000
0010
0000
0000
0000
0001
0000
0000
0001
,
0000
0001
0000
0000
0000
0000
1000
0000
,
0010
1000
0010
0100
,
0100
0001
0000
0001
,
0010
0000
0000
0000
0001
0000
0000
0000
0010
0000
0000
0000
0100
0000
0000
1000
,
0000
0001
0000
0000
0000
0000
1000
0000
,
0010
0100
0010
0000
1000
0000
0001
0000
,
0010
0100
0010
0000
0001
0000
1000
0000
,
0010
0100
0001
0020
,
0000
0000
0000
0000
0000
0000
0031
1000
,
0001
1000
0000
0000
0001
1000
0010
0000
,
0100
0000
0001
0000
1000
0001
0010
0000
,
0100
0000
1000
0000
0001
0000
0100
0010
,
1000
0000
0000
0000
0100
0000
0000
0000
0001
0000
0000
0000
0100
0000
0000
0010
,
0000
0001
0000
0000
1000
0001
0100
0000
,
0010
0000
1000
0000
0001
1000
0100
0000
,
0010
0000
0001
0000
1000
0000
0010
0100
,
0001
0010
0100
2000
,
0000
0000
3000
0001
,
0100
1000
0100
0001
,
0010
0000
0000
0000
1000
0000
0000
0000
0010
0000
0000
0000
0001
0000
0000
0100
,
0000
0000
0010
0000
0000
1000
0000
0000
0100
0000
0010
0000
0001
0000
0000
0000
,
0000
0000
1001
0000
0000
2002
0000
0000
,
0000
0000
0000
3003
;

//--------------- dance-single - KAYSTAR ----------------
#NOTES:
     dance-single:
     KAYSTAR:
     Hard:
     12:
     0,0,0,0,0:
0000
0000
0000
0000
,
0000
0000
0000
0000
,
0000
0000
0000
0000
0000
0000
0000
0000
0000
0000
0000
0000
0001
0000
0000
0011
,
0000
0000
1000
0000
0000
1100
0000
0000
0001
0000
0001
0000
1001
0000
0000
0000
,
0000
0000
1000
0000
0001
0000
1000
0000
0000
0000
0000
0000
0000
0000
0000
0000
0000
0000
0001
0000
0000
1000
0000
0000
,
0200
0000
0301
1000
0200
0000
0301
0010
,
0100
0000
0000
0000
1000
0000
1000
0000
0001
0000
0100
0010
0000
0000
1000
0000
,
0010
0000
0100
0000
0001
0000
0010
0000
0100
0000
1000
0000
1010
0000
0000
0101
,
0000
0000
1001
0000
0000
0000
0001
0000
0010
0100
0000
0000
1000
0000
0001
0000
,
0200
0000
1300
0001
0200
0000
1300
0010
,
0100
0000
0000
0000
0001
0000
0001
0000
1000
0000
0100
0010
0000
0000
0001
0000
,
0010
0000
0100
0000
1000
0000
0010
0000
0100
0000
0001
2000
0002
0000
0000
0000
,
0000
0000
0000
0000
3003
0000
0000
0000
1001
0000
0000
0000
1000
0000
0100
1000
,
0000
0100
0010
0000
0001
0010
0000
0001
1000
0000
1000
0000
0001
0000
0100
0001
,
0000
0100
0010
0000
1000
0010
0000
1000
0001
0000
0001
0000
1000
0000
1000
0100
,
0000
0100
0010
0000
0010
0001
0000
0001
0100
0000
0010
0000
0220
0000
0000
0000
,
0330
0000
2002
0000
3003
0000
1000
0100
,
0020
0000
1030
0100
0010
0000
0001
0100
,
0001
0000
0100
0000
0010
1000
0000
1000
0000
0001
0010
0000
0001
0000
0100
0000
,
0020
0000
0031
0100
0010
0000
1000
0100
,
1000
0000
0100
0000
0010
0001
0000
0001
0000
1000
0010
0000
0100
0000
0001
0000
,
1000
0000
0100
0000
0010
0000
0000
1000
0000
0000
0010
0000
0001
0000
0100
0000
,
0010
0000
0000
0001
0000
0000
0010
0000
1000
0000
0000
0000
0010
0000
0100
0000
,
0001
0000
0001
1000
0000
0000
0100
0000
0010
0000
0001
0000
1000
0000
1000
0000
,
0001
0000
0100
0010
0000
0100
0010
0000
1000
0000
0000
0000
0100
0000
0010
0000
,
0001
0000
0100
0000
0010
0000
0000
0001
0000
0000
0010
0000
1000
0000
0100
0000
,
0010
0000
0000
1000
0000
0000
0010
0000
0001
0000
0000
0000
0100
0000
0010
0000
,
1000
0000
0001
0000
1000
0000
0001
0000
0010
0000
0100
0000
1100
0000
0000
0011
,
0000
2002
0000
0000
3003
0000
0001
0100
,
1000
0000
0000
0000
0100
0000
0000
0010
0000
0010
1000
0000
0001
0000
0100
0000
,
1000
0000
0100
0000
1001
0000
1000
0100
,
0001
0000
0000
0000
0100
0000
0000
0010
0000
0010
0001
0000
0011
0000
0000
1100
,
0000
0000
1001
0000
0000
0000
1000
0000
0010
0100
0010
0100
0001
0000
1000
0000
,
0100
0010
1000
0010
0001
0100
0010
0001
,
0010
0000
1000
0000
0100
0000
0000
0010
0000
0010
0001
0000
1000
0000
1000
0000
,
1000
0000
0001
0001
0001
0000
1000
0010
,
0100
0001
0000
0010
0000
0100
1000
0000
0001
1000
0001
1000
0010
0000
0010
0000
,
0010
2002
0000
0000
3003
0000
1000
0001
,
0201
0000
0000
0000
1300
0000
0001
0000
0201
0000
0000
0000
1300
0000
0010
1000
,
0010
0000
0100
0000
0001
0000
0001
0000
1000
0000
0100
0010
0000
0000
0001
0000
,
0100
0000
1000
0000
0100
0000
0001
0000
0010
0000
0100
0000
1100
0000
0000
0011
,
0000
0000
1001
0000
0000
0000
1000
0000
0010
0100
0000
0000
0001
0000
1000
0000
,
1200
0000
0000
0000
0301
0000
1000
0000
1200
0000
0000
0000
0301
0000
0010
0001
,
0010
0000
0000
0100
1000
0000
1000
0000
0001
0000
0100
0010
0000
0000
1000
0000
,
0100
0000
0001
0000
0100
0000
1000
0000
0010
0100
0010
0100
0002
0000
0000
0000
,
0000
0000
0000
0000
1003
0000
0000
0000
1001
0000
0000
0000
0001
0000
0100
1000
,
0000
0100
0001
0000
0100
1000
0000
0100
0010
0000
0010
0000
1000
0000
0100
0001
,
0000
0100
1000
0000
0100
0001
0000
0100
0010
0000
0010
0000
0001
0000
0001
0100
,
0000
0100
0010
0000
0010
1000
0000
1000
0100
0000
0010
0000
0110
0000
0000
0000
,
0000
0000
0001
0000
1000
0000
1001
0000
0000
0000
0000
0000
0000
0000
0000
0220
0000
0000
0000
0000
0000
0000
0000
0000
,
0000
0000
0000
0330
;

//--------------- dance-double - KAYSTAR ----------------
#NOTES:
     dance-double:
     KAYSTAR:
     Easy:
     5:
     0,0,0,0,0:
00000000
00000000
00000000
00000000
,
00000000
00000000
00000000
00000000
,
00000000
00000000
00000000
00000000
,
00000000
00000000
00000000
00000000
,
00000000
00000000
00000000
10000000
,
01000000
00000000
01000000
00100000
,
00010000
10000000
00100000
02000000
,
00000000
03001000
00010000
00000010
,
00000000
00001001
00000000
00000001
,
00000100
00000000
00000100
00000010
,
00001000
00000001
00000010
00000200
,
00000000
00010300
00001000
00200000
,
00000000
00300000
00000000
00010000
,
00010000
01000000
01000000
00100000
,
00100000
10000000
10000000
01000000
,
00010000
00001000
00000100
00000002
,
00000000
00001003
00000000
00000010
,
00000000
00000010
00000000
00001000
,
00000100
00010000
00001000
00100000
,
00000000
00100000
00000000
00010000
,
01000000
00001000
00010000
00000010
,
00000000
00000100
00000000
00000001
,
00000001
00000001
00000000
00000010
,
00000000
00000100
00000000
00010000
,
00010000
00001000
00001000
01000000
,
00000000
00100000
00000000
10000000
,
10000000
10000000
00000000
01000000
,
00000000
00100000
00000000
00020000
,
00000000
00030000
00000000
10000000
,
00000000
00100000
00000000
01000000
,
01000000
01000000
00000000
00010000
,
00000000
00100000
00000000
00002000
,
00000000
00003000
00000000
00010000
,
00000000
00000100
00000000
00000010
,
00000010
00000010
00000000
00000001
,
00000000
00000100
00000000
00002002
,
00000000
00000000
00000000
00003003
,
00000000
00000000
00000000
00000001
,
00000010
00000000
00000010
00000100
,
00001000
00000001
00000100
00002000
,
00000000
00013000
00100000
10000000
,
00010000
10010000
00000000
10000000
,
00100000
00000000
00100000
01000000
,
00010000
10000000
01000000
00020000
,
00000000
00031000
00000010
00000001
,
00002002
00000000
00003003
00001000
,
00001000
00000100
00000100
00000010
,
00000010
00000001
00000001
00000100
,
00001000
00010000
01000000
10000000
,
00000000
00200000
00000000
00000000
,
00000000
00000000
00000000
00300000
;

//--------------- dance-double - KAYSTAR ----------------
#NOTES:
     dance-double:
     KAYSTAR:
     Medium:
     8:
     0,0,0,0,0:
00000000
00000000
00000000
00000000
,
00000000
00000000
00000000
00000000
,
00000000
00000000
00000000
00000000
00000000
00000000
00000000
00000000
00000000
00000000
00000000
00000000
00010000
00000000
00000000
00001000
,
00000000
00000000
00010000
00000000
00000000
00001000
00000000
00000000
00100000
00000000
01000000
00000000
10000000
00000000
00000000
00000000
,
00000000
00010000
10000000
00000000
00100000
10000000
00100000
00000000
,
01000000
00000000
00010000
00000000
00100000
00010000
00100000
00000000
,
01000000
00010000
00001000
00200000
,
00000000
00000000
00000000
00000000
00301000
00000000
00000000
00000000
00010000
00000000
00000000
00000000
00000100
00000000
00000000
00000100
,
00000000
00000100
00000000
00000000
00000010
00000001
00000010
00000000
,
00000100
00000000
00001000
00000000
00000010
00001000
00000010
00000000
,
00000100
00001000
00010000
00000020
,
00000000
00010030
00001000
01000000
,
20020000
00000000
30030000
00010000
,
10000000
01000000
00010000
00001000
,
00000010
00000000
00000000
00000000
00000001
00000000
00000000
00000000
00001000
00000000
00000000
00000000
00000010
00000000
00000000
00000010
,
00000000
00000000
00000100
00000000
00000000
00000100
00000000
00000000
00000001
00000000
00000000
00000000
00002002
00000000
00000000
00000000
,
00000000
00000000
00003003
00001000
,
00001100
00000100
00000010
00000001
,
00000100
00000000
00001000
00000000
00010000
00001000
00010000
00000000
,
01010000
01000000
00100000
10000000
,
01000000
00000000
00010000
00000000
00001000
00010000
00001000
00000000
,
00000100
00000001
00000010
00000100
,
00001000
00000010
00000000
00010000
,
00100000
10000000
01000000
00100000
,
00010000
01000000
00000000
00001000
,
00000010
00000001
00000100
00000010
,
00001000
00000100
00000000
00010000
,
01000000
00000000
00000000
00000000
10000000
00000000
00000000
00000000
00100000
00000000
00000000
00000000
01000000
00000000
00000000
01000000
,
00000000
01000000
00000000
00010000
10000000
00000000
01000000
10000000
,
01000000
00000000
10000000
00000000
00010000
00000000
00100000
00010000
,
00100000
00010000
00000000
01000000
,
00001000
00000000
00000000
00000000
00010000
00000000
00000000
00000000
00000010
00000000
00000000
00000000
00001000
00000000
00000000
00001000
,
00000000
00001000
00000000
00000000
00000001
00000000
00000100
00000001
,
00000100
00000000
00000010
00000000
00001000
00000000
00000010
00001000
,
00000010
00001000
00000000
00000100
,
00010000
00001000
00100000
00020000
,
00000000
00000000
00000000
00130000
,
01000000
10000000
00000000
00000000
00100000
10000000
00010000
00000000
,
01000000
00000000
00001000
00000000
00100000
00010000
10000000
00000000
,
01000000
00010000
00001000
00200000
,
00000000
00000000
00000000
00000000
00301000
00000000
00000000
00000000
00010000
00000000
00000000
00000000
00000100
00000000
00000000
00000100
,
00000000
00000100
00000000
00000000
00000010
00000001
00001000
00000000
,
00000100
00000000
00010000
00000000
00000010
00001000
00000001
00000000
,
00000100
00001000
00010000
00000020
,
00000000
00010030
00001000
01000000
,
20020000
00000000
30030000
00010000
,
10000000
01000000
00010000
00001000
,
00000010
00000000
00000000
00000000
00000001
00000000
00000000
00000000
00001000
00000000
00000000
00000000
00000010
00000000
00000000
00000010
,
00000000
00000000
00000100
00000000
00000000
00000100
00000000
00000000
00000001
00000000
00000010
00000000
00000100
00000000
00000000
00000000
,
00000000
00000000
00001000
00000000
00000000
00002002
00000000
00000000
,
00000000
00000000
00000000
00003003
;

//--------------- dance-double - KAYSTAR ----------------
#NOTES:
     dance-double:
     KAYSTAR:
     Hard:
     12:
     0,0,0,0,0:
00000000
00000000
00000000
00000000
,
00000000
00000000
00000000
00000000
,
00000000
00000000
00000000
00000000
00000000
00000000
00000000
00000000
00000000
00000000
00000000
00000000
00000001
00000000
00000000
00000100
,
00000000
00000000
00001000
00000000
00000000
00010000
00000000
00000000
00100000
00000000
10000000
00000000
00010000
00000000
00000000
00000000
,
00000000
00000000
01000000
00000000
00100000
00000000
01000000
00000000
00000000
00000000
00000000
00000000
00000000
00000000
00000000
00000000
00000000
00000000
00010000
00000000
00000000
10000000
00000000
00000000
,
02000000
00000000
03010000
10000000
02000000
00000000
03010000
00100000
,
01000000
00000000
00000000
00000000
10000000
00000000
00100000
00000000
01000000
00000000
00010000
10000000
00000000
00000000
01000000
00000000
,
00100000
00000000
00001000
00000000
00010000
00000000
00000100
00000000
00000010
00000000
00000001
00000000
00000101
00000000
00000000
00001010
,
00000000
00000000
00001001
00000000
00000000
00000000
00000001
00000000
00000010
00000100
00000000
00000000
00001000
00000000
00000001
00000000
,
00000200
00000000
00001300
00000001
00000200
00000000
00001300
00000010
,
00000100
00000000
00000000
00000000
00000001
00000000
00000010
00000000
00000100
00000000
00001000
00000001
00000000
00000000
00000100
00000000
,
00000010
00010000
00001000
01000000
00100000
00000000
20020000
00000000
,
00000000
00000000
00000000
00000000
00000000
00000000
00000000
00000000
30030000
00000000
00000000
00000000
00010000
00000000
10000000
01000000
,
00000000
00100000
00010000
00000000
10000000
01000000
00000000
00100000
00010000
00000000
01000000
00000000
00001000
00000000
00010000
00001000
,
00000000
00001000
00010000
00000000
00010000
00001000
00000000
00001000
00010000
00000000
00010000
00000000
00000100
00000000
00001000
00000010
,
00000000
00000100
00000001
00000000
00001000
00000010
00000000
00000100
00000001
00000000
00001000
00000000
00002200
00000000
00000000
00000000
,
00003300
00000000
00000022
00000000
00000033
00000000
00000001
00000100
,
00002000
00000000
00003010
00010000
00001000
00000000
01000000
00010000
,
00100000
00000000
01000000
00000000
10000000
00100000
00000000
00100000
00000000
01000000
00010000
00000000
10000000
00000000
01000000
00000000
,
00020000
00000000
00130000
00001000
00010000
00000000
00000100
00001000
,
00000010
00000000
00000100
00000000
00000001
00000010
00000000
00000010
00000000
00000100
00001000
00000000
00000001
00000000
00000100
00000000
,
00000010
00000000
00000001
00000000
00000010
00000000
00000000
00001000
00000000
00000000
00000001
00000000
00000100
00000000
00001000
00000000
,
00000100
00000000
00000000
00000001
00000000
00000000
00000010
00000000
00000100
00000000
00001000
00000000
00000000
00000000
00000010
00000000
,
00010000
00001000
00000010
00001000
00010000
00000000
00000010
00010000
,
00001000
01000000
00010000
00000000
10010000
00000000
10000000
01000000
,
00100000
00000000
10000000
00000000
00100000
00000000
00000000
00010000
00000000
00000000
10000000
00000000
01000000
00000000
00010000
00000000
,
01000000
00000000
00000000
10000000
00000000
00000000
00100000
00000000
01000000
00000000
00010000
00000000
00000000
00000000
00100000
00000000
,
00001000
00000000
00010000
00000000
00100000
00000000
00010000
00000000
00001000
00000000
00000000
00000000
00011000
00000000
00000000
00011000
,
00000000
00022000
00000000
00000000
00033000
00000000
00001000
00000010
,
00000001
00000000
00000000
00000000
00000100
00000000
00000000
00000010
00000000
00000010
00001000
00000000
00000100
00000000
00000001
00000000
,
00000100
00001000
00000010
00000000
00011000
00000000
00010000
00100000
,
10000000
00000000
00000000
00000000
01000000
00000000
00000000
00100000
00000000
00100000
00010000
00000000
00110000
00000000
00000000
11000000
,
00000000
00000000
10010000
00000000
00000000
00000000
10000000
00000000
00100000
01000000
00000000
00000000
00010000
00000000
00100000
00000000
,
01000000
10000000
00100000
00010000
00100000
10000000
01000000
00100000
,
00001000
00010000
00000100
00000010
00000001
00000000
00001000
00000010
,
00000100
00000001
00000010
00000100
00010000
00001000
00200000
00000000
,
01000000
00000000
01000000
00000000
01300000
10000000
00010000
01000000
,
00100000
10000000
00000000
01000000
00100000
00000000
00010000
10000000
,
12000000
00000000
00000000
00000000
03010000
00000000
10000000
00000000
12000000
00000000
00000000
00000000
03010000
00000000
00100000
00010000
,
00100000
00000000
01000000
00000000
10000000
00000000
00100000
00000000
00010000
00000000
00001000
00010000
00000000
00000000
01000000
00000000
,
00010000
00000000
00001000
00000000
00000010
00000000
00000001
00000000
00000100
00000000
00000010
00000000
00001010
00000000
00000000
00000101
,
00000000
00000000
00001001
00000000
00000000
00000000
00000001
00000000
00000010
00000100
00000000
00000000
00001000
00000000
00000001
00000000
,
00000201
00000000
00000000
00000000
00001300
00000000
00000001
00000000
00000201
00000000
00000000
00000000
00001300
00000000
00000010
00001000
,
00000010
00000000
00000100
00000000
00000001
00000000
00000010
00000000
00001000
00000000
00010000
00001000
00000000
00000000
00000100
00000000
,
00001000
00010000
00100000
10000000
01000000
00100000
00020000
00000000
,
00000000
00000000
00000000
00000000
00000000
00000000
00000000
00000000
10030000
00000000
00000000
00000000
00010000
00000000
01000000
00100000
,
00000000
10000000
00100000
00000000
10000000
01000000
00000000
00100000
01000000
00000000
00010000
00000000
00001000
00000000
00100000
00001000
,
00000000
00001000
00010000
00000000
00010000
00000010
00000000
00000010
00010000
00000000
00001000
00000000
00000100
00000000
00000010
00000100
,
00000000
00000001
00000100
00000000
00000001
00000010
00000000
00000100
00000010
00000000
00000100
00000000
00001000
00000000
00000000
00000000
,
00000000
00000000
00000001
00000000
00001000
00000000
00001001
00000000
00000000
00000000
00000000
00000000
00000000
00000000
00000000
00000220
00000000
00000000
00000000
00000000
00000000
00000000
00000000
00000000
,
00000000
00000000
00000000
00000330
;
