#VERSION:0.83;
#TITLE:YELLOW SPLASH!!;
#SUBTITLE:;
#ARTIST:P*Light;
#TITLETRANSLIT:;
#SUBTITLETRANSLIT:;
#ARTISTTRANSLIT:;
#GENRE:Happy Hardcore;
#ORIGIN:;
#CREDIT:;
#BANNER:YELLOW SPLASH!!.png;
#BACKGROUND:YELLOW SPLASH!!-bg.png;
#PREVIEWVID:;
#JACKET:YELLOW SPLASH!!-jacket.png;
#CDIMAGE:;
#DISCIMAGE:;
#LYRICSPATH:;
#CDTITLE:cdtitle.png;
#MUSIC:YELLOW SPLASH!!.ogg;
#OFFSET:-1.191010;
#SAMPLESTART:11.407227;
#SAMPLELENGTH:10.378378;
#SELECTABLE:YES;
#DISPLAYBPM:185.000000;
#BPMS:0.000=185.000,
121.000=370.000,
121.500=185.000,
121.750=92.500,
122.000=185.000,
234.000=92.500,
238.000=185.000;
#STOPS:98.000=0.324,
101.000=0.324,
108.000=0.324,
217.000=0.973,
252.000=0.162,
252.500=0.162;
#DELAYS:;
#WARPS:;
#TIMESIGNATURES:0.000=4=4;
#TICKCOUNTS:0.000=4;
#COMBOS:0.000=1;
#SPEEDS:0.000=1.000=0.000=0;
#SCROLLS:0.000=1.000,
122.000=0.000,
123.500=1.000;
#FAKES:;
#LABELS:0.000=Song Start;
#BGCHANGES:;
#KEYSOUNDS:;
#ATTACKS:
;

//---------------dance-single - ----------------
#NOTEDATA:;
#CHARTNAME:;
#STEPSTYPE:dance-single;
#DESCRIPTION:;
#CHARTSTYLE:;
#DIFFICULTY:Challenge;
#METER:15;
#RADARVALUES:0.750257,0.811826,0.440647,0.404676,0.350719,584.000000,535.000000,49.000000,45.000000,63.000000,0.000000,0.000000,0.000000,0.000000,0.750257,0.811826,0.440647,0.404676,0.350719,584.000000,535.000000,49.000000,45.000000,63.000000,0.000000,0.000000,0.000000,0.000000;
#CREDIT:;
#OFFSET:-1.191010;
#BPMS:0.000000=185.000000
,121.000000=370.000000
,121.500000=185.000000
,121.750000=92.500000
,122.000000=185.000000
,234.000000=92.500000
,238.000000=185.000000
;
#STOPS:98.000000=0.324322
,101.000000=0.324326
,108.000000=0.324322
,217.000000=0.972969
,252.000000=0.162163
,252.500000=0.162163
;
#DELAYS:;
#WARPS:;
#TIMESIGNATURES:0.000000=4=4
;
#TICKCOUNTS:0.000000=4
;
#COMBOS:0.000000=1
;
#SPEEDS:0.000000=1.000000=0.000000=0
;
#SCROLLS:0.000000=1.000000
,122.000000=0.000000
,123.500000=1.000000
;
#FAKES:;
#LABELS:0.000000=Song Start
;
#DISPLAYBPM:185.000000;
#NOTES:
// measure 0
0000
0000
0000
0000
,  // measure 1
0000
0000
0000
0000
,  // measure 2
0000
0000
0000
0000
,  // measure 3
0000
0000
0000
0000
,  // measure 4
1002
0000
0010
0010
0000
0010
0000
0013
,  // measure 5
2001
0000
0010
0000
0000
0000
3010
0000
1002
0000
0013
0000
0100
0010
0100
0010
,  // measure 6
0100
1000
0001
0000
0100
0001
1000
0000
,  // measure 7
0002
0000
0023
0000
0230
0000
2300
0000
3001
0000
0000
0000
MMMM
0000
0001
1000
,  // measure 8
0001
0000
1001
0000
1000
0001
1000
0100
,  // measure 9
M0MM
0100
0001
1000
0001
0010
0010
0010
,  // measure 10
0001
0000
1000
0010
1000
0000
0010
0000
0100
0000
1000
0000
0100
0000
0010
0000
,  // measure 11
1000
0000
0001
0010
0100
0000
0010
0100
1000
0000
0001
0000
2000
0000
0010
0000
,  // measure 12
3001
0000
1001
0000
1000
0001
1000
0010
,  // measure 13
MM0M
0010
0001
1000
0001
0100
0100
0100
,  // measure 14
0010
0000
1000
0001
1000
0000
0100
0000
1000
0000
0010
0000
1000
0001
1000
0001
,  // measure 15
1000
0000
0100
0010
0001
0000
0100
0010
1000
0000
0000
0000
MMMM
0000
1000
0001
,  // measure 16
1000
0000
1001
0000
0001
1000
0001
0100
,  // measure 17
M0MM
0100
1000
0001
1000
0010
0010
0010
,  // measure 18
1000
0000
0001
0010
0001
0000
0010
0000
0100
0000
0001
0000
0100
0000
0010
0000
,  // measure 19
0001
0000
1000
0010
0100
0000
0010
0100
0001
0000
1000
0000
0002
0000
0010
0000
,  // measure 20
1003
0000
1100
0000
0011
0011
0000
1010
,  // measure 21
0000
0011
0000
1001
0001
0100
1000
0000
,  // measure 22
0100
0000
0001
0100
0001
0000
1000
0000
0001
0010
0001
0010
0001
0010
0001
0010
,  // measure 23
0100
0000
1000
0001
0100
0000
0010
1000
0002
0000
0000
0000
0003
0000
0000
0000
,  // measure 24
1001
0000
0000
0000
0110
0000
0000
0000
1001
0000
0000
0000
1000
0000
0001
0100
,  // measure 25
0001
0000
1000
0000
0001
0000
0000
0000
0001
0000
1000
0100
1000
0000
0001
0000
,  // measure 26
1000
0000
0010
0000
0100
0000
0001
0000
1000
0000
0001
0010
0001
0000
1000
0010
,  // measure 27
1000
1001
0110
1001
,  // measure 28
0001
0000
0001
0000
0010
0000
0100
0010
0001
0000
1000
0000
0001
0000
0000
0000
,  // measure 29
1000
0000
1000
0000
0010
0000
0100
0010
1000
0000
0001
0000
0010
0000
0100
0000
,  // measure 30
1000
0001
1000
0001
0200
0000
0000
0000
0300
0000
0000
0000
0000
0000
0000
0000
,  // measure 31
MMMM
0000
0000
0000
0001
0000
0010
0000
0100
0000
0002
0000
0000
0000
0103
0010
,  // measure 32
0100
0010
0001
0100
0010
2000
0000
3MMM
,  // measure 33
MMM0
0000
0001
0000
2000
0000
0100
0000
3002
0000
0010
0000
1003
0000
0001
1000
,  // measure 34
0001
0100
0010
1010
0000
1001
0000
0011
,  // measure 35
0010
0000
0100
0000
1000
0000
0010
0000
0100
0000
2000
0000
0000
0000
3100
0010
,  // measure 36
0100
0010
1000
0100
0010
0002
0000
MMM3
,  // measure 37
0MMM
1000
0002
0100
2003
0010
3001
0010
,  // measure 38
0100
1000
0001
1000
0010
0000
0000
0000
0110
0000
0000
0000
0001
1000
0001
0000
,  // measure 39
1000
0000
0100
0000
0001
0000
0100
0000
0010
0000
2000
0000
0000
0000
3010
0100
,  // measure 40
0010
0001
1000
0010
0100
0002
0000
MMM3
,  // measure 41
0MMM
0000
1000
0000
0200
0000
0010
0000
2300
0000
0001
0000
3010
0000
1000
0010
,  // measure 42
1000
0100
0010
0011
0000
1100
0000
1001
,  // measure 43
0001
0000
0100
0000
1000
0000
0100
0000
0010
0000
0002
0000
0000
0000
0013
0100
,  // measure 44
0010
1000
0001
0010
0100
2000
0000
3MMM
,  // measure 45
MMM0
0000
0001
0000
1000
0000
0001
0010
0001
0000
1000
0010
1000
0010
1000
0000
,  // measure 46
0001
0010
0100
1000
0002
0000
0000
0000
0000
0000
0000
0000
0003
0000
0000
0000
,  // measure 47
MMMM
1010
0011
1010
,  // measure 48
0002
0010
0000
0010
0000
1003
0010
0100
,  // measure 49
0001
1000
0001
1000
0100
0000
0000
0000
0011
0000
0000
0000
1001
0000
0000
0000
,  // measure 50
0001
0200
0000
0310
0100
0001
1000
0000
,  // measure 51
0001
1000
0100
0010
0001
0000
0000
0000
1010
0000
0000
0000
0011
0000
0000
0000
,  // measure 52
2000
0010
0000
0010
0000
3001
0010
0100
,  // measure 53
1000
0001
1000
0001
0100
0000
0000
0000
1010
0000
0000
0000
0011
0000
0000
0000
,  // measure 54
1000
0010
0100
0001
1000
0000
0000
0000
2001
0000
0000
0000
0100
0000
0100
0000
,  // measure 55
0000
0100
0000
3100
1002
0100
0000
0100
,  // measure 56
0000
0000
0100
0000
0000
0000
1000
0000
1003
0000
0001
0010
0001
0000
1000
0010
,  // measure 57
1000
0000
0001
0010
0001
0000
1000
0010
1000
0000
0002
0000
0100
0000
2003
0000
,  // measure 58
0100
0000
3001
0000
0100
0010
1000
0001
0020
0000
0000
0000
0000
0000
0000
0000
,  // measure 59
0000
0000
0000
0000
0031
1000
0010
0000
,  // measure 60
1000
0001
0010
0000
0100
0100
0100
0100
,  // measure 61
0100
0000
1000
0001
1000
0000
0010
0000
2002
0000
0000
0000
0000
0000
0000
0000
,  // measure 62
3003
0000
0012
0010
0003
2010
0010
0010
,  // measure 63
3002
0003
0000
0000
2002
3003
0000
0000
1000
0000
0000
0000
0001
0000
0010
0000
0001
0000
0000
0000
0010
0000
0000
0000
1000
0000
0000
0000
0001
0000
0000
0000
,  // measure 64
0100
0000
1000
0000
0001
0000
0100
0010
1000
0000
0010
0100
0001
0000
1000
0000
,  // measure 65
0002
0010
1003
0000
1001
0000
0001
0100
,  // measure 66
0010
0100
M0MM
0100
0010
0100
1000
0001
,  // measure 67
0001
0000
0001
0000
0010
0000
0001
1000
0001
0000
0100
0000
0001
0000
0010
0000
,  // measure 68
0100
1000
0001
1000
0010
0000
0100
0010
1000
0000
0100
0010
0001
0000
0000
0000
,  // measure 69
MMMM
0000
0001
1000
0001
0000
0000
0000
1001
0000
0000
0000
1000
0000
0010
0000
,  // measure 70
0100
0010
MM0M
0010
0100
0010
0001
1000
,  // measure 71
1000
0000
1000
0000
0001
0000
1000
0010
1000
0000
0010
0000
0001
0000
1000
0000
,  // measure 72
0100
0000
0001
0000
1000
0000
0100
0010
0001
0000
0010
0100
1000
0000
0001
0000
,  // measure 73
2000
0010
3001
0000
0101
0000
1010
1010
,  // measure 74
0000
0011
0000
1010
0000
1001
1000
0100
,  // measure 75
0001
0000
0000
0000
0100
0000
1000
0100
1000
0000
0001
0000
1000
0010
1000
0010
,  // measure 76
1000
0010
1000
0010
0100
0000
0010
1000
0100
0000
0010
0001
0100
0000
0000
0000
,  // measure 77
MMMM
2002
0000
0000
,  // measure 78
0000
0000
3003
0000
;

//---------------dance-single - ----------------
#NOTEDATA:;
#CHARTNAME:;
#STEPSTYPE:dance-single;
#DESCRIPTION:;
#CHARTSTYLE:;
#DIFFICULTY:Hard;
#METER:12;
#RADARVALUES:0.572970,0.600045,0.467626,0.458633,0.000000,446.000000,394.000000,52.000000,51.000000,28.000000,0.000000,0.000000,0.000000,0.000000,0.572970,0.600045,0.467626,0.458633,0.000000,446.000000,394.000000,52.000000,51.000000,28.000000,0.000000,0.000000,0.000000,0.000000;
#CREDIT:;
#OFFSET:-1.191010;
#BPMS:0.000000=185.000000
,121.000000=370.000000
,121.500000=185.000000
,121.750000=92.500000
,122.000000=185.000000
,234.000000=92.500000
,238.000000=185.000000
;
#STOPS:98.000000=0.324322
,101.000000=0.324326
,108.000000=0.324322
,217.000000=0.972969
,252.000000=0.162163
,252.500000=0.162163
;
#DELAYS:;
#WARPS:;
#TIMESIGNATURES:0.000000=4=4
;
#TICKCOUNTS:0.000000=4
;
#COMBOS:0.000000=1
;
#SPEEDS:0.000000=1.000000=0.000000=0
;
#SCROLLS:0.000000=1.000000
,122.000000=0.000000
,123.500000=1.000000
;
#FAKES:;
#LABELS:0.000000=Song Start
;
#DISPLAYBPM:185.000000;
#NOTES:
0000
0000
0000
0000
,
0000
0000
0000
0000
,
0000
0000
0000
0000
,
0000
0000
0000
0000
,
1002
0000
0003
0010
0000
0010
0000
0001
,
2000
0010
3000
1000
0002
0010
2003
0010
,
3001
0011
1000
1010
,
0002
0023
0230
2300
3001
0000
MMMM
0000
,
0101
0000
1001
0000
0011
0000
0001
0010
,
0000
0100
1000
0000
0001
1000
0010
0000
,
1000
0010
1000
0010
1000
0100
0010
0000
,
0001
0010
0100
1000
0001
1000
0010
0000
,
1010
0000
1001
0000
1100
0000
1000
0100
,
0000
0010
0001
0000
1000
0001
0100
0000
,
1010
1000
0001
0000
0011
0001
1000
0000
,
0002
0100
2003
0010
3001
0000
MMMM
0000
,
1100
0000
1001
0000
1010
0000
1000
0010
,
0000
0100
0001
0000
1000
0001
0010
0000
,
0001
0010
0001
0010
0001
0100
0010
0000
,
1000
0010
0100
0001
1000
0001
0010
0000
,
1100
0000
0011
0000
1000
1000
0000
0101
,
0000
1010
0000
1000
1000
0100
0001
0000
,
1100
0000
0011
0000
0001
0100
0010
1000
,
0002
0010
2003
0010
3001
0000
0000
0000
,
0011
0000
1100
0000
0011
0000
1000
0010
,
0100
0010
1000
0000
0001
1000
0100
0000
,
1000
0001
0100
0000
0001
0010
0100
0010
,
0001
1010
0101
1010
,
0001
0000
1000
0100
0010
0100
1000
0000
,
0001
0000
1000
0010
1000
0010
0100
0001
,
0010
0100
2000
0000
3000
0000
0000
0000
,
MMMM
0000
2001
0000
3010
0200
0000
0310
,
0100
0000
0001
1000
0001
0020
0000
0100
,
0130
0000
0010
0001
0010
0001
1000
0020
,
0000
0100
0000
0001
0000
0100
0000
1000
,
1030
0000
1002
0000
0013
0200
0000
0310
,
0100
0000
1000
0001
1000
0020
0000
0100
,
0130
0000
0001
0010
0100
1000
0010
0100
,
0001
0000
2002
0000
3003
0000
0100
0010
,
0100
0000
1002
0000
0013
0200
0000
0310
,
0100
0000
0001
0100
1000
0002
0000
1000
,
1003
0000
0010
1000
0010
1000
0001
0020
,
0000
0100
0000
1000
0000
0100
0000
0001
,
0031
0000
2001
0000
3010
0200
0000
0310
,
0100
0000
1000
0100
0001
2000
0000
0001
,
3001
0000
0011
0001
1000
0000
1010
1000
,
0001
1000
0200
0000
0000
0000
0300
0000
,
MMMM
1000
0010
0100
,
0010
1000
0000
1000
0000
1000
0010
0100
,
0002
1003
0100
0010
,
0001
1000
0000
1000
0010
1000
0100
0000
,
2001
3001
0100
0010
,
0100
0001
0000
0001
0000
0001
0100
0010
,
2000
0000
3001
0000
0010
0000
0100
1000
,
0002
2003
3010
0000
2001
0000
3000
0010
,
0000
0010
0000
1000
0002
0010
0003
0010
,
0000
0010
0000
0001
2000
0010
3001
0000
,
0002
0010
1003
0000
1000
0010
1000
0100
,
1000
0010
1000
0100
0020
0000
0000
0000
,
0000
0000
0000
0000
0031
1000
0010
0000
,
1000
0001
0010
0000
0001
0001
1000
1000
,
0001
MMMM
2002
0000
,
3003
0000
0001
0100
0000
0001
1000
1000
,
0200
0300
0000
0000
2002
3003
0000
0000
0001
0000
0000
0000
0010
0000
0000
0000
0001
0000
0000
0000
0010
0000
0000
0000
0001
0000
0000
0000
0100
0000
0000
0000
,
0010
0000
0001
0010
0100
0010
1000
0001
,
0010
0011
1001
0101
,
0001
0100
0000
0010
1000
0000
0010
1000
,
0100
0000
0011
0001
1000
0000
1010
1000
,
0001
0000
2000
0100
3002
0010
1003
0000
,
MMMM
0101
1001
0011
,
0001
0010
0000
0100
1000
0000
0100
1000
,
0010
0000
1000
0010
1000
0010
1000
0100
,
0010
0000
1000
0010
0100
0010
0001
1000
,
0010
0000
0101
0000
1010
0000
0001
0001
,
0000
1100
0000
0011
0000
0001
0001
0100
,
1000
0000
0101
0000
1010
0000
1000
0100
,
0010
0001
2000
0010
3002
0010
1003
0000
,
MMMM
2002
0000
0000
,
0000
0000
3003
0000
;

//---------------dance-single - ----------------
#NOTEDATA:;
#CHARTNAME:;
#STEPSTYPE:dance-single;
#DESCRIPTION:;
#CHARTSTYLE:;
#DIFFICULTY:Medium;
#METER:10;
#RADARVALUES:0.454779,0.529451,0.296763,0.350719,0.000000,354.000000,321.000000,33.000000,39.000000,0.000000,0.000000,0.000000,0.000000,0.000000,0.454779,0.529451,0.296763,0.350719,0.000000,354.000000,321.000000,33.000000,39.000000,0.000000,0.000000,0.000000,0.000000,0.000000;
#CREDIT:;
#OFFSET:-1.191010;
#BPMS:0.000000=185.000000
,121.000000=370.000000
,121.500000=185.000000
,121.750000=92.500000
,122.000000=185.000000
,234.000000=92.500000
,238.000000=185.000000
;
#STOPS:98.000000=0.324322
,101.000000=0.324326
,108.000000=0.324322
,217.000000=0.972969
,252.000000=0.162163
,252.500000=0.162163
;
#DELAYS:;
#WARPS:;
#TIMESIGNATURES:0.000000=4=4
;
#TICKCOUNTS:0.000000=4
;
#COMBOS:0.000000=1
;
#SPEEDS:0.000000=1.000000=0.000000=0
;
#SCROLLS:0.000000=1.000000
,122.000000=0.000000
,123.500000=1.000000
;
#FAKES:;
#LABELS:0.000000=Song Start
;
#DISPLAYBPM:185.000000;
#NOTES:
0000
0000
0000
0000
,
0000
0000
0000
0000
,
0000
0000
0000
0000
,
0000
0000
0000
0000
,
1001
0000
0010
0000
,
1001
0000
0110
1001
,
0002
0010
2003
0010
,
3001
1000
0001
1000
0000
0000
1001
0000
,
0001
0000
0010
0000
0100
0000
0010
0001
,
0000
0010
0001
0000
1000
0001
0100
0000
,
0010
0000
0010
0000
0010
1000
0100
0000
,
0010
0000
0010
0000
0010
0100
1000
0000
,
0001
0000
0100
0000
0010
0000
0100
0001
,
0000
0100
0001
0000
1000
0001
0010
0000
,
0011
1000
1010
0001
,
1000
0001
1000
0001
1000
0000
0000
0000
,
1000
0000
0010
0000
0100
0000
0010
1000
,
0000
0010
1000
0000
0001
1000
0100
0000
,
0010
0000
0010
0000
0010
0001
0100
0000
,
0010
0000
0010
0000
0010
0100
0001
0000
,
1000
0000
1000
0000
0001
0010
0000
0001
,
0000
0001
0000
1000
0010
0000
1001
0000
,
0002
0023
0230
2300
,
3001
1000
0001
1000
0001
0000
0000
0000
,
1000
0010
1000
0001
,
0001
0010
0001
0000
1000
0000
1000
0000
,
1000
0100
1000
0000
0001
0000
0001
0100
,
0001
1000
0100
1000
,
0001
0000
1000
0000
1000
0010
1000
0000
,
0001
0011
1000
1010
,
0001
2002
0000
0000
,
3003
0000
0002
0000
0013
0200
0000
0310
,
0100
0000
0010
0000
0001
2000
0000
0001
,
3001
0000
0100
0010
0100
0000
0010
2000
,
0000
0010
0000
0001
0000
3100
0000
0010
,
0001
0000
2000
0000
3010
0200
0000
0310
,
0100
0000
0010
0000
1000
0002
0000
1000
,
1003
0000
0001
0010
0100
0000
1000
0010
,
0100
0000
2002
0000
3003
0000
0001
1000
,
0001
0000
2000
0000
3010
0200
0000
0301
,
1000
0000
0100
0000
1000
0020
0000
1000
,
1030
0000
0001
1000
0100
0000
0010
0002
,
0000
0010
0000
1000
0000
0103
0000
0010
,
1000
0000
0002
0000
0013
0200
0000
1300
,
0001
0000
0100
0000
0001
0020
0000
0001
,
0031
0000
1001
0000
1001
0000
0001
0100
,
0010
1000
0002
0000
0000
0000
0000
0000
,
0003
0001
0010
0100
,
0000
0010
0000
0100
,
0110
0001
1000
0001
,
0000
1000
0001
0100
,
0110
1000
0010
0100
,
0000
0010
0000
0100
,
0110
1000
0001
1000
,
0100
0110
0011
0000
,
1000
0000
1010
0000
,
0001
0000
0011
1000
,
1010
0000
0001
0000
0010
0100
0010
0100
,
0010
0100
0010
0000
2002
0000
0000
0000
,
3003
0000
0002
0100
,
2003
0000
0100
0000
3001
1000
0001
1000
,
0001
0101
2020
0000
,
3030
0000
0000
0011
0000
0000
1100
0000
,
2002
3003
1000
0000
1000
0000
1000
0010
,
0100
0000
1000
0000
1000
0000
1000
0100
,
0001
1000
0100
0010
,
0100
1000
0000
0001
0100
0000
0001
0100
,
0010
1010
0001
0011
,
1000
0000
0001
0100
0010
1000
0001
0000
,
0000
0001
0010
0100
,
0010
0001
0000
1000
0010
0000
1000
0010
,
0100
0000
0001
0000
0001
0000
0001
0010
,
0100
0000
0001
0000
0001
0000
0001
0100
,
1000
0000
0001
0000
0001
0000
1000
0010
,
0000
1000
0000
1000
0000
0001
0010
0000
,
1001
2000
3020
0230
,
0302
0000
1003
0100
0010
0001
1000
0000
,
1010
0202
0000
0000
,
0000
0000
0303
0000
;

//---------------dance-single - ----------------
#NOTEDATA:;
#CHARTNAME:;
#STEPSTYPE:dance-single;
#DESCRIPTION:;
#CHARTSTYLE:;
#DIFFICULTY:Easy;
#METER:6;
#RADARVALUES:0.305755,0.494155,0.287770,0.215827,0.000000,238.000000,206.000000,32.000000,24.000000,0.000000,0.000000,0.000000,0.000000,0.000000,0.305755,0.494155,0.287770,0.215827,0.000000,238.000000,206.000000,32.000000,24.000000,0.000000,0.000000,0.000000,0.000000,0.000000;
#CREDIT:;
#OFFSET:-1.191010;
#BPMS:0.000000=185.000000
,121.000000=370.000000
,121.500000=185.000000
,121.750000=92.500000
,122.000000=185.000000
,234.000000=92.500000
,238.000000=185.000000
;
#STOPS:98.000000=0.324322
,101.000000=0.324326
,108.000000=0.324322
,217.000000=0.972969
,252.000000=0.324326
;
#DELAYS:;
#WARPS:;
#TIMESIGNATURES:0.000000=4=4
;
#TICKCOUNTS:0.000000=4
;
#COMBOS:0.000000=1
;
#SPEEDS:0.000000=1.000000=0.000000=0
;
#SCROLLS:0.000000=1.000000
,122.000000=0.000000
,123.500000=1.000000
;
#FAKES:;
#LABELS:0.000000=Song Start
;
#DISPLAYBPM:185.000000;
#NOTES:
0000
0000
0000
0000
,
0000
0000
0000
0000
,
0000
0000
0000
0000
,
0000
0000
0000
0000
,
1001
0000
0010
0000
,
1001
0000
0110
1001
,
0002
0000
0000
0000
,
1003
0001
0000
1001
,
1000
1000
0010
0000
,
0100
0000
0010
1000
,
0001
1000
0100
0000
,
0100
0010
0001
0000
,
1000
1000
0010
0000
,
1000
0000
0001
0010
,
1100
0000
0101
0000
,
1001
0010
1001
0000
,
0001
0001
0010
0000
,
0100
0000
0010
0001
,
1000
0001
0100
0000
,
0100
0010
1000
0000
,
0100
0000
0100
0000
0100
0000
0000
0100
,
0000
0100
0100
0000
,
0011
0000
1010
0000
,
1001
0010
1001
0000
,
1000
0010
1000
0001
,
0010
0001
1000
0010
,
0100
0000
0001
0010
,
0100
1000
0001
0100
,
0000
0001
1000
0100
,
0000
0010
0001
1000
,
0010
0200
0000
0000
,
0300
0002
0000
2003
,
0000
3100
0010
0002
,
0000
1003
0010
1000
,
0010
1000
0100
0100
,
0000
2000
0000
3002
,
0000
0103
0010
2000
,
0000
3001
0010
0100
,
1000
0002
0000
1003
,
0001
0200
0000
0320
,
0000
1030
0001
0020
,
0000
0130
1000
0001
,
0100
0010
1000
1000
,
0000
0200
0000
0320
,
0000
0031
1000
0020
,
0000
0130
0010
0100
,
0010
2002
0000
0000
,
3003
0001
0000
0001
,
0000
0001
0010
0100
,
0000
1000
0000
1000
,
0000
1000
0010
0100
,
0000
0001
0000
0001
,
0000
0001
1000
0100
,
0000
1000
0001
0100
,
0010
1000
1001
0000
,
0010
0000
1001
0000
,
0010
0000
1001
0000
,
1001
0000
1001
1001
,
1001
1001
2002
0000
,
3003
0000
2000
0000
,
0000
0000
3001
1000
,
0100
0010
0022
0000
,
0033
0000
0000
1000
0000
0000
0001
0000
,
2000
3000
0000
0000
0000
0000
0000
0000
1000
0000
0000
0000
0000
0000
0000
0000
0010
0000
0000
0000
0000
0000
0000
0000
0001
0000
0000
0000
0000
0000
0000
0000
,
0000
0001
0010
1000
,
0000
0001
0001
0010
,
0000
0100
0000
1000
,
0010
0101
0000
1100
,
0000
1001
0010
1001
,
0000
1000
1000
0010
,
0000
0100
0000
0010
,
1000
0001
0010
1000
,
0000
1000
0010
0001
,
0000
0100
0100
0100
,
0000
0100
0000
0000
0100
0000
0100
0000
,
0000
1010
0000
0011
,
0000
1001
0010
1001
,
0100
0020
0000
0000
,
0000
0000
0030
0000
;

//---------------dance-single - ----------------
#NOTEDATA:;
#CHARTNAME:;
#STEPSTYPE:dance-single;
#DESCRIPTION:;
#CHARTSTYLE:;
#DIFFICULTY:Beginner;
#METER:3;
#RADARVALUES:0.178571,0.292266,0.116906,0.233813,0.000000,139.000000,126.000000,13.000000,26.000000,0.000000,0.000000,0.000000,0.000000,0.000000,0.178571,0.292266,0.116906,0.233813,0.000000,139.000000,126.000000,13.000000,26.000000,0.000000,0.000000,0.000000,0.000000,0.000000;
#CREDIT:;
#OFFSET:-1.191010;
#BPMS:0.000000=185.000000
;
#STOPS:;
#DELAYS:;
#WARPS:;
#TIMESIGNATURES:0.000000=4=4
;
#TICKCOUNTS:0.000000=4
;
#COMBOS:0.000000=1
;
#SPEEDS:0.000000=1.000000=0.000000=0
;
#SCROLLS:0.000000=1.000000
;
#FAKES:;
#LABELS:0.000000=Song Start
;
#DISPLAYBPM:185.000000;
#NOTES:
0000
0000
0000
0000
,
0000
0000
0000
0000
,
0000
0000
0000
0000
,
0000
0000
0000
0000
,
0010
0000
0000
0000
,
0010
0000
0010
0020
,
0030
0000
0000
0000
,
2002
0000
3003
0000
,
0001
0000
0010
0000
,
0100
0000
0010
0000
,
0001
0001
0001
0000
,
1000
1000
1000
0000
,
0001
0000
0100
0000
,
0010
0000
0100
0000
,
0001
0000
0010
0000
,
2002
0000
3003
0000
,
1000
0000
0010
0000
,
0100
0000
0010
0000
,
1000
1000
1000
0000
,
0001
0001
0001
0000
,
0110
0000
0000
0000
,
1001
0000
0000
0100
,
0100
0000
0010
0000
,
2002
0000
3003
0000
,
0001
0000
0000
0000
,
1000
0000
0000
0000
,
0001
0000
1000
0000
,
0001
0000
0000
0000
,
0010
0000
0000
0000
,
0100
0000
0000
0000
,
0010
0000
0100
0000
,
0020
0000
0030
0000
,
0002
0000
0003
0000
,
0200
0000
0300
0000
,
0010
0010
0010
0000
,
0100
0000
0001
0000
,
2000
0000
3000
0000
,
0200
0000
0300
0000
,
0010
0010
0010
0000
,
2002
0000
3003
0000
,
2000
0000
3000
0000
,
0020
0000
0030
0000
,
0100
0100
0100
0000
,
0010
0000
1000
0000
,
0002
0000
0003
0000
,
0020
0000
0030
0000
,
0100
0100
0100
0000
,
0100
0000
0000
0000
,
1000
0000
0000
0000
,
0010
0000
0000
0000
,
0100
0000
0000
0000
,
0001
0000
0000
0000
,
0010
0000
0000
0000
,
0100
0000
0000
0000
,
1000
0000
0000
0000
,
1001
0000
0000
0000
,
0010
0000
0000
0000
,
0010
0000
0000
0000
,
0010
0000
0010
0000
,
0010
0010
0010
0010
,
0020
0000
0000
0000
,
0030
0000
0000
0000
,
1001
0000
0000
0000
,
0100
0100
0100
0000
,
2002
0000
0000
0000
,
3003
0000
0000
0000
,
1000
1000
1000
0000
,
0001
0001
0001
0000
,
1000
0000
0100
0000
,
0010
0000
0100
0000
,
1000
0000
0010
0000
,
2002
0000
3003
0000
,
0001
0000
0010
0000
,
0100
0000
0010
0000
,
0001
0001
0001
0000
,
1000
1000
1000
0000
,
0110
0000
0000
0000
,
1001
0000
0000
0100
,
0100
0000
0010
0000
,
2002
0000
3003
0000
,
0020
0000
0000
0000
,
0000
0030
0000
0000
;
