#TITLE:Xmix4;
#SUBTITLE:(Linear Momentum);
#ARTIST:dj jiggens;
#TITLETRANSLIT:;
#SUBTITLETRANSLIT:;
#ARTISTTRANSLIT:;
#GENRE:;
#CREDIT:darkanine/OrangeRight;
#MUSIC:Xmix4 (Linear Momentum).ogg;
#BANNER:Xmix4 (Linear Momentum).png;
#BACKGROUND:Xmix4 (Linear Momentum)-bg.png;
#CDTITLE:;
#SAMPLESTART:79.151;
#SAMPLELENGTH:9.600;
#SELECTABLE:YES;
#OFFSET:0.000;
#BPMS:0.000=152.000
,36.000=152.281
,36.250=152.844
,36.500=153.406
,36.750=153.969
,37.000=154.531
,37.250=155.094
,37.500=155.656
,37.750=156.219
,38.000=156.781
,38.250=157.344
,38.500=157.906
,38.750=158.469
,39.000=159.031
,39.250=159.594
,39.500=160.156
,39.750=160.719
,40.000=161.281
,40.250=161.844
,40.500=162.406
,40.750=162.969
,41.000=163.531
,41.250=164.094
,41.500=164.656
,41.750=165.219
,42.000=165.781
,42.250=166.344
,42.500=166.906
,42.750=167.469
,43.000=168.031
,43.250=168.594
,43.500=169.156
,43.750=169.719
,44.000=170.000
,76.000=340.000
,76.750=170.000
,78.000=340.000
,78.750=170.000
,80.000=340.000
,80.750=170.000
,84.000=340.000
,84.750=170.000
,86.000=340.000
,86.750=170.000
,88.000=340.000
,88.750=170.000
,92.000=340.000
,92.750=170.000
,94.000=340.000
,94.750=170.000
,96.000=340.000
,96.750=170.000
,100.000=340.000
,100.750=170.000
,102.000=340.000
,102.750=170.000
,104.000=340.000
,104.750=170.000
,202.000=228.340
,204.000=175.000
,232.000=350.000
,235.750=175.000
,266.000=350.000
,268.000=175.000
;
#STOPS:76.000=0.132
,78.000=0.132
,80.000=0.132
,84.000=0.088
,84.500=0.044
,86.000=0.088
,86.500=0.044
,88.000=0.088
,88.500=0.044
,92.000=0.132
,94.000=0.132
,96.000=0.132
,100.000=0.088
,100.500=0.044
,102.000=0.088
,102.500=0.044
,104.000=0.088
,104.500=0.044
,202.000=0.044
,202.500=0.044
,203.000=0.044
,203.500=0.044
,232.000=0.086
,232.500=0.086
,233.000=0.086
,233.500=0.086
,234.000=0.043
,234.250=0.043
,234.500=0.043
,234.750=0.043
,235.000=0.043
,235.250=0.043
,235.500=0.043
,266.000=0.086
,266.500=0.086
,267.000=0.086
,267.500=0.086
;
#DISPLAYBPM:152.000:175.000;
#BGCHANGES:;
#FGCHANGES:;

//--------------- dance-single - OrangeRight ----------------
#NOTES:
     dance-single:
     OrangeRight:
     Beginner:
     4:
     0,0,0,0,0:
0000
0000
0000
0000
,
0000
0000
0000
0000
,
0000
0000
0000
0000
,
0100
0000
0000
0000
,
0000
0000
0000
0000
,
0010
0000
0000
0000
,
0000
0000
0000
0000
,
1000
0000
0000
0000
,
0001
0000
1000
0000
,
0002
0000
0000
0000
,
0003
0000
0000
0000
,
1000
0000
0000
0000
,
0010
0000
0100
0000
,
0001
0000
0000
0000
,
0010
0000
0010
0000
,
0001
0000
0000
0000
,
0100
0000
0010
0000
,
1000
0000
0000
0000
,
0100
0000
0100
0000
,
1000
0000
1000
0000
,
1000
0000
1000
0000
,
0001
0000
0001
0000
,
0001
0000
0001
0000
,
0100
0000
0100
0000
,
0010
0000
0010
0000
,
1000
0000
0001
0000
,
1000
0000
1001
0000
,
1000
0000
0000
0000
,
0001
0000
0100
0000
,
0001
0000
0000
0000
,
1000
0000
0100
0000
,
0010
0000
0000
0000
,
0001
0000
0100
0000
,
0010
0000
1000
0000
,
1001
0000
0000
0000
,
2000
0000
3000
0000
,
0002
0000
0003
0000
,
0002
0000
0003
0000
,
2000
0000
3000
0000
,
1000
0000
0000
0000
,
0100
0000
0000
0000
,
0010
0000
0010
0000
,
0001
0000
1000
0000
,
0001
0000
0001
0000
,
0001
0000
1000
0000
,
0100
0000
0100
0000
,
1000
0000
0001
0000
,
1000
0000
1000
0000
,
0001
0000
0001
0000
,
0100
0000
0010
0000
,
2002
0000
3003
0000
,
1000
0000
1000
0000
,
0010
0000
1000
0000
,
0001
0000
0100
0000
,
0001
0000
1000
0000
,
0001
0000
0001
0000
,
0010
0000
0001
0000
,
1000
0000
0001
0000
,
1001
0000
0000
0000
,
1000
1000
0000
0000
,
0001
0001
0000
0000
,
1000
1000
0000
0000
,
0001
0001
0000
0000
,
0100
0100
0000
0000
,
0010
0010
0000
0000
,
0100
0100
0000
0000
,
0010
0010
0000
0000
,
1000
0000
0100
0000
,
0010
0000
0100
0000
,
1000
0000
0001
0000
,
0100
0100
0100
0000
,
0001
0000
0100
0000
,
0010
0000
0100
0000
,
0001
0000
1000
0000
,
0100
0100
0100
0000
,
0000
1000
1000
0000
,
0000
0001
0001
0000
,
0100
0000
0010
0000
,
1000
0000
0001
0000
,
0000
0010
0010
0010
,
0000
0100
0100
0100
,
0000
0000
1000
0000
,
0001
0001
1000
1000
,
1001
0000
0000
0000
;

//--------------- dance-single - OrangeRight ----------------
#NOTES:
     dance-single:
     OrangeRight:
     Easy:
     7:
     0,0,0,0,0:
0000
0000
0000
0000
,
0000
0000
0000
0000
,
0000
0000
0000
0000
,
1000
0000
0000
0000
,
0000
0000
0000
0000
,
0001
0000
0000
0000
,
1000
0000
0000
0000
,
0001
0001
1000
1000
,
0001
0010
0100
1000
,
0200
0000
0000
0300
,
1000
0001
1001
0000
,
0001
0001
1000
1000
,
0100
0010
0001
0000
,
1000
1000
0001
0001
,
1000
0100
0001
0100
,
1000
1000
0001
0001
,
0100
0010
1000
0000
,
0001
0001
1000
1000
,
0001
0100
1000
0100
,
0010
0000
0010
0000
,
0010
0000
1000
0010
,
0100
0000
0100
0000
,
0100
0000
0001
0010
,
0001
0000
0001
0000
,
0001
0000
0100
0010
,
1000
0000
1000
0000
,
1000
0000
0001
1000
,
0001
0000
1000
0000
,
0100
1000
0010
0000
,
1000
0000
0001
0000
,
0010
0001
0100
0000
,
0001
0000
1000
0000
,
0001
0010
0100
0000
,
1000
0010
0100
0000
,
0110
0000
1001
0000
,
2000
3000
0002
0003
,
2000
3000
0200
0300
,
0020
0000
0030
0000
,
0001
0100
0010
1000
,
1001
0000
0000
0000
,
0110
0000
0000
0000
,
1001
0000
0110
0000
,
1001
0000
1000
0001
,
2000
0000
0100
0000
,
3002
0000
0100
0103
,
0001
0001
0010
0010
,
0100
1000
0001
0000
,
2000
0000
0010
0000
,
3002
0000
0010
0013
,
0001
1000
0010
0100
,
0101
0000
1010
0000
,
1000
1000
0100
0010
,
0001
0100
1000
0100
,
0002
0000
1003
0001
,
0010
0100
1000
0000
,
0001
0001
0100
0010
,
1000
0100
0001
0100
,
2000
0000
3001
0000
,
1000
0100
0010
0001
,
1000
0010
1000
0010
,
0100
0010
0100
0001
,
1000
0100
1000
0100
,
0010
0001
0100
0010
,
1000
0001
0010
0100
,
1000
0010
0001
0010
,
1000
0100
0001
0100
,
1000
0001
2002
3003
,
0001
0001
0010
0100
,
1000
0000
0001
0000
,
1000
1000
0010
0100
,
0001
1000
0001
0000
,
1000
1000
0100
0010
,
0001
0000
0100
0000
,
0010
0010
0100
0001
,
1000
0100
0010
0000
,
0020
0001
0001
0030
,
0002
0100
0100
0003
,
0001
0100
1000
0100
,
0001
1000
2002
3003
,
0020
1000
1000
0130
,
2000
0100
0100
3001
,
1000
0010
0001
0010
,
1000
0100
0001
0100
,
1001
0000
0000
0000
;

//--------------- dance-single - darkanine ----------------
#NOTES:
     dance-single:
     darkanine:
     Medium:
     10:
     0,0,0,0,0:
0000
0000
0000
0000
,
0000
0000
0000
0000
,
0000
0000
0000
0000
,
0100
0000
0000
0000
,
0000
0000
0000
0000
,
1001
0000
0000
0000
,
1000
0000
0000
0000
,
0001
0000
0001
0000
0001
1000
0001
1000
,
0002
0100
1000
0103
,
0020
0000
0000
0000
,
0130
0010
0100
0010
0100
0000
0000
0000
,
2001
0000
3001
0000
1000
0010
1000
0000
,
0001
0100
0001
0000
1000
0100
0010
0000
,
2001
0000
3001
0000
1000
0100
0010
0000
,
0001
0010
0001
0000
1000
0010
1000
0000
,
0210
0000
0310
0000
1000
0001
1000
0000
,
0001
0010
0100
0000
1000
0100
0010
0000
,
0120
0000
0130
0000
0001
1000
0001
0000
,
2000
0010
0001
3010
,
2040
0030
0000
0000
0000
0000
3010
0000
0000
0000
0000
0000
0000
0000
0000
0000
0042
0030
0000
0000
0000
0000
0013
0000
0000
0000
0000
0000
0000
0000
0000
0000
,
2040
0030
0000
0000
0000
0000
3010
0000
0000
0000
0000
0000
0000
0000
0000
0000
0001
0000
0000
0000
1000
0000
0000
0000
0001
0000
0000
0000
0000
0000
0000
0000
,
2040
0030
0000
0000
0000
0000
3001
0000
0000
0000
0000
0000
0000
0000
0000
0000
0042
0030
0000
0000
0000
0000
1003
0000
0000
0000
0000
0000
0000
0000
0000
0000
,
2040
0030
0000
0000
0000
0000
3001
0000
0000
0000
0000
0000
0000
0000
0000
0000
0010
0000
0000
0000
0100
0000
0000
0000
0010
0000
0000
0000
0000
0000
0000
0000
,
2004
0003
0000
0000
0000
0000
3100
0000
0000
0000
0000
0000
0000
0000
0000
0000
4002
3000
0000
0000
0000
0000
0103
0000
0000
0000
0000
0000
0000
0000
0000
0000
,
2004
0003
0000
0000
0000
0000
3100
0000
0000
0000
0000
0000
0000
0000
0000
0000
1000
0000
0000
0000
0100
0000
0000
0000
0010
0000
0000
0000
0000
0000
0000
0000
,
0042
0030
0000
0000
0000
0000
0103
0000
0000
0000
0000
0000
0000
0000
0000
0000
2040
0030
0000
0000
0000
0000
3100
0000
0000
0000
0000
0000
0000
0000
0000
0000
,
0042
0030
0000
0000
0000
0000
0103
0000
0000
0000
0000
0000
0000
0000
0000
0000
1001
0000
0000
0000
0000
0000
0000
0000
0000
0000
0000
0000
0000
0000
0000
0000
,
0001
0010
0100
1000
,
0001
0000
0010
0000
0100
0000
1000
0001
,
1000
0010
0100
0001
,
1000
0000
0000
0000
0010
0000
0000
0000
0100
0001
0000
0000
0001
0000
1000
0000
,
0001
0100
0010
1000
,
0001
0000
0100
0000
0010
0000
1000
0001
,
1000
0100
0010
0001
,
2000
0100
0010
3001
,
0000
1000
0000
0010
0000
0100
0000
0001
,
0000
0001
0000
0010
0000
0100
0000
1000
,
0000
0001
0000
0010
0000
0100
0000
1000
,
0000
1000
0000
0010
0000
0100
0000
0001
,
0000
0001
0000
0010
0000
0100
0000
1000
,
0000
1000
0000
0010
0000
0100
0000
0001
,
0000
0001
0000
0100
0000
0010
0000
1000
,
0000
0000
0000
0000
,
2000
0010
0000
0001
0000
0010
3000
1000
,
0002
0010
0000
1000
0000
0010
0003
0001
,
2000
0100
0000
0001
0000
0100
3000
1000
,
0002
0100
0000
1000
0000
0100
0003
0001
,
2000
0001
0000
0010
0000
0001
3000
1000
,
0002
1000
0000
0010
0000
1000
0003
0001
,
2002
0000
0000
3003
,
0120
0000
0000
0000
0000
0000
0000
0000
0130
0000
0000
0000
0000
0000
0000
0000
2004
0003
0000
0000
0000
0000
0000
0000
3004
0003
0000
0000
0000
0000
0000
0000
,
1000
0000
0200
0010
0000
0010
0000
0310
,
0001
0000
0200
0010
0000
0010
0000
0301
,
1000
0000
2000
0100
0000
0100
0000
3100
,
0000
0100
0000
0100
0000
0100
0000
0100
,
0110
0000
0000
1001
0000
0000
0100
0000
,
1010
0000
0000
0011
0000
0000
1000
0000
,
0101
0001
0000
0000
0000
0000
1000
0001
,
2000
0000
0000
0000
,
3100
0000
0010
0000
0001
0010
0001
0000
,
0100
0000
0010
0000
0010
1000
0010
0000
,
0100
0000
0001
0000
1000
0100
1000
0000
,
0100
0000
0010
0000
0010
0001
0010
0000
,
0001
0000
1000
0000
0100
0010
0100
0000
,
1000
0000
0010
0000
0010
0100
0010
0000
,
1000
0000
0001
0000
1000
0001
1000
0000
,
0010
0000
0000
0000
0010
0000
0000
0000
0010
0000
0000
0000
0000
0000
0000
0000
0240
0030
0000
0000
0000
0000
0000
0000
0340
0030
0000
0000
0000
0000
0000
0000
,
1000
1000
0001
0001
,
0100
0100
0010
0100
,
0001
0001
0010
0010
,
1000
0010
0001
0001
,
1000
1000
0100
0010
,
0001
0001
0100
0010
,
0001
0010
1000
0100
,
0001
0000
0100
0000
1000
0000
1000
1000
,
1000
0011
1001
0000
,
0000
1100
0110
0000
,
0001
0100
1000
0100
,
0001
0010
1000
0010
,
0001
0101
0110
0110
,
0000
1100
1001
1001
,
1000
0100
0010
0000
0001
0100
0010
0000
,
2000
0001
0000
0001
0000
0001
0000
3000
,
1001
0000
0000
0000
;

//--------------- dance-single - darkanine/OrangeRight ----------------
#NOTES:
     dance-single:
     darkanine/OrangeRight:
     Hard:
     13:
     0,0,0,0,0:
0000
0000
0000
0000
,
0000
0000
0000
0000
,
0000
0000
0000
0000
0000
0000
0000
1000
,
1001
0000
0000
0000
,
0000
0000
1000
0000
0100
0000
0010
0000
0001
0000
0000
1000
0000
0000
0001
0000
,
1001
0000
0000
0000
0000
0000
0000
0100
,
0110
0000
0000
0000
,
1001
0000
1000
0000
0001
0010
0100
1000
,
0001
1000
0001
0000
0100
0000
0010
0000
1000
0001
1000
0000
0100
0000
0010
0000
,
0002
0203
0320
2030
,
3001
0000
0001
0000
1000
0000
1000
0000
0001
1000
0001
1000
0000
0000
0000
0000
,
1010
0000
0000
0010
0000
0000
0100
0000
0001
0000
1000
0000
0001
0000
0100
0000
,
0010
0000
0000
0010
0000
0000
0100
0000
0001
0100
0001
0000
0100
0000
0100
0000
,
0001
0000
0000
0010
0000
0000
0100
0000
1000
0000
0001
0000
0100
0000
0001
0000
,
0010
0000
0000
0010
0000
0000
0100
0000
1000
0000
0000
1000
0001
0000
0001
0000
,
1000
0000
0000
0010
0000
0000
0100
0000
0010
0000
1000
0000
0010
0000
0100
0000
,
0001
0000
0000
0010
0000
0000
0100
0000
0010
0001
0010
0000
0100
0000
0100
0000
,
1000
0000
0000
0010
0000
0000
0100
0000
0001
0000
0100
0000
0010
0000
1000
0000
,
0001
0000
0000
0010
0000
0000
0100
0000
1000
0000
0100
0000
0010
0000
0001
0000
,
0040
0030
0000
0000
0000
0000
1100
0000
0000
0000
0000
0000
1000
0000
0000
0000
0040
0030
0000
0000
0000
0000
0101
0000
0000
0000
0000
0000
0001
0000
0000
0000
,
0040
0030
0000
0000
0000
0000
1100
0000
0000
0000
0000
0000
1000
0000
0000
0000
0002
0000
0000
0000
0000
0000
0000
0000
0000
0000
0000
0000
0000
0000
0000
0000
,
4003
3000
0000
0000
0000
0000
0110
0000
0000
0000
0000
0000
1000
0000
0000
0000
0004
0003
0000
0000
0000
0000
0110
0000
0000
0000
0000
0000
0001
0000
0000
0000
,
4000
3000
0000
0000
0000
0000
0110
0000
0000
0000
0000
0000
1000
0000
0000
0000
0010
0000
0000
0000
0100
0000
0000
0000
0010
0000
0000
0000
0000
0000
0000
0000
,
0400
0300
0000
0000
0000
0000
1010
0000
0000
0000
0000
0000
1000
0000
0000
0000
0400
0300
0000
0000
0000
0000
0011
0000
0000
0000
0000
0000
0001
0000
0000
0000
,
0400
0300
0000
0000
0000
0000
1010
0000
0000
0000
0000
0000
1000
0000
0000
0000
0100
0000
0000
0000
0010
0000
0000
0000
0100
0000
0000
0000
0000
0000
0000
0000
,
0040
0030
0000
0000
0000
0000
1001
0000
0000
0000
0000
0000
0010
0000
0000
0000
0400
0300
0000
0000
0000
0000
1001
0000
0000
0000
0000
0000
0100
0000
0000
0000
,
0040
0030
0000
0000
0000
0000
1001
0000
0000
0000
0000
0000
0010
0000
0000
0000
0100
0000
0000
0000
0010
0000
0000
0000
0100
0000
0000
0000
0000
0000
0000
0000
,
2001
3010
0210
0301
,
0001
0010
0100
0000
0010
0100
1000
0000
,
1002
0103
0120
1030
,
1000
0100
0010
0000
0100
0010
0001
0000
,
1000
0010
0100
0001
0000
0011
0000
1000
,
0001
0010
0100
1000
0000
1010
0000
0001
,
0100
0001
1000
0100
0000
0011
0000
1000
,
2000
0000
0000
0000
3200
0000
0000
0000
0320
0000
0000
0000
0031
1000
0001
0000
,
0002
0100
0000
0013
0000
0001
0000
2000
,
0000
0100
0000
0010
0000
3001
0000
1000
,
0002
0100
0000
0010
0000
1003
0000
0001
,
0000
2000
0000
0010
0000
3001
0000
1000
,
2020
0000
3030
0000
,
0022
0000
0033
0000
,
2002
3003
0220
0330
,
2002
3003
1001
0100
,
1010
0000
1000
0010
0001
0010
1000
0000
,
0101
0000
0001
0100
1000
0100
0001
0000
,
0011
0000
0001
0010
1000
0010
0001
0000
,
1100
0000
1000
0100
0001
0100
1000
1000
,
0020
0100
0001
1000
,
0230
0010
1000
0301
,
0001
0010
0100
1000
0001
0010
0100
1000
,
0001
0000
0000
0000
0000
0000
0000
0000
0000
0000
0000
0000
0000
0000
0000
0000
0004
0003
0000
0000
4000
3000
0000
0000
0004
0003
0000
0000
4000
3000
0000
0000
,
2000
0000
3100
0002
0000
0103
1000
0001
,
0200
0000
0310
2000
0000
3001
1000
0100
,
0010
0001
1000
0010
0000
0010
0001
0010
,
1000
0200
0000
0320
0000
0230
0000
1300
,
0002
0000
0103
2000
0000
3100
0001
1000
,
0200
0000
0310
0002
0000
1003
0001
0100
,
0010
1000
0001
0010
0000
0010
1000
0010
,
0004
0003
0000
0000
4000
3000
0000
0000
0040
0030
0000
0000
0400
0300
0000
0000
0001
0000
1000
0000
0001
0000
1000
0000
0001
0000
0000
0000
0000
0000
0000
0000
,
1000
0000
0001
1000
0000
0001
1000
0000
0100
0000
0010
0000
0100
0000
0010
0000
,
0001
0000
1000
0001
0000
1000
0001
0000
0010
0000
0100
0000
0010
0000
0100
0000
,
1000
0000
0010
1000
0000
0010
1000
0000
0100
0000
0010
0000
0100
0000
0010
0000
,
0001
0000
0100
0001
0000
0100
0001
0000
0010
0000
0100
0000
0010
0000
0100
0000
,
1000
0000
0010
1000
0000
0001
0010
0000
0100
0000
0010
0000
0100
0000
0010
0000
,
0001
0000
0100
0001
0000
1000
0100
0000
0010
0000
0100
0000
0010
0000
0100
0000
,
1000
0000
0100
0001
0000
0100
1000
0000
0100
0000
0010
0000
0100
0000
0010
0000
,
0220
0000
0000
0000
0000
0000
0000
0000
0330
0000
0000
0000
0000
0000
0000
0000
0400
0300
0000
0000
0000
0000
0000
0000
0400
0300
0000
0000
0000
0000
0000
0000
,
0011
0000
0000
0000
0011
0000
0000
0001
0010
0000
0100
0000
1000
0000
0001
0000
,
0000
0001
0000
0001
1000
0000
0010
0000
,
1010
0000
0000
0000
1010
0000
0000
1000
0010
0000
0100
0000
0001
0000
1000
0000
,
0000
1000
0000
1000
0001
0000
0010
0001
,
0011
0000
0000
0000
1001
0000
0000
1000
0001
0000
0010
0000
0100
0000
0010
0000
,
0000
0010
0000
0010
0001
0000
1000
0000
,
1010
0000
0000
0000
1001
0000
0000
0001
1000
0000
0010
0000
0100
0000
0001
0000
,
0011
0000
0000
0000
0100
0000
0000
0000
1010
0000
0000
1000
0100
0000
0010
0000
,
0001
0000
0202
0303
2020
3030
1000
0100
,
0010
0000
0022
0033
2200
3300
1000
0100
,
0010
0001
0010
1000
0010
0001
0100
0000
,
0101
0000
1100
0000
1000
0001
0100
0010
,
1000
0000
2200
3300
0022
0033
0022
0033
,
0001
0000
0022
0033
0220
0330
0220
0330
,
1000
0100
0001
0100
1000
0001
0010
0100
,
1000
0001
1000
0000
0001
0000
0100
0000
1000
0000
0100
0000
0001
0000
0000
0000
,
1001
0000
0000
0000
;

//--------------- dance-single - darkanine/OrangeRight ----------------
#NOTES:
     dance-single:
     darkanine/OrangeRight:
     Challenge:
     16:
     0,0,0,0,0:
0000
0000
0000
0000
,
0000
0000
0000
0000
,
0000
0000
0000
0000
0000
0000
0000
0100
,
0110
0000
0000
0000
,
0000
0000
1000
0001
1000
0000
0010
0000
0100
0000
0000
0001
0000
0000
1000
0000
,
1001
0000
0000
0000
0000
0000
0000
0010
,
0110
0000
0000
0000
,
1001
0000
0001
0000
0010
0010
0100
0100
,
1000
0010
1000
0001
0010
0001
1000
0100
1000
0001
0100
0001
1000
0000
1000
0001
,
1000
0000
0100
1000
0100
0000
0010
0100
0010
0000
0001
0010
0001
0000
1000
0001
,
1000
0000
1000
0000
0001
0000
0001
0000
1000
0001
1000
0001
0000
0000
1000
0100
,
1000
0000
0001
0200
0000
0000
0310
0000
1000
0000
0001
0000
1000
0000
0100
0000
,
0010
0000
0000
0011
0000
0000
0010
0001
0010
0001
1000
0000
0001
0000
0100
0000
,
0001
0000
1000
0200
0000
0000
0310
0001
0010
0000
0100
0000
1000
0000
0001
0000
,
0100
0000
0000
0101
0000
0000
0001
0100
0010
0000
0000
1010
0000
0000
1000
0000
,
0001
0000
1000
0020
0000
0000
1030
0100
1000
0000
0001
0000
0100
0000
0001
0000
,
1000
0000
0000
1100
0000
0000
0100
1000
0100
1000
0001
0000
0010
0000
0001
0000
,
1000
0000
0010
2000
0000
0000
3001
0100
0001
0000
1000
0000
0100
1000
0100
0000
,
1100
0000
0000
1001
0000
0000
1000
0010
1000
0000
0010
0000
0100
0000
0001
0000
,
4004
3003
0000
0000
0000
0000
1010
0000
0000
0000
0000
0000
0010
0000
0000
0000
0440
0330
0000
0000
0000
0000
0101
0000
0000
0000
0000
0000
0001
0000
0000
0000
,
0044
0033
0000
0000
0000
0000
0110
0000
0000
0000
0000
0000
0200
0000
0000
0000
0302
0000
0000
0000
2003
0000
0000
0000
3020
0000
0000
0000
0032
0000
0000
0000
,
0043
0030
0000
0000
0001
0000
2000
0000
0000
0000
0000
0000
3010
0000
0000
0000
0040
0030
0000
0000
1000
0000
0002
0000
0000
0000
0000
0000
0103
0000
0000
0000
,
0400
0300
0000
0000
0001
0000
2000
0000
0000
0000
0000
0000
3010
0000
0000
0000
1000
0000
0000
0000
0100
0000
0000
0000
0010
0000
0001
0000
0000
0000
0000
0000
,
4004
3003
0000
0000
0000
0000
0011
0000
0000
0000
0000
0000
0010
0000
0000
0000
0440
0330
0000
0000
0000
0000
1100
0000
0000
0000
0000
0000
1000
0000
0000
0000
,
4004
3003
0000
0000
0000
0000
0101
0000
0000
0000
0000
0000
0100
0000
0000
0000
0001
0000
0010
0000
0002
0000
0000
0000
1003
0000
0100
0000
2000
0000
0000
0000
,
3004
0003
0000
0000
1000
0000
0200
0000
0000
0000
0000
0000
1300
0000
0000
0000
4000
3000
0000
0000
0001
0000
0200
0000
0000
0000
0000
0000
0301
0000
0000
0000
,
0004
0003
0000
0000
1000
0000
0200
0000
0000
0000
0000
0000
0310
0000
0001
0000
0010
0000
0000
0000
0100
0000
0000
0000
1000
0000
0001
0000
0000
0000
0000
0000
,
0002
0023
0230
2300
,
3002
0010
0023
0100
0230
1000
1300
0001
,
2000
3020
0230
0302
,
2003
0000
0010
0000
3020
0000
0100
0000
0230
0001
0000
0000
0301
0000
1000
0000
,
0002
0023
0230
2300
0000
0010
0000
3001
,
2000
3020
0230
0302
0000
0010
0000
1003
,
2000
0100
3002
0100
,
2003
0000
0000
0000
3002
0000
0000
0000
2003
0000
0000
0000
3010
0100
0010
0000
,
2000
0010
0000
0001
0000
0100
0000
0010
,
0000
0010
0000
0100
0000
0001
3000
1000
,
0002
0010
0000
1000
0000
0100
0000
0010
,
0000
0010
0000
0100
0000
1000
0003
0001
,
1001
0000
0001
0100
0010
1000
0100
1000
,
1001
0000
1000
0100
0010
0001
0100
0001
,
1000
0100
1000
0001
0100
0001
1000
0010
1000
0001
0010
0001
1000
0010
0100
0001
,
1000
0010
0001
0010
1000
0000
1001
0000
,
0001
0100
1000
0100
0010
0100
0001
1000
,
0001
0000
1000
0000
0100
0000
0001
0000
0100
0000
0010
0000
0100
0000
1000
0001
,
1000
0010
0001
0010
0100
0010
1000
0001
,
1000
0000
0100
0000
0010
0000
0001
0000
1000
0001
0010
0000
0010
0000
0100
0000
,
1000
0100
0001
0100
1000
0010
0100
0001
,
0010
1000
0010
0001
0100
0010
1000
0001
,
0010
0100
0010
0100
1000
0001
1000
0001
0100
0010
0100
0010
1000
0010
0100
0001
,
0100
0000
0000
0000
0010
0000
0000
0000
0100
0000
0000
0000
0010
0000
0000
0000
4000
3000
0000
0000
4000
3000
0000
0000
0004
0003
0000
0000
0004
0003
0000
0000
,
2000
0000
0010
3002
0000
0010
2003
0100
,
3002
0000
0010
2003
0000
0010
3002
0100
,
1003
2000
0000
0000
0000
3000
0100
0010
,
0001
0002
0000
0010
0000
0100
0003
0000
,
2010
0000
3001
0012
0000
2003
0001
3001
,
0102
0000
1003
2100
0000
3002
0100
0103
,
0210
0010
0000
0000
0000
0000
0310
0010
,
4000
3000
0000
0000
0400
0300
0000
0000
0040
0030
0000
0000
0004
0003
0000
0000
1000
0000
0010
0000
1000
0000
0010
0000
0100
0000
0001
0000
0100
0000
0001
0000
,
1000
0000
1000
0010
0000
0010
0100
0000
0001
0000
0010
0000
0100
0000
1000
0000
,
0001
0000
0001
0010
0000
0010
0100
0000
1000
0000
0010
0000
0100
0000
0001
0000
,
1000
0000
1000
0100
0000
0100
0010
0000
0001
0000
0010
0000
1000
0000
0010
0000
,
0001
0000
0001
0010
0000
0010
0100
0000
1000
0000
0010
0000
0001
0000
0010
0000
,
1000
0000
0010
0100
0000
0100
0010
0000
1000
0000
0100
0000
0001
0000
0100
0000
,
1000
0000
0100
0010
0000
0010
0100
0000
1000
0000
0010
0000
0001
0000
0010
0000
,
1000
0000
0010
0100
0010
0100
0001
0000
0010
0100
0010
0100
1000
0000
0001
0000
,
0100
0000
0010
0000
0100
0000
0010
0000
1000
0000
0001
0000
1000
0000
0001
0000
4000
3000
0000
0000
0400
0300
0000
0000
0004
0003
0000
0000
0400
0300
0000
0000
,
1000
0000
0000
0000
1000
0000
0000
1000
0100
0000
0010
0000
0001
0000
0010
0000
,
0000
0010
0000
0010
0001
0000
0001
0000
,
1000
0000
0000
0000
1000
0000
0000
1000
0010
0000
0001
0000
0010
0000
1000
0000
,
0000
1000
0000
1000
0100
0000
0100
0010
,
0000
0000
0000
0000
0001
0000
0000
0001
0100
0000
0010
0000
1000
0000
0010
0000
,
0000
0010
0000
0010
0100
0000
0100
0000
,
0001
0000
0000
0000
0001
0000
0000
0001
0100
0000
1000
0000
0100
0000
0001
0000
,
1001
0000
0001
0000
0000
0000
0001
0000
1001
0000
0000
0001
1000
0000
0001
1000
,
0001
0010
0200
0310
2000
3010
0001
1000
,
0001
0100
0020
0130
2000
3100
0001
1000
,
0100
1000
0010
0010
0100
0001
0010
0010
,
1000
0000
0010
0000
0001
0000
0100
0000
1000
0000
0100
0000
0001
0000
1000
0001
,
1000
0100
0020
0130
0002
0103
0002
0103
,
1000
0010
0200
0310
0002
0013
0002
0013
,
1000
0010
1000
0001
0010
0001
1000
0100
1000
0001
0100
0001
1000
0100
0010
0001
,
1000
0000
0001
1000
0010
0000
1000
0000
0001
0010
0100
0000
1000
0001
1000
0001
,
0100
0000
0000
0000
;
