#VERSION:0.83;
#TITLE:X.E.N.O;
#SUBTITLE:feat.HatsuneMiku+KAITO;
#ARTIST:sasakure.UK;
#TITLETRANSLIT:;
#SUBTITLETRANSLIT:;
#ARTISTTRANSLIT:;
#GENRE:;
#CREDIT:;
#MUSIC:X.E.N.O.ogg;
#BANNER:X.E.N.O-bn.png;
#BACKGROUND:;
#JACKET:;
#DISCIMAGE:;
#CDIMAGE:;
#SELECTABLE:YES;
#LYRICSPATH:;
#CDTITLE:;
#SAMPLESTART:34.996;
#SAMPLELENGTH:10.000;
#OFFSET:0.004;
#BPMS:0.000=144.000,
116.000=180.000,
117.000=188.000,
118.000=172.000,
119.000=180.000,
120.000=190.000,
121.000=180.000,
122.000=165.000,
123.000=140.000,
124.000=250.000,
125.000=196.000,
157.000=215.000,
217.000=244.000,
237.000=260.000,
257.000=135.000,
259.000=144.000
;
#STOPS:257.000=2.444;
#WARPS:;
#DELAYS:;
#SPEEDS:;
#SCROLLS:0.000=1.875,
116.000=1.500,
117.000=1.436,
118.000=1.570,
119.000=1.500,
120.000=1.421,
121.000=1.500,
122.000=1.636,
123.000=1.929,
124.000=1.080,
125.000=1.378,
157.000=1.256,
217.000=1.107,
237.000=1.038,
257.000=0.200,
257.250=0.400,
257.500=0.600,
257.750=0.800,
258.000=1.000,
258.250=1.200,
258.500=1.400,
258.750=1.600,
259.000=1.500,
275.000=1.523,
276.000=1.547,
277.000=1.570,
278.000=1.594,
279.000=1.617,
280.000=1.641,
281.000=1.664,
282.000=1.688,
283.000=1.711,
284.000=1.734,
285.000=1.758,
286.000=1.781,
287.000=1.805,
288.000=1.828,
289.000=1.852,
290.000=1.875
;
#TICKCOUNTS:;
#TIMESIGNATURES:0.000=4=4,
36.000=3=4,
108.000=4=4,
120.000=5=4,
125.000=4=4,
157.000=5=4,
257.000=2=4,
259.000=4=4,
323.000=7=4,
337.000=6=4,
349.000=4=4
;
#LABELS:;
#COMBOS:;
#FAKES:;
#BGCHANGES:;
#FGCHANGES:;
#ATTACKS:;

//---------------dance-single - XMOD XO----------------
#NOTEDATA:;
#CHARTNAME:;
#CHARTSTYLE:;
#CREDIT:;
#STEPSTYPE:dance-single;
#DESCRIPTION:XMOD XO-;
#DIFFICULTY:Medium;
#METER:12;
#METERF:12;
#RADARVALUES:0,0,0,0,0;
#NOTES:
// measure 0
0000
0000
0000
0000
,  // measure 1
0000
0000
0000
0000
,  // measure 2
0000
0000
0000
0000
,  // measure 3
0000
0000
0000
0000
,  // measure 4
0000
0000
0000
0000
,  // measure 5
0000
0000
0000
0000
,  // measure 6
0000
0000
0000
0000
,  // measure 7
0000
0000
0000
0000
,  // measure 8
0000
0000
0000
0000
,  // measure 9
1000
0000
1000
0000
0100
0010
0001
0000
,  // measure 10
1000
0000
0100
1000
0001
0000
0001
0000
,  // measure 11
0100
0010
1000
0000
0001
0000
0100
0001
,  // measure 12
0010
0000
0010
0000
0100
1000
0001
0000
,  // measure 13
0010
0000
0001
1000
0010
0000
0010
0000
,  // measure 14
0100
0000
0001
0000
0010
0000
0000
0010
0000
0000
0010
0000
0200
0000
0000
0000
,  // measure 15
0310
0000
0001
0000
0100
0000
0010
0000
1000
0000
0001
0000
0010
0000
0000
0010
,  // measure 16
0000
0100
1000
0000
0010
1000
0100
0010
,  // measure 17
0001
0000
1000
0000
0010
0000
0000
0010
0000
0000
0100
0000
0001
0000
1000
0000
,  // measure 18
0100
0000
1000
0000
0010
0000
0100
0000
0001
0000
1000
0000
0100
0000
0000
0100
,  // measure 19
0000
0010
0001
0000
0100
0001
0010
0100
,  // measure 20
1000
0001
0200
0000
0000
0000
0000
0000
,  // measure 21
0310
1000
0010
1000
0100
0010
0001
1000
,  // measure 22
0010
1000
0001
0000
0010
0001
0010
0001
,  // measure 23
0100
0010
1000
0001
0010
0001
0100
0000
,  // measure 24
0010
0100
0010
0100
0001
0010
0001
1000
,  // measure 25
0100
1000
0001
0000
0010
0100
0010
0100
,  // measure 26
1000
0010
1000
0001
0100
0001
0020
0000
,  // measure 27
0130
0000
1000
0010
0100
0000
0001
0010
,  // measure 28
0100
0000
1000
0010
0100
0001
0100
0001
,  // measure 29
2000
3100
0020
0031
,  // measure 30
1000
0010
0100
0020
,  // measure 31
0000
0000
2030
0000
0010
0000
3001
0010
,  // measure 32
0002
2003
0100
3001
,  // measure 33
1000
0000
0002
0000
0010
0000
1003
0010
,  // measure 34
2000
3002
0023
0230
,  // measure 35
2300
3002
0203
0320
,  // measure 36
2030
0000
3001
0010
0001
0000
1000
0010
,  // measure 37
1000
0000
0001
0010
0100
0000
1000
0010
,  // measure 38
0100
0000
0000
0001
0000
1000
0000
0001
0000
2000
0000
0000
,  // measure 39
0000
3100
0000
0000
,  // measure 40
0000
0000
0000
0000
,  // measure 41
0000
0000
0000
0000
,  // measure 42
0000
0000
0000
0000
,  // measure 43
0000
0000
0000
0000
,  // measure 44
0000
0000
2000
0000
0000
0001
0000
0000
,  // measure 45
3010
0000
0100
0000
0002
0000
0000
1000
,  // measure 46
0000
0103
0100
0002
,  // measure 47
0000
1000
0000
0000
0013
0000
0100
0000
,  // measure 48
2000
0000
0000
0010
0000
0000
3100
0000
,  // measure 49
0100
0000
2000
0000
0000
0001
0000
0000
,  // measure 50
3010
0100
0010
1000
0002
0000
0000
0010
,  // measure 51
0000
0000
1003
0010
0100
0000
0002
0000
,  // measure 52
0000
1000
0000
0000
0013
0100
0010
0001
,  // measure 53
0200
0000
0000
0010
0000
0000
0301
1000
,  // measure 54
0100
0010
0002
0000
0000
1000
0000
0000
,  // measure 55
0103
0010
0100
0001
2000
0000
0000
0100
,  // measure 56
0000
0000
3001
0100
0010
0000
2000
0000
,  // measure 57
0000
0001
0000
0000
3100
0010
0100
1000
,  // measure 58
0020
0000
0000
0100
0000
0000
1030
0001
,  // measure 59
0010
0100
1000
0000
0000
1001
0000
0000
,  // measure 60
0001
0100
0010
0000
1010
0000
0000
0011
,  // measure 61
0000
0001
0100
0110
,  // measure 62
0000
1001
0000
0000
1000
0100
0010
0000
,  // measure 63
0011
0000
0000
1010
0000
0000
1000
0000
,  // measure 64
0100
0000
0000
2000
,  // measure 65
0000
3002
0000
0023
,  // measure 66
0000
0130
0010
0002
,  // measure 67
0000
2003
0000
3020
,  // measure 68
0000
0000
0130
0000
0001
0000
1000
0100
,  // measure 69
0010
0100
0002
0000
0203
0000
0320
0000
,  // measure 70
0031
1000
0010
0100
0002
0000
0103
0010
,  // measure 71
0002
0000
0023
0000
2030
0000
3001
0010
,  // measure 72
0100
0000
0010
0000
0002
0000
0000
0000
1003
0000
0000
0000
1020
0000
0000
0230
,  // measure 73
0000
0000
1300
0000
0100
0000
0010
0000
1000
0000
0001
0000
0020
0000
0000
0100
,  // measure 74
0000
0000
0031
0000
2000
0000
0000
0010
0000
0000
3001
0000
0020
0000
0000
0130
,  // measure 75
0000
0001
0000
0000
0100
0000
0010
0000
0001
0000
1000
0000
0020
0000
0000
0130
,  // measure 76
0000
1000
0000
0000
0100
0000
0001
0000
0010
0000
0000
0000
0021
0000
0000
0230
,  // measure 77
0000
0000
0301
0000
0100
0000
0010
0000
0001
0000
1000
0000
0020
0000
0000
0100
,  // measure 78
0000
0000
1030
0000
0002
0000
0000
0010
0000
0000
1003
0000
0020
0000
0000
0130
,  // measure 79
0000
1000
0000
0000
0100
0000
0010
0000
1000
0000
0001
0000
0020
0000
0000
0130
,  // measure 80
0000
0001
0000
0000
0100
0000
1000
0000
0020
0000
0000
0000
0130
0000
0000
0001
,  // measure 81
0000
0000
0100
0000
0000
0001
0000
0000
0100
0000
0000
0001
0000
0000
0100
0000
,  // measure 82
0000
0001
0000
0000
0000
0000
0000
0000
0010
0000
0000
0100
0000
0000
0010
0000
,  // measure 83
0000
0100
0000
0000
0010
0000
0000
0100
0000
0000
0010
0000
0000
0100
0000
0000
,  // measure 84
0000
0000
0000
0000
1000
0000
0000
0010
0000
0000
1000
0000
0000
0010
0000
0000
,  // measure 85
1000
0000
0000
0010
0000
0000
1000
0000
0000
0010
0000
0000
0200
0000
0000
0302
,  // measure 86
0000
0000
0023
0000
0000
0230
0000
0000
2300
0000
0000
3020
0000
0000
0230
0000
,  // measure 87
0000
0302
0000
0000
0023
0000
0000
0000
0000
0000
0000
0000
0000
0000
0000
0000
,  // measure 88
0000
0000
0000
0000
,  // measure 89
0000
0030
0000
0000
,  // measure 90
0000
0000
0000
0000
,  // measure 91
0000
0000
0000
0000
0001
0000
1000
0000
0000
0000
0010
0100
0010
0000
0000
0000
,  // measure 92
1000
0000
0000
0001
0000
0001
0000
0000
1000
0000
0100
0010
0100
0000
0000
0100
,  // measure 93
0000
0000
2000
0000
3001
0000
0001
0000
0001
0000
0000
0100
0000
0000
0100
0000
,  // measure 94
0000
0000
0001
0000
0000
1000
0000
0000
0100
0000
1000
0001
1000
0000
0000
1000
,  // measure 95
0000
0000
0020
0000
1030
0000
0001
0000
0000
0000
0010
0100
0010
0000
0000
0000
,  // measure 96
0001
0000
0000
1000
0000
1000
0000
0000
0001
0000
0100
0010
0100
0000
0000
0100
,  // measure 97
0000
0000
0002
0000
1003
0000
1000
0000
1000
0000
0000
0100
0000
0000
0100
0000
,  // measure 98
0000
1000
0010
0100
0001
0010
0100
0010
,  // measure 99
0001
1000
0001
1000
0000
0000
0000
0000
0000
0000
0000
0000
0000
0000
0000
0000
;

//---------------dance-single - XMOD RH- XO----------------
#NOTEDATA:;
#CHARTNAME:;
#CHARTSTYLE:;
#CREDIT:;
#STEPSTYPE:dance-single;
#DESCRIPTION:XMOD RH- XO-;
#DIFFICULTY:Hard;
#METER:14;
#METERF:14;
#RADARVALUES:0,0,0,0,0;
#NOTES:
// measure 0
0000
0000
0000
0000
,  // measure 1
0000
0000
0000
0000
,  // measure 2
0000
0000
0000
0000
,  // measure 3
0000
0000
0000
0000
,  // measure 4
0000
0000
0000
0000
,  // measure 5
0000
0000
0000
0000
,  // measure 6
0000
0000
0000
0000
,  // measure 7
0000
0000
0000
0000
,  // measure 8
0000
0000
0000
0000
,  // measure 9
2000
0000
0000
3100
0000
0100
0010
0000
0001
0000
1000
0000
0010
0100
0000
0001
,  // measure 10
0000
0001
1000
0000
0100
0000
1000
0000
0002
0000
0000
0103
0000
0100
0010
0000
,  // measure 11
1000
0000
0001
0000
0010
0100
0000
1000
0000
1000
0010
0000
0100
0000
0000
0000
,  // measure 12
0002
0000
0000
1003
0000
1000
0100
0000
0010
0000
0001
0000
1000
0010
0000
0100
,  // measure 13
0000
0100
0001
0000
1000
0000
0100
0000
2000
0000
0000
3001
0000
0001
0100
0000
,  // measure 14
0010
0000
1000
0000
0001
0010
0000
0010
0000
0010
0100
0000
0010
0000
0001
0000
,  // measure 15
1001
0000
1000
0000
0010
0100
0010
0000
1000
0000
0100
0000
0010
0000
0001
1000
,  // measure 16
0000
0001
1000
0000
0010
0000
1000
0000
1001
0000
0001
0000
0010
0100
0010
0000
,  // measure 17
0001
0000
0100
0000
0010
0000
1000
0001
0000
1000
0001
0000
0010
0000
0100
0000
,  // measure 18
1100
0000
1000
0000
0001
0100
0001
0000
0010
0000
0100
0000
1000
0000
0001
0100
,  // measure 19
0000
0001
0100
0000
0010
0000
0100
0000
0101
0000
0001
0000
1000
0100
1000
0000
,  // measure 20
0010
0100
0004
0000
0000
0000
0000
0000
,  // measure 21
1003
0000
0100
0010
0000
0010
0001
0000
1000
0100
1000
0000
0010
0100
0000
0001
,  // measure 22
0000
0001
1000
0000
0100
0000
1000
0000
0001
0000
0100
0010
0000
0010
1000
0000
,  // measure 23
0001
0100
0001
0000
0010
0100
0000
1000
0000
1000
0010
0000
0100
0000
0000
0000
,  // measure 24
0001
0000
1000
0100
0000
0100
0010
0000
0001
0100
0001
0000
1000
0010
0000
0100
,  // measure 25
0000
0100
0001
0000
1000
0000
0100
0000
1000
0000
0001
0100
0000
0100
0010
0000
,  // measure 26
1000
0100
1000
0000
0001
0010
0000
0100
0000
0100
1000
0000
0010
0000
0100
0000
,  // measure 27
0002
1000
0000
0000
0013
0000
0100
0000
2000
0001
0000
0000
3010
0000
0100
0000
,  // measure 28
0002
1000
0000
0000
0013
0000
0100
0000
1000
0000
1000
0000
0001
0000
0001
0000
,  // measure 29
0200
0310
2000
3001
,  // measure 30
0010
0100
1000
0100
0010
0001
1000
0010
,  // measure 31
0100
0000
0000
0000
0002
0000
0000
0100
0000
0000
1003
0000
0100
0000
0010
0000
,  // measure 32
0002
0000
0000
0000
2003
0000
0000
0100
0000
0000
3001
0000
0100
0000
0010
0000
,  // measure 33
0100
0000
0001
0000
2000
0000
0000
0010
0000
0000
3001
0000
0010
0000
0100
0000
,  // measure 34
0010
0001
0200
0000
0320
0000
2030
0000
,  // measure 35
3002
0023
0230
2300
,  // measure 36
3002
0000
0103
0010
0100
0010
1000
0001
,  // measure 37
1000
0001
0010
0100
1000
0001
0100
0010
,  // measure 38
0100
0000
0000
0001
0000
0000
0010
0000
0000
0000
0010
0000
0000
0000
0010
0000
0000
0000
0100
0000
0000
1000
0000
0000
,  // measure 39
0100
1000
0010
0000
0000
0000
0000
0000
,  // measure 40
0000
0000
0000
0000
,  // measure 41
0000
0000
0000
0000
,  // measure 42
0000
0000
0000
0000
,  // measure 43
0000
0000
0000
0000
,  // measure 44
0000
0000
2000
0000
0000
0001
0000
0000
,  // measure 45
3100
0010
0100
1000
0002
0000
0000
0100
,  // measure 46
0000
0000
1003
0100
0010
0000
0002
0000
,  // measure 47
0000
1000
0000
0000
0103
0010
0100
0001
,  // measure 48
0020
0000
0000
0100
0000
0000
0031
0100
,  // measure 49
0010
0000
1010
0000
2000
0001
0000
3100
,  // measure 50
0010
0001
0010
0100
1000
0000
0002
0100
,  // measure 51
0000
1003
0001
0010
0100
0000
1100
0000
,  // measure 52
2000
0001
0000
3010
0100
0001
0100
0010
,  // measure 53
1000
0100
0020
0001
0000
0130
1000
0010
,  // measure 54
0100
0000
0101
0000
0002
1000
0000
0013
,  // measure 55
0100
1000
0100
0010
0001
0000
2000
0010
,  // measure 56
0000
3001
1000
0100
0010
0000
0011
0000
,  // measure 57
0002
1000
0000
0103
0010
1000
0010
0100
,  // measure 58
0001
0010
0200
1000
0000
0310
0001
0100
,  // measure 59
0010
0000
2010
0000
0000
0100
0000
0000
,  // measure 60
3001
0010
0100
1000
0020
0000
0000
0130
,  // measure 61
0000
0100
0001
0010
0100
0000
2100
0000
,  // measure 62
0000
0010
0000
0000
3001
0100
0010
1000
,  // measure 63
0100
0000
1000
0001
0000
0001
0100
0010
,  // measure 64
1000
0100
0000
0000
0000
0000
2000
0000
,  // measure 65
0000
3002
0000
0023
,  // measure 66
0000
0130
0010
0002
,  // measure 67
0000
2003
0000
3020
,  // measure 68
0000
0000
0130
0000
0001
0000
1000
0100
,  // measure 69
0001
0100
0020
0000
0031
0100
0020
0000
,  // measure 70
1030
0001
0010
0001
2000
0000
3001
0100
,  // measure 71
2000
0000
3200
0000
0302
0000
0013
0100
,  // measure 72
0010
0000
0001
0000
0200
0000
0000
0000
0310
0000
1000
0000
1200
0000
0000
0301
,  // measure 73
0000
0100
0010
0000
0001
0000
0100
0010
0000
0010
1000
0000
0002
0000
0000
0013
,  // measure 74
0000
0010
0001
0000
0100
0000
0010
0000
1000
0001
1000
0000
0200
0000
0000
0301
,  // measure 75
0000
0100
0010
0000
0001
0000
0100
0010
0000
0010
0000
1000
0001
1000
0000
0010
,  // measure 76
0000
0001
0000
0000
0010
0000
1000
0000
0100
0010
0001
0000
0201
0000
0000
1300
,  // measure 77
0000
0100
0010
0000
1000
0000
0100
0010
0000
0010
0001
0000
2000
0000
0000
3010
,  // measure 78
0000
0010
1000
0000
0100
0000
0010
0000
0001
1000
0001
0000
0200
0000
0000
1300
,  // measure 79
0000
0100
0010
0000
1000
0000
0100
0010
0000
0010
0000
0001
1000
0001
0000
0010
,  // measure 80
0000
1000
0000
0000
0010
0000
0001
0000
0100
0010
1000
0000
1200
0000
0000
0010
,  // measure 81
0000
0000
0001
0000
0000
0010
0000
0000
1000
0000
0000
0010
0000
0000
0001
0000
,  // measure 82
0000
0010
0000
0000
0300
0000
0000
0000
0201
0000
0000
0010
0000
0000
1000
0000
,  // measure 83
0000
0010
0000
0000
0001
0000
0000
0010
0000
0000
1000
0000
0000
0010
0000
0000
,  // measure 84
0300
0000
0000
0000
0021
0000
0000
0100
0000
0000
1000
0000
0000
0100
0000
0000
,  // measure 85
0001
0000
0000
0000
0000
0000
0100
0000
0000
0000
0000
0000
1000
0000
0000
0000
0000
0000
0130
0000
0000
0000
0000
0000
1000
0000
0000
0001
0000
0000
0100
0000
,  // measure 86
0000
0010
0000
0000
1000
0000
0000
0100
0000
0000
0010
0000
0000
0001
0000
0000
1000
0000
0000
0001
0000
0000
0100
0000
0000
0010
0000
0000
1000
0000
0000
0100
,  // measure 87
0000
0000
0010
0000
0000
0001
0000
0000
4000
0000
0000
0000
0000
0000
0000
0000
0000
0000
0000
0000
0000
0000
0000
0000
0000
0000
0000
0000
0000
0000
0000
0000
,  // measure 88
0000
0000
0000
0000
,  // measure 89
0000
3000
0000
0000
,  // measure 90
0000
0000
0000
0000
,  // measure 91
0000
0000
0000
0000
0001
0000
1000
0000
0000
0010
0100
0010
0100
0000
0000
0000
,  // measure 92
0010
1000
0100
0010
0000
0010
0000
0000
0001
0000
1000
0010
1000
0000
0000
1000
,  // measure 93
0000
0000
0002
0000
0013
0000
0010
0000
0100
0010
0001
0100
0000
0001
0100
0000
,  // measure 94
0000
0000
0010
0100
0000
0001
0000
0000
1000
0000
0001
0010
0001
0000
0000
0001
,  // measure 95
0000
0000
2000
0000
3010
0000
1000
0000
0000
0100
0010
0100
0010
0000
0000
0000
,  // measure 96
0100
1000
0010
0100
0000
0100
0000
0000
0001
0000
1000
0100
1000
0000
0000
1000
,  // measure 97
0000
0000
0002
0000
0103
0000
0100
0000
0010
0100
0001
0020
0000
0130
2000
0000
,  // measure 98
3000
0000
0001
0100
0010
0000
0010
0000
1000
0000
0001
0000
0000
0010
0001
0010
,  // measure 99
0001
0010
0001
1000
0000
0000
0000
0000
0000
0000
0000
0000
0000
0000
0000
0000
;

//---------------dance-single - XMOD BU- RH- XO----------------
#NOTEDATA:;
#CHARTNAME:;
#CHARTSTYLE:;
#CREDIT:;
#STEPSTYPE:dance-single;
#DESCRIPTION:XMOD BU- RH- XO-;
#DIFFICULTY:Challenge;
#METER:17;
#METERF:17;
#RADARVALUES:0,0,0,0,0;
#NOTES:
// measure 0
0000
0000
0000
0000
,  // measure 1
0000
0000
0000
0000
,  // measure 2
0000
0000
0000
0000
,  // measure 3
0000
0000
0000
0000
,  // measure 4
0000
0000
0000
0000
,  // measure 5
0000
0000
0000
0000
,  // measure 6
0000
0000
0000
0000
,  // measure 7
1000
0100
0010
0100
1000
0010
0100
0001
1000
0001
0010
0100
,  // measure 8
0010
0001
0100
0010
1000
0001
1000
0100
0010
0001
0010
0100
,  // measure 9
1000
0001
0000
0001
0000
0100
0010
0000
1000
0001
0100
0001
0010
0100
0000
0100
,  // measure 10
0000
1000
0001
0000
1000
0010
0100
0000
0001
1000
0000
1000
0000
0100
0010
0000
,  // measure 11
0001
1000
0100
1000
0010
0100
0000
0100
0000
0001
0010
0000
0100
0010
0001
0000
,  // measure 12
1000
0010
0000
0010
0000
0100
0001
0000
1000
0010
1000
0100
0010
0001
0000
0001
,  // measure 13
0000
1000
0010
0000
0100
0010
1000
0000
0001
0010
0000
0010
0000
0100
1000
0000
,  // measure 14
0001
0010
0001
0100
0010
1000
0000
1000
0000
1000
0100
0010
0001
1000
0100
1000
,  // measure 15
0010
0000
1000
0010
0100
0001
1000
0000
0001
1000
0100
0010
0100
0000
1000
0001
,  // measure 16
0000
0100
0010
0000
1000
0001
0100
0001
0010
0000
0001
0010
0100
1000
0100
1000
,  // measure 17
0001
0100
0010
0100
0001
0000
1000
0001
0000
0010
0100
0000
1000
0001
0010
0001
,  // measure 18
0100
0000
0001
0100
0010
1000
0001
0000
1000
0001
0010
0100
0010
0000
0001
1000
,  // measure 19
0000
0010
0100
0000
0001
1000
0010
1000
0100
0000
1000
0100
0010
0001
0010
0001
,  // measure 20
1000
0010
0100
0001
0040
0000
0000
0000
0000
0000
0000
0000
0000
0000
0000
0000
,  // measure 21
0031
1000
0001
1000
0000
0100
0010
0000
0001
1000
0100
1000
0010
0100
0010
0100
,  // measure 22
0000
0001
1000
0000
0001
0010
0100
0000
1000
0001
1000
0001
0000
0100
0010
0000
,  // measure 23
1000
0001
0100
0001
0010
0100
0010
0100
0000
1000
0010
0000
0100
0010
1000
0000
,  // measure 24
0001
0010
0001
0010
0000
0100
1000
0000
0001
0010
0001
0100
0010
1000
0010
1000
,  // measure 25
0000
0001
0010
0000
0100
0010
0001
0000
1000
0010
1000
0010
0000
0100
0001
0000
,  // measure 26
1000
0010
1000
0100
0010
0001
0010
0001
0000
0100
0010
0000
1000
0001
0010
0001
,  // measure 27
2000
0010
0000
3001
1000
0100
0010
0001
2000
0100
0000
3001
1000
0010
0100
0001
,  // measure 28
2000
0010
0000
3001
0010
0100
0010
0001
1000
0010
1000
0010
0100
0001
0100
0001
,  // measure 29
0010
0100
0000
0100
0000
1000
0010
0100
0000
0100
0000
0001
,  // measure 30
2000
0100
3002
0010
2003
0010
3002
0100
,  // measure 31
1003
0000
0000
0000
0002
0000
0000
0010
0000
0000
1003
0000
0010
0000
0100
0000
,  // measure 32
0001
1000
0001
1000
0200
0000
0000
0010
0000
0000
1300
0000
0001
0000
0100
0000
,  // measure 33
0010
0000
1000
0000
0002
0000
0000
0100
0000
0000
1003
0000
0100
0000
0010
0000
,  // measure 34
0001
1000
0040
0000
0430
0000
0304
0000
,  // measure 35
4003
3400
0340
0034
,  // measure 36
4003
0000
0000
0000
3001
0100
0001
0000
1000
0100
1000
0000
0001
0100
0001
0000
,  // measure 37
1000
0100
1000
0000
0001
0100
0010
1000
0001
1000
0100
0010
0001
1000
0010
0100
,  // measure 38
0001
0000
0000
1000
0000
0000
0001
0000
0000
0010
0000
0000
0100
0000
0000
0000
0000
0000
0000
0000
0100
0000
0000
0000
0000
0000
0000
0000
0100
0000
0000
0000
0000
0000
0000
0000
1000
0000
0000
0001
0000
0000
1000
0000
0000
0001
0000
0000
,  // measure 39
0100
0010
0100
0010
1000
0000
0000
0000
0000
0000
0000
0000
0000
0000
0000
0000
,  // measure 40
0000
0000
0000
0000
,  // measure 41
0000
0000
0000
0000
,  // measure 42
0000
0000
0000
0000
,  // measure 43
0000
0000
0000
0000
,  // measure 44
0000
0000
0002
0000
0000
0010
0000
0000
,  // measure 45
1003
0010
0100
0001
2000
0000
0000
0100
,  // measure 46
0000
0000
3001
0010
0100
0010
0002
0000
,  // measure 47
0000
0100
0000
0000
1003
0100
0010
0001
,  // measure 48
0200
0000
0000
0010
0000
0000
0301
1000
,  // measure 49
0100
1000
0001
0100
0001
0010
0100
1000
,  // measure 50
0010
0000
0100
0001
0100
0000
0010
0000
1000
0000
0001
0000
0010
0000
0001
0000
,  // measure 51
1000
0000
0010
0000
0100
0000
0001
0000
1000
0010
1000
0000
0001
0000
0010
0000
,  // measure 52
0001
0000
0100
0000
0010
0000
1000
0000
0100
0000
0010
0001
0010
0000
0100
0000
,  // measure 53
1000
0000
0010
0000
0100
0000
0001
0000
1000
0010
1000
0000
0100
0000
0010
0000
,  // measure 54
0001
0100
0001
0000
1000
0000
0100
0000
1000
0000
0010
0000
0100
0000
0001
0000
,  // measure 55
0010
0000
0100
1000
0100
0000
0010
0000
0001
0000
1000
0000
0010
0000
1000
0000
,  // measure 56
0001
0000
0010
0000
0100
0000
1000
0000
0001
0010
0001
0000
1000
0000
0010
0000
,  // measure 57
1000
0000
0100
0000
0010
0000
0001
0000
0100
0000
0010
1000
0010
0000
0100
0000
,  // measure 58
0001
0000
0010
0000
0100
0000
1000
0000
0001
0010
0001
0000
0100
0000
0010
0000
,  // measure 59
1000
0100
1000
0000
0001
0000
0100
0000
0002
0000
0010
0000
0000
0000
1003
0000
,  // measure 60
0010
0000
0100
0001
0100
0000
0010
0000
1000
0000
0100
0000
2000
0000
0001
0000
,  // measure 61
0000
0000
3010
0000
0100
0000
0001
0000
1000
0010
1000
0000
0001
0000
0010
0000
,  // measure 62
0002
0000
0100
0000
0000
0000
1003
0000
0100
0000
0010
0001
0010
0000
0100
0000
,  // measure 63
1000
0010
0100
0001
0010
0100
0010
0001
,  // measure 64
0100
0010
0000
0000
0000
0000
1000
0100
,  // measure 65
0001
0100
0020
0000
0031
0100
0020
0000
,  // measure 66
1030
0001
0010
0001
2000
0000
3001
0100
,  // measure 67
2000
0000
3200
0000
0302
0000
0013
0100
,  // measure 68
0010
0000
0001
0000
2000
0000
0000
0000
3010
0100
0010
0000
1000
0000
0100
0000
,  // measure 69
0001
0000
0100
0000
0010
0000
0001
0000
1000
0010
1000
0010
0100
0000
0001
1000
,  // measure 70
0001
0000
0010
0000
0001
0000
1000
0000
0100
0010
0100
0010
0001
0000
0100
0000
,  // measure 71
1000
0000
0100
0000
0010
0000
1000
0000
0001
0010
0001
0010
0100
0000
1000
0010
,  // measure 72
0100
0000
0001
0000
2000
0000
0000
0000
3100
0010
0002
0000
1000
0000
0203
1000
,  // measure 73
0300
0100
0010
1000
0001
0000
0010
0001
0000
0001
0100
0010
1000
0000
0100
0010
,  // measure 74
0000
0010
0001
0000
1000
0000
0100
0010
0001
1000
0001
1000
0010
0000
0100
0010
,  // measure 75
0000
0001
0010
0100
0001
0000
0100
0010
0000
1000
0001
0010
0100
0020
0000
1000
,  // measure 76
0000
0130
0010
0000
0001
0000
1000
0010
0100
0001
2000
0000
0001
0000
3200
0001
,  // measure 77
0300
0100
0010
0001
1000
0000
0010
1000
0000
1000
0100
0010
0001
0000
0100
0010
,  // measure 78
0000
0010
1000
0000
0001
0000
0100
0010
1000
0001
1000
0001
0010
0000
0100
0010
,  // measure 79
0000
1000
0010
0100
1000
0000
0100
0010
0000
0001
1000
0010
0100
0020
0000
0001
,  // measure 80
0000
0000
0130
0000
0010
0000
0000
0000
1000
0000
0000
0000
0001
0000
0010
0000
0100
0000
1000
0000
0100
0000
1000
0000
0001
0000
0000
0100
0000
0000
1000
0000
,  // measure 81
0000
0100
0000
0000
0001
0000
0000
0100
0000
0000
1000
0000
0000
0100
0000
0000
0001
0000
0000
0100
0000
0000
1000
0000
0000
0100
0000
0000
0001
0000
0000
0100
,  // measure 82
0000
0000
1000
0000
0000
0100
0000
0000
0002
0000
0000
0000
0000
0000
0000
0000
1003
0000
0000
0100
0000
0000
0001
0000
0000
0100
0000
0000
1000
0000
0000
0100
,  // measure 83
0000
0000
0001
0000
0000
0100
0000
0000
1000
0000
0000
0100
0000
0000
0001
0000
0000
0100
0000
0000
1000
0000
0000
0100
0000
0000
0001
0000
0000
0100
0000
0000
,  // measure 84
2000
0000
0000
0000
0000
0000
0000
0000
3010
0000
0000
0001
0000
0000
0010
0000
0000
1000
0000
0000
0010
0000
0000
0001
0000
0000
0010
0000
0000
1000
0000
0000
,  // measure 85
0010
0000
0000
0001
0000
0000
0010
0000
0000
1000
0000
0000
0010
0000
0000
0001
0000
0000
0010
0000
0000
1000
0000
0000
0002
0000
0000
0010
0000
0000
2003
0000
,  // measure 86
0000
0100
0000
0000
3002
0000
0000
0100
0000
0000
2003
0000
0000
0010
0000
0000
3002
0000
0000
0010
0000
0000
2003
0000
0000
0100
0000
0000
3002
0000
0000
0100
,  // measure 87
0000
0000
2003
0000
0000
0010
0000
0000
3004
0000
0000
0000
0000
0000
0000
0000
0000
0000
0000
0000
0000
0000
0000
0000
0000
0000
0000
0000
0000
0000
0000
0000
,  // measure 88
0000
0000
0000
0000
,  // measure 89
0000
0003
0000
0000
,  // measure 90
0000
0000
0000
0000
,  // measure 91
0000
0000
0000
0000
1000
0000
0001
0010
0000
0010
0100
1000
0010
0000
0000
0000
,  // measure 92
1000
0000
0001
0000
0100
0010
0100
0000
0000
0000
0100
0000
0000
0000
0010
0000
1000
0000
0000
0000
0010
0000
1000
0000
0100
0000
0000
0000
0000
0000
0100
0000
,  // measure 93
0000
0000
0000
0000
0000
0000
1000
0000
0000
0000
0000
0000
0001
0000
0000
0000
0010
0000
0000
0000
0001
0000
0000
0000
0010
0000
0000
0000
0000
0000
0000
0000
0000
0000
0000
0000
0010
0000
0000
0000
0000
0000
0000
0000
0000
0000
0000
0000
0100
0000
0000
0000
0000
0000
0010
0000
0000
0000
0000
0000
0001
0000
0000
1000
0000
0000
0001
0000
0000
0000
0000
0000
0000
0000
0000
0000
0000
0000
0001
0000
0000
0000
0000
0000
0100
0000
0000
0000
0000
0000
0000
0000
0000
0000
0000
0000
,  // measure 94
0010
0000
0100
0001
0010
0001
1000
0000
0001
0000
0100
0001
0010
0000
0000
0010
,  // measure 95
0000
0000
0000
0100
0000
0000
0010
0000
0001
0000
0010
0000
0001
0000
0000
0000
0000
0000
1000
0000
0000
0010
0000
0000
0000
0000
0000
0010
0000
0000
0100
0000
0000
0001
0000
0000
0010
0000
0000
0000
0000
0000
0000
0000
0000
0000
0000
0000
,  // measure 96
0001
0000
1000
0000
0100
0010
0100
0000
0000
0000
0100
0000
0000
0000
0010
0000
0001
0000
0000
0000
0010
0000
0001
0000
0100
0000
0000
0000
0000
0000
0100
0000
,  // measure 97
0000
0000
0000
0000
0000
0000
0001
0000
0000
0000
0000
0000
1000
0000
0000
0000
0010
0000
0000
0000
1000
0000
0000
0000
0010
0000
0000
0000
0000
0000
0000
0000
0000
0000
0000
0000
0010
0000
0000
0000
0000
0000
0000
0000
0000
0000
0000
0000
0100
0000
0000
0000
0000
0000
0010
0000
0000
0000
0000
0000
1000
0000
0000
0001
0000
0000
2000
0000
0000
0000
0000
0000
0000
0000
0000
0000
0000
0000
3100
0000
0000
0000
0000
0000
0020
0000
0000
0000
0000
0000
0000
0000
0000
0000
0000
0000
,  // measure 98
0130
0000
0010
0001
0100
0010
1000
0100
1000
0001
0100
0001
0010
0100
1000
0100
,  // measure 99
1000
0100
1000
0010
0000
0000
0000
0000
0000
0000
0000
0000
0000
0000
0000
0000
;
