#VERSION:0.83;
#TITLE:X-Plan;
#SUBTITLE:;
#ARTIST:Tom-H@ck feat. Nadia;
#TITLETRANSLIT:;
#SUBTITLETRANSLIT:;
#ARTISTTRANSLIT:;
#GENRE:;
#CREDIT:chronon;
#MUSIC:X-Plan.ogg;
#BANNER:X-Plan.png;
#BACKGROUND:X-Plan-bg.png;
#CDTITLE:;
#SAMPLESTART:78.238;
#SAMPLELENGTH:19.800;
#SELECTABLE:YES;
#OFFSET:0.842;
#BPMS:0.000=250.000;
#STOPS:;
#BGCHANGES:;
#FGCHANGES:;

//--------------- dance-single - chronon ----------------
#NOTEDATA:;
#STEPSTYPE:dance-single;
#DESCRIPTION:chronon;
#DIFFICULTY:Beginner;
#METER:3;
#RADARVALUES:0,0,0,0,0;
#NOTES:
0000
0000
0000
0000
,
0000
0000
0000
0000
,
0000
0000
0000
0000
,
0000
0000
0000
0000
,
0000
0000
0000
0000
,
0000
0000
0000
0000
,
1000
0000
0000
0000
,
0010
0000
0000
0000
,
0100
0000
0000
0000
,
0100
0000
0000
0000
,
0001
0000
0000
0000
,
0100
0000
0000
0000
,
0001
0000
0000
0000
,
0000
0000
0000
0000
,
2000
0000
3000
0000
,
2000
0000
3000
0000
,
2000
0000
3000
0000
,
0001
0000
0000
0000
,
0001
0000
0000
0000
,
0010
0000
0000
0000
,
0100
0000
0000
0000
,
0100
0000
0000
0000
,
1000
0000
0000
1000
,
0000
0000
0001
0000
,
0000
0001
0000
0000
,
1000
0000
0000
0000
,
0001
0000
0000
0000
,
0100
0000
0000
0000
,
1000
0000
0000
0000
,
0100
0000
0000
0000
,
0001
0000
0000
0000
,
1000
0000
0000
0000
,
0100
0000
0000
0000
,
0010
0000
0000
0000
,
0000
0000
0000
0000
,
0001
0000
0000
0000
,
0010
0000
0010
0000
,
0010
0000
0000
0000
,
0100
0000
0100
0000
,
0100
0000
0000
0000
,
1000
0000
0000
0000
,
0001
0000
0000
0000
,
1000
0000
0000
0000
,
1000
0000
0000
0000
,
0010
0000
0010
0000
,
0010
0000
0000
0000
,
0100
0000
0100
0000
,
0100
0000
0000
0000
,
0001
0000
0000
0000
,
1000
0000
0000
0000
,
0001
0000
0000
0000
,
0010
0000
0000
0000
,
0100
0000
0000
0000
,
1000
0000
1000
0000
,
1000
0000
0000
0000
,
0001
0000
0000
0000
,
0000
0000
0000
0000
,
1000
0000
0000
0000
,
0000
0000
0000
0000
,
0001
0000
0000
0000
,
0000
0000
0000
0000
,
1000
0000
0000
0000
,
0000
0000
0000
0000
,
0000
0000
0000
0000
,
1000
0000
0000
0000
,
0000
1000
0000
0000
,
0000
0000
1000
0000
,
0000
0000
0000
0000
,
0100
0000
0000
0000
,
0000
0100
0000
0000
,
0000
0000
0100
0000
,
0000
0000
0000
0000
,
0010
0000
0000
0000
,
0000
0010
0000
0000
,
0000
0000
0010
0000
,
0000
0000
0000
0000
,
0001
0000
0000
0000
,
0000
0001
0000
0000
,
0000
0000
0001
0000
,
0000
0000
0000
0000
,
0000
0000
0000
0000
,
0000
0000
0000
0000
,
0000
0000
0000
0000
,
1000
0000
0000
0000
,
0010
0000
0010
0000
,
0010
0000
0000
0000
,
0100
0000
0100
0000
,
0100
0000
0000
0000
,
0001
0000
0000
0000
,
1000
0000
0001
0000
,
1000
0000
0000
0000
,
0001
0000
0000
0000
,
0010
0000
0010
0000
,
0010
0000
0000
0000
,
0100
0000
0100
0000
,
0100
0000
0000
0000
,
1000
0000
0001
0000
,
1000
0000
0000
0000
,
0010
0000
0100
0000
,
0010
0000
0000
0000
,
1000
0000
0000
0000
,
0001
0000
0001
0000
,
0001
0000
0000
0000
,
1000
0000
0000
0000
,
0100
0000
0000
0000
,
0020
0000
0000
0000
,
0030
0000
0000
0000
,
0001
0000
0001
0000
,
0010
0000
0010
0000
,
0100
0000
0100
0000
,
1000
0000
0000
0000
,
1000
0000
1000
0000
,
0010
0000
0010
0000
,
0100
0000
0100
0000
,
0001
0000
0000
0000
;

//--------------- dance-single - chronon ----------------
#NOTEDATA:;
#STEPSTYPE:dance-single;
#DESCRIPTION:chronon;
#DIFFICULTY:Easy;
#METER:6;
#RADARVALUES:0,0,0,0,0;
#NOTES:
0000
0000
0000
0000
,
0000
0000
0000
0000
,
0000
0000
0000
0000
,
0000
0000
0000
0000
,
0000
0000
0000
0000
,
0000
0000
0000
0000
,
0001
0000
0010
0000
,
0100
0000
1000
0000
,
0001
0000
1000
0000
,
0001
0000
0000
0000
,
1000
0000
0010
0000
,
0100
0000
0100
0000
,
0001
0000
0010
0000
,
0100
0000
1000
0000
,
0001
1000
0001
0000
,
0100
0010
0100
0000
,
0001
1000
0001
0000
,
1000
0000
0100
0000
,
1000
0000
0100
0000
,
0010
0000
0001
0000
,
1000
0000
0001
0000
,
1000
0000
0000
0000
,
0001
0000
0000
0100
,
0000
0000
1000
0000
,
0000
0100
0000
0000
,
0001
0000
1000
0000
,
0001
0000
0001
0000
,
0001
0000
0000
0000
,
0010
0000
0010
0000
,
0010
0000
0000
0000
,
0100
0000
0100
0000
,
0100
0000
0000
0000
,
1000
0000
0001
0000
,
1000
0000
0000
0000
,
0010
0000
0010
0000
,
1000
0000
0010
0000
,
0001
0000
0010
0000
,
1000
0000
0100
0000
,
0010
0000
0001
0000
,
1000
0000
1000
0000
,
0100
0000
0100
0000
,
0010
0000
0010
0000
,
0002
0000
0000
0003
,
0001
0000
0100
0000
,
1000
0000
0100
0000
,
0001
0000
0010
0000
,
0100
0000
1000
0000
,
0001
0000
0100
0000
,
0010
1000
0010
0000
,
1000
0000
0100
0000
,
0010
0001
0010
0000
,
0001
1000
0000
1000
,
0001
0100
0000
0100
,
0001
0000
0100
0000
,
0010
0000
1000
0000
,
0001
0000
0000
0000
,
1000
0000
0000
0000
,
0010
0000
0000
0000
,
0100
0000
0000
0000
,
0001
0000
0000
0000
,
1000
0000
0000
0000
,
0100
0000
0000
0000
,
0010
0000
0000
0000
,
0000
0000
0000
0000
,
0001
0000
0001
0000
,
0000
0010
0000
0010
,
0000
0000
0100
0000
,
0100
0000
0000
0000
,
1000
0000
1000
0000
,
0000
0010
0000
0010
,
0000
0000
0100
0000
,
0100
0000
0000
0000
,
0001
0000
0001
0000
,
0000
0100
0000
0100
,
0000
0000
0010
0000
,
0010
0000
0000
0000
,
1000
0000
1000
0000
,
0000
0100
0000
0100
,
0000
0000
0010
0000
,
0010
0000
0001
0000
,
1000
0000
0010
0000
,
0200
0000
0000
0000
,
0300
0000
0000
0000
,
0001
0000
0100
0000
,
1000
0000
0100
0000
,
0001
0000
0010
0000
,
1000
0000
0010
0000
,
0001
0000
0010
0000
,
0100
0000
1000
0000
,
0010
0000
0100
0000
,
0002
0000
0000
0003
,
1000
0000
0010
0000
,
0001
0000
0010
0000
,
1000
0000
0100
0000
,
0001
0000
0100
0000
,
1000
0000
0100
0000
,
0010
0001
0010
0000
,
0001
0000
0100
0000
,
0010
1000
0010
0000
,
1000
0001
0000
0001
,
1000
0100
0000
0100
,
1000
0000
0100
0000
,
0010
0000
0001
0000
,
2000
0000
3020
0000
,
0230
0000
0302
0000
,
2000
0000
0000
0000
,
3003
0000
0000
0000
,
0001
1000
0001
0000
,
0010
0001
0010
0000
,
0001
0010
0100
0000
,
1000
0000
0001
0000
,
1000
0001
1000
0000
,
0010
1000
0010
0000
,
1000
0010
0100
0000
,
0001
0000
1000
0000
;

//--------------- dance-single - chronon ----------------
#NOTEDATA:;
#STEPSTYPE:dance-single;
#DESCRIPTION:chronon;
#DIFFICULTY:Medium;
#METER:12;
#RADARVALUES:0,0,0,0,0;
#NOTES:
0000
0000
0000
0000
,
0000
0000
0000
0000
,
0000
0000
0000
0000
,
0000
0000
0000
0000
,
0000
0000
0000
0000
,
0000
0000
0000
0000
,
1000
0010
0000
0000
0100
0001
0000
0000
,
1000
0100
0000
0000
0010
0001
0000
0000
,
0010
0010
0100
0100
,
2000
0000
0000
0100
0000
0000
3001
0000
,
1000
0010
0000
0100
0010
0000
0100
0000
,
0001
0000
0000
1000
0000
0000
0001
0000
,
0001
0010
0000
0100
0010
0000
0100
0000
,
1000
0000
0000
0001
0000
0000
1000
0000
,
0020
0000
0000
0001
0000
0000
0100
0000
,
2030
0000
0000
0001
0000
0000
3100
0000
,
0200
0000
0000
0001
0000
0000
0010
0000
,
2300
0000
0000
3200
0000
0000
0320
0000
,
0031
0010
0000
0000
0100
1000
0000
0000
,
0001
0100
0000
0000
0010
1000
0000
0000
,
0010
0010
0100
0100
,
0002
0000
0000
0100
0000
0000
1003
0000
,
0001
1000
0001
0000
0000
0000
1000
0001
,
1000
0000
0000
0000
0100
0010
0100
0000
,
0000
0000
0010
0100
0010
0000
0000
0000
,
0001
1000
0001
0000
0100
0000
0100
0000
,
0001
0000
0100
0000
0010
0000
1000
0001
,
0000
1000
0000
0200
0010
0000
0310
0000
,
0100
0000
0010
0000
0001
1000
0000
0001
,
0200
0000
0000
0010
0000
0010
0000
0310
,
1000
0010
0100
0001
,
1000
0000
0000
0100
0000
0000
0010
0000
,
0001
0000
0010
0100
0000
0100
1000
0000
,
1000
0000
0010
0100
0000
0100
0001
0000
,
1000
0001
1000
0001
,
0100
1000
0100
0010
,
1000
0000
0000
0100
0000
0000
0001
0000
,
0100
0010
0100
1000
,
0001
0000
0000
0100
0000
0000
1000
0000
,
0100
0010
1000
0000
,
0100
0010
1000
0000
,
0010
0100
0010
0001
,
0200
0000
0301
1000
,
0100
0001
0100
0010
,
0001
0000
0000
0100
0000
0000
1000
0000
,
0100
0010
0100
0001
,
1000
0000
0000
0100
0000
0000
0001
0000
,
0100
0000
0010
0001
,
0100
0010
1000
1000
,
0100
0000
0010
0100
,
1000
0010
0100
0001
,
1000
0001
1000
0000
0001
1000
0001
0000
,
1000
0001
1000
0000
0001
1000
0001
0000
,
0010
0000
0000
0010
0000
0000
0010
0000
,
0001
0000
1000
0000
,
0100
0000
0100
0000
,
0010
0000
0010
0000
,
0001
0000
0001
0000
,
2000
0000
0000
0010
0000
0000
3001
0000
,
0100
0000
0100
0000
,
0010
0000
0010
0000
,
1000
0000
1000
0000
,
0002
0000
0000
0010
0000
0000
1003
0000
,
0000
0000
0000
0000
,
0001
0010
0100
0000
,
1000
0001
0100
0010
,
0000
1000
0001
0010
,
0100
1000
0000
0000
,
1000
0100
0010
0000
,
0001
1000
0010
0100
,
0000
0001
1000
0100
,
0010
0001
0000
0000
,
0010
0001
1000
0000
,
0010
0100
0001
1000
,
0000
0100
1000
0001
,
0100
0010
0000
0000
,
1000
0010
0100
0000
,
0001
1000
0100
0010
,
0000
0001
0000
1000
,
0010
0100
0001
0001
,
1000
0100
0100
0010
,
0002
0000
0000
0000
,
0003
0000
0000
0000
,
0010
1000
0010
0100
,
1000
0000
0000
0010
0000
0000
0001
0000
,
0010
0100
0010
1000
,
0001
0000
0000
0010
0000
0000
1000
0000
,
0010
0100
1000
0000
,
0010
0100
1000
0000
,
0100
0100
0001
0001
,
0200
0000
0000
0000
,
0310
0001
0010
0100
,
0001
0000
0000
0010
0000
0000
1000
0000
,
0010
0100
0010
0001
,
1000
0000
0000
0010
0000
0000
0001
0000
,
0010
0000
0100
0001
,
0010
0100
1000
1000
,
0010
0000
0100
0010
,
1000
0100
0010
0001
,
1000
0001
1000
0000
0001
1000
0001
0000
,
1000
0001
1000
0000
0001
1000
0001
0000
,
0010
0000
0100
0010
0000
0100
1000
0000
,
0001
0000
1000
0000
,
0002
0000
0000
2003
0000
0000
3020
0000
,
0230
0000
0000
0302
0000
0000
2003
0000
,
0002
0000
0000
0000
,
0000
0000
0000
3003
,
1000
0001
1000
0000
0100
0010
0100
0000
,
0010
0001
0010
0000
0001
0100
0001
0000
,
1000
1000
0001
0001
,
1002
0000
0000
0100
0000
0000
1003
0000
,
0001
1000
0001
0000
0100
0010
0100
0000
,
0010
1000
0010
0000
1000
0100
1000
0000
,
0001
0001
1000
1000
,
2001
0000
0000
0100
0000
0000
3001
0000
;

//--------------- dance-single - chronon ----------------
#NOTEDATA:;
#STEPSTYPE:dance-single;
#DESCRIPTION:chronon;
#DIFFICULTY:Hard;
#METER:15;
#RADARVALUES:0,0,0,0,0;
#NOTES:
0000
0000
0000
0000
,
0000
0000
0000
0000
,
0000
0000
0000
0000
,
0000
0000
0000
0000
,
0000
0000
0000
0000
,
0000
0000
0000
0000
,
0001
0010
0001
0000
1000
0010
1000
0000
,
0001
0100
0001
0000
1000
0100
1000
0000
,
0100
0100
0010
0010
,
0200
0000
0000
0001
0000
0000
1300
0000
,
0001
1000
0000
1000
0100
0000
0010
0000
,
0001
0000
1000
0001
0000
1000
0010
0000
,
1000
0001
0000
0001
0100
0000
0010
0000
,
1000
0000
0001
1000
0000
0001
0010
0100
,
1000
0000
0100
0000
0010
0001
0010
0000
,
0001
0000
0100
0000
0010
1000
0010
0000
,
1000
0000
0100
0000
0010
0001
1000
0000
,
1001
0000
0001
1000
0010
0100
0001
1000
,
0001
0010
0100
0000
0010
0100
1000
0000
,
1000
0010
0100
0000
0010
0100
0001
0000
,
1000
0010
1000
0010
0100
0001
0100
0001
,
0200
0000
0000
1000
0000
0000
0301
0000
,
0100
0001
0010
0000
0000
0000
0100
1000
,
0010
0000
0000
0000
0010
1000
0100
0000
,
0000
0000
0010
0001
0100
0000
0000
0000
,
0100
0001
0010
0000
0001
0010
0100
0010
,
0001
0000
1000
0000
0001
0000
0100
0010
,
0000
1000
0000
0200
0010
0000
0310
0000
,
0001
0000
1000
0000
0001
0100
0000
0100
,
0020
0000
0000
0100
0000
0100
0000
0130
,
0001
0000
1000
0000
0100
0000
0010
0100
,
1000
0000
0001
0100
0000
0010
0100
0000
,
1001
0000
1000
0000
0100
0010
0100
0000
,
1001
0000
0001
0100
0010
1000
0001
1000
,
0100
0010
0100
0010
0001
1000
0001
1000
,
0200
0000
0001
0000
0310
0100
1000
0000
,
0001
0100
0000
0010
0200
0000
1000
0000
,
0320
0000
0001
0000
0130
0010
1000
0000
,
0001
0010
0000
0100
0010
0000
1000
0000
,
1020
0100
0031
1000
,
1020
0100
0031
0010
,
0100
0010
1000
0000
0001
1000
0001
0000
,
0101
0000
0001
0100
0010
1000
0010
0100
,
0020
0000
0001
0000
0130
0010
1000
0000
,
0001
0010
0000
0100
0020
0000
1000
0000
,
0230
0000
0001
0000
0310
0100
1000
0000
,
0001
0100
0000
0010
0100
0000
0001
0000
,
0102
0000
1003
0000
0010
0200
0000
0001
,
0000
0310
0000
0100
1000
0000
0100
0000
,
0102
0000
1003
0000
0100
0020
0000
0001
,
0000
0130
0000
0010
1000
0000
0010
0000
,
0001
0010
0001
0000
0001
1000
0001
0000
,
0001
0100
0001
0000
0001
0100
0010
0000
,
0110
0000
0000
1001
0000
0000
1000
0001
,
0100
0010
1000
0001
0010
0100
1000
0001
,
2000
0000
3002
0000
,
0203
0000
0302
0000
,
2003
0000
3200
0000
,
0320
0000
0000
1000
0000
0000
0100
0000
,
0032
0000
2003
0000
,
3200
0000
2300
0000
,
3002
0000
0203
0000
,
0320
0000
0000
0001
0000
0000
0100
0000
,
2030
0000
0000
0000
,
3001
1000
0010
1000
,
0100
1000
0001
0010
,
0001
0100
0001
1000
,
0010
0000
1000
0010
1000
0010
0100
0001
,
1000
0010
0100
0001
,
0010
0001
0010
0100
,
1000
0010
1000
0010
,
0100
0000
0001
0100
0001
0100
0010
1000
,
0010
1000
0001
1000
,
0100
0010
0001
1000
,
0001
0100
0010
1000
,
0001
0000
1000
0100
1000
0100
0010
0001
,
1000
0001
0010
0001
,
0100
0001
1000
0010
,
1000
0100
1000
0001
,
1000
0001
0010
0100
0010
0001
1000
0000
,
0001
1000
0010
0100
0010
1000
0001
0100
,
0002
0000
0000
0000
,
0003
0000
0000
0000
,
0200
0000
1000
0000
0310
0100
0010
1000
,
0001
0010
0100
0010
0000
0200
0001
0000
,
0320
0000
1000
0000
0130
0010
0001
1000
,
0001
0100
0010
0100
0000
0010
0001
0000
,
0021
0100
1030
0001
,
0021
0100
1030
0010
,
0110
0000
1001
0000
1000
0001
1000
0001
,
2001
0000
0000
0000
,
3020
0000
0001
0000
0130
0010
0100
0001
,
1000
0100
0010
0100
0000
0020
1000
0000
,
0230
0000
0001
0000
0310
0100
1000
0001
,
1000
0010
0100
0010
0000
1000
0010
0000
,
2010
0000
3001
0000
0100
0020
0000
1000
,
0000
0130
0000
0010
0001
0000
0010
0000
,
2010
0000
3001
0000
0010
0200
0000
1000
,
0000
0310
0000
0100
0001
0000
0100
0000
,
1000
0100
1000
0000
1000
0001
1000
0000
,
1000
0010
1000
0000
1000
0010
0100
0000
,
0010
1000
0001
0010
0001
1000
0010
1000
,
0001
0010
0000
0010
0100
1000
0000
1000
,
0002
0000
0000
2003
0000
0000
3020
0000
,
0230
0000
0000
0302
0000
0000
2003
0000
,
0002
0000
0000
0000
,
0000
0000
0000
3003
,
1000
0001
0100
0010
1000
0001
0010
0100
,
1000
0010
0100
0010
1000
0100
0010
0100
,
1000
0100
1000
0100
0010
0001
0010
0001
,
1000
0010
0100
1000
0100
0010
1000
1000
,
0001
0100
0010
1000
0001
1000
0100
0010
,
0001
0100
0010
0100
0001
0010
0100
0010
,
0001
0010
0001
0010
0100
1000
0100
1000
,
0001
0100
0010
0001
0010
1000
0001
1000
;
