#VERSION:0.83;
#TITLE:雑踏、僕らの街;
#SUBTITLE:;
#ARTIST:トゲナシトゲアリ;
#TITLETRANSLIT:Wrong World;
#SUBTITLETRANSLIT:;
#ARTISTTRANSLIT:TOGENASHI TOGEARI;
#GENRE:IDOL ROCK;
#ORIGIN:;
#CREDIT:;
#BANNER:Wrong World.png;
#BACKGROUND:Wrong World-bg.png;
#PREVIEWVID:;
#JACKET:Wrong World-jacket.png;
#CDIMAGE:;
#DISCIMAGE:Wrong World-bgEN.png;
#LYRICSPATH:Wrong World.lrc;
#CDTITLE:;
#MUSIC:Wrong World.ogg;
#OFFSET:0.767000;
#SAMPLESTART:46.905994;
#SAMPLELENGTH:12.000000;
#SELECTABLE:YES;
#BPMS:0.000=171.000;
#STOPS:233.500=1.053;
#DELAYS:;
#WARPS:;
#TIMESIGNATURES:0.000=4=4,
56.000=3=4,
80.000=6=4,
98.000=7=4,
105.000=4=4,
121.000=3=4,
130.000=4=4;
#TICKCOUNTS:0.000=4;
#COMBOS:0.000=1;
#SPEEDS:0.000=1.000=0.000=0;
#SCROLLS:0.000=1.000;
#FAKES:;
#LABELS:0.000=Song Start;
#BGCHANGES:2.000=Wrong World.mp4=1.000=0=0=1=====,
99999=-nosongbg-=1.000=0=0=0 // don't automatically add -songbackground-
;
#KEYSOUNDS:;
#ATTACKS:
;

//---------------dance-single - ----------------
#NOTEDATA:;
#CHARTNAME:;
#STEPSTYPE:dance-single;
#DESCRIPTION:;
#CHARTSTYLE:;
#DIFFICULTY:Hard;
#METER:14;
#RADARVALUES:0.704486,0.772998,0.236707,0.641083,0.537523,500.000000,476.000000,24.000000,65.000000,0.000000,0.000000,0.000000,0.000000,0.000000,0.704486,0.772998,0.236707,0.641083,0.537523,500.000000,476.000000,24.000000,65.000000,0.000000,0.000000,0.000000,0.000000,0.000000;
#CREDIT:Ben Speirs;
#NOTES:
// measure 0
0000
0000
0000
0000
,  // measure 1
0000
0000
0000
0000
,  // measure 2
0000
0000
0000
0000
,  // measure 3
0000
0000
0000
0000
,  // measure 4
0000
0000
0000
0000
,  // measure 5
0001
0000
0100
0001
0000
0100
0001
0000
1000
0001
0000
1000
0001
0000
0000
0000
,  // measure 6
1000
0000
0100
1000
0000
0100
1000
0000
0001
1000
0000
0001
1000
0000
0001
0000
,  // measure 7
0200
0000
0000
0000
0310
0300
0002
0000
0000
0000
0013
0000
1000
0000
0001
0000
,  // measure 8
0000
0000
0000
0000
0000
0000
0000
1200
,  // measure 9
0000
3301
0100
1000
0002
0000
1003
0000
,  // measure 10
1001
0000
0000
0001
0100
0000
0010
0000
0010
0000
0000
1000
0100
0000
0010
0000
,  // measure 11
0001
0000
1000
0010
1000
0000
0010
0100
0000
0100
0010
0000
1000
0000
0000
0000
,  // measure 12
0101
0000
0000
1000
0100
0000
0010
0000
0010
0000
0000
0001
0100
0000
0010
0000
,  // measure 13
1000
0100
0000
0100
0010
0000
0001
0100
0000
0100
0010
0003
1000
0000
0001
0000
,  // measure 14
2000
0000
0000
0010
0000
0000
3001
3000
0010
0000
0100
0000
2000
0000
0000
0000
,  // measure 15
3030
0000
0000
0000
0001
0000
1000
0000
0002
0000
0000
0100
0000
0000
1003
0003
,  // measure 16
0010
0000
0100
0000
0002
0000
0000
2033
0000
0000
3100
0000
0100
0000
0000
0000
,  // measure 17
2000
0000
0000
3020
0000
0000
0031
0000
0010
0000
0100
0000
0002
0000
0000
0000
,  // measure 18
0003
0003
1000
0000
0100
0000
0010
0000
0002
0000
0000
0023
0000
0000
1330
0000
,  // measure 19
0010
0000
0100
0000
1000
0000
0001
0100
0000
0310
1000
0000
0001
0000
0000
0000
,  // measure 20
1001
0000
0000
0001
0100
0000
1000
0000
0100
0000
0010
0000
2000
0000
0000
0000
,  // measure 21
3001
0000
0010
0000
0100
0000
1000
0000
0001
0000
0000
1000
0010
0000
0001
0000
,  // measure 22
0010
0100
0002
0000
1003
0100
0010
0001
,  // measure 23
1000
0000
0000
1000
0010
0000
0001
0000
0010
0000
0100
0000
0002
0000
0000
0000
,  // measure 24
1003
0000
0100
0000
0010
0000
0001
0000
1000
0000
0000
0001
0100
0000
1000
0000
,  // measure 25
0100
0000
0010
0100
0020
0000
0000
0000
1030
0000
0010
0000
0100
0000
0001
0000
,  // measure 26
1030
0100
2200
0000
3300
0000
3202
0000
,  // measure 27
0303
0000
0000
0000
1003
0000
0100
0000
0010
0000
0001
0000
0100
0010
0000
0100
,  // measure 28
0000
0001
0022
0000
0033
0000
2020
0000
,  // measure 29
3030
0000
0000
0000
0001
0000
0100
0000
0010
0000
1000
0000
0001
1000
0001
1000
,  // measure 30
0000
0000
0000
0000
1000
0000
0001
0010
0000
0001
1000
0000
0000
0000
1000
0000
,  // measure 31
0001
0000
1000
0010
0000
1000
0001
0000
0000
0000
0001
0000
1000
0000
0001
0010
,  // measure 32
0000
1000
0010
0000
0001
0000
1000
0000
0001
0000
0100
1000
0000
0100
0001
0000
,  // measure 33
1000
0100
0010
0002
0000
0000
0000
0000
,  // measure 34
1303
0100
1000
0100
1000
0000
0000
0000
2001
0000
0000
0000
3310
0000
0100
0000
,  // measure 35
0001
0000
1000
0100
0010
0000
0001
0000
1000
0000
0010
0000
0100
0000
0002
0000
,  // measure 36
0023
2030
3002
0203
2300
0000
3320
0000
,  // measure 37
0130
0000
0000
0001
1000
0000
0001
0000
0010
0000
0100
2000
0000
0000
3001
0000
,  // measure 38
0100
0000
0010
0000
0110
0000
0000
0000
0001
0100
0001
0100
0001
0000
0100
0010
,  // measure 39
0100
0000
0010
0000
1000
0000
0000
0000
1000
0100
1000
0100
1000
0000
0100
0010
,  // measure 40
0100
0010
0001
1000
0020
0000
3130
0100
,  // measure 41
0002
0000
0000
0000
0013
0003
0010
0000
0001
0000
0100
0000
0010
0000
1000
0000
,  // measure 42
0001
0010
0000
0100
1000
0000
0001
0000
1002
0000
0000
0000
0103
0000
0010
0000
,  // measure 43
1000
0000
0001
0010
0100
0000
1000
0000
0001
0000
0100
0000
0010
0000
2000
0000
,  // measure 44
3200
0302
2003
3020
0032
0000
0233
0000
,  // measure 45
0310
0000
0000
1000
0001
0000
1000
0000
0100
0000
0020
0000
0000
0000
0031
0000
,  // measure 46
0100
0000
0010
0000
0110
0000
0000
0000
1000
0000
0010
1000
0010
0000
1000
0001
,  // measure 47
1000
0000
0001
0000
0010
0000
0000
0000
0001
0010
0001
0010
0001
0000
0010
0100
,  // measure 48
0010
0100
1000
0001
0200
0000
0313
0010
,  // measure 49
2000
0000
0000
0000
3100
3000
0100
0000
0010
0001
0000
0010
0001
0000
0100
0000
,  // measure 50
0010
0000
1000
0000
0001
0000
0010
0000
0100
0000
1000
0010
0030
1000
0010
0000
,  // measure 51
0100
0001
0000
0100
0001
0000
1000
0000
0002
0000
0000
0013
0000
0000
0021
0000
,  // measure 52
0000
0000
0130
0000
1000
0000
0010
0000
0100
0000
0001
0100
0000
0001
0100
0000
,  // measure 53
0010
1000
0000
0010
1000
0000
0001
0000
2000
0000
0000
3100
0000
0000
1200
0000
,  // measure 54
0000
0000
0310
0000
0001
0000
0100
0000
0010
0000
1000
0100
0000
0010
0001
0000
,  // measure 55
1000
0010
0000
0100
0001
0000
0000
0000
1000
0000
0001
0010
0000
0100
1000
0000
,  // measure 56
0001
0100
0000
0010
1000
0000
0001
0000
0020
0000
0000
0000
0130
0000
0002
0000
,  // measure 57
0000
3103
1000
0010
0200
0000
0331
0001
,  // measure 58
0010
0100
1000
0001
0000
0000
1002
0000
,  // measure 59
0103
0000
0010
0000
1000
0000
0000
0001
0010
0000
0001
0000
1000
0000
0010
0100
,  // measure 60
0010
1000
0001
0010
0100
1000
0001
0000
,  // measure 61
0000
0000
0000
0000
0000
0021
0000
1033
,  // measure 62
0010
0000
0001
0000
2000
0000
0000
0000
3001
0000
3000
0000
1003
0000
0001
0100
,  // measure 63
0000
0001
1000
0000
0001
0100
0000
0001
1000
0000
0000
0000
0001
0000
1000
0100
,  // measure 64
0000
1000
0001
0000
1000
0100
0000
1000
0001
0000
0000
0000
1000
0000
0000
0001
,  // measure 65
0010
0000
0100
0000
0100
0000
0000
1000
0010
0000
0100
0000
0002
0000
0000
0023
,  // measure 66
0000
0000
2030
0000
0000
3020
0000
0000
0031
0000
0000
0000
1000
0000
1000
0000
,  // measure 67
0010
0100
0010
0001
0010
1000
0001
0001
,  // measure 68
0010
0000
0100
0000
0010
0000
1000
0000
0010
0000
0001
0000
0100
0000
0000
0101
,  // measure 69
0000
0000
1000
0000
0000
1100
0000
0000
0001
0000
0000
0011
0000
0000
0110
0000
,  // measure 70
0000
1100
0000
0000
1001
0000
0000
0110
0000
0000
2002
0000
0000
0000
0000
0000
,  // measure 71
0000
3003
3003
0000
0000
0000
0000
0000
;

//---------------dance-single - ----------------
#NOTEDATA:;
#CHARTNAME:;
#STEPSTYPE:dance-single;
#DESCRIPTION:;
#CHARTSTYLE:;
#DIFFICULTY:Medium;
#METER:12;
#RADARVALUES:0.550908,0.596268,0.207119,0.660808,0.157805,391.000000,370.000000,21.000000,67.000000,0.000000,0.000000,0.000000,0.000000,0.000000,0.550908,0.596268,0.207119,0.660808,0.157805,391.000000,370.000000,21.000000,67.000000,0.000000,0.000000,0.000000,0.000000,0.000000;
#CREDIT:Ben Speirs;
#NOTES:
0000
0000
0000
0000
,
0000
0000
0000
0000
,
0000
0000
0000
0000
,
0000
0000
0000
0000
,
0000
0000
0000
0000
,
1000
0000
0000
0100
0000
0000
0001
0000
0000
0100
0000
0000
1000
0000
0000
0000
,
0001
0000
0000
0100
0000
0000
1000
0000
0000
0100
0000
0000
0001
0000
1000
0000
,
0200
0000
0000
0000
0010
0300
0020
0000
0000
0000
0031
0000
1000
0000
0001
0000
,
0130
0000
0000
0000
0000
0000
0000
1020
,
0000
1030
0001
0010
0200
0000
1300
0000
,
1002
0000
0103
0010
2000
0000
3010
0100
,
0001
1000
0001
0001
1000
0100
0010
0000
,
0012
0000
1003
0010
0200
0000
0310
1000
,
0001
0010
0001
0010
0100
1000
0001
0000
,
2010
0000
3031
0000
1000
0100
0020
0000
,
0100
0031
0012
1033
,
0001
0100
0020
0000
0100
0000
1030
0000
,
0102
0000
1003
0000
0001
0010
0200
0000
,
1300
0010
2010
3001
,
1000
0100
0020
0000
0031
0100
0023
0000
,
1030
0100
1000
0020
0000
0130
0002
0000
,
1003
0100
0010
0000
0001
0010
0001
2000
,
0000
3001
0200
0000
0301
0100
0010
0000
,
1000
0100
0010
0002
0000
0103
0020
0000
,
1030
0001
1000
0000
0001
0010
0100
2000
,
0000
3010
0200
0000
0301
0010
0200
0000
,
1300
0001
2000
0000
0000
0000
3200
0000
,
0000
0000
0000
0000
0310
0000
0001
0000
0010
0000
0001
0000
1000
0000
0000
1000
,
0000
1000
0002
0000
0000
0000
0203
0000
,
0000
0000
0310
1000
0010
1000
0001
0001
,
1000
0000
0000
0000
0001
0000
0000
0010
0000
0000
0100
0000
0100
0000
0000
0000
,
1000
0000
0000
0010
0000
0000
0100
0000
0100
0000
0000
0000
0001
0000
0000
0100
,
0000
0000
0010
0000
0010
0000
0000
0000
1000
0000
0000
0100
0000
0000
0010
0000
,
0010
0001
1000
0002
0000
0000
0000
0000
,
0103
0000
1001
0000
0202
0000
0303
1000
,
0100
1000
0001
0100
0020
0000
0030
1000
,
0001
1000
0100
0010
0002
0000
0010
0000
,
2003
0000
3010
0100
3001
0200
0000
0301
,
0010
0100
1000
0000
0001
0100
0001
0100
,
1000
0100
0001
0000
1000
0100
1000
0100
,
0001
0100
1000
0000
2100
0000
3010
0100
,
0002
0000
0013
0000
0001
1000
0001
1000
,
0010
0100
0001
0000
2020
0000
3033
0001
,
0010
0001
1000
0010
0200
0000
0300
0001
,
1000
0001
0010
0100
2000
0000
0100
0000
,
3002
0000
0103
0010
1003
0020
0000
1030
,
0100
0010
0001
0000
1000
0010
1000
0010
,
0001
0010
1000
0000
0001
0010
0001
0010
,
1000
0010
0001
0000
0012
0000
0103
0010
,
2000
0000
3100
0000
1000
0001
1000
0001
,
0100
0000
0010
0000
1000
0000
0000
0000
0001
0000
0000
0010
0000
0000
0100
0000
,
0000
1000
0000
0000
0010
0000
0100
0000
0020
0000
0000
2030
0030
0000
0002
0000
,
0000
0000
3003
0000
1000
0000
0100
0000
1000
0000
0000
0010
0000
0000
0100
0000
,
0000
0001
0000
0000
0010
0000
0100
0000
0020
0000
0000
0032
0000
0000
2000
0000
,
0000
0000
3003
0000
0001
0000
1000
0000
0010
0000
0000
0010
0000
0000
0100
0000
,
0000
0100
0000
0000
0002
0000
0000
0000
0013
0000
0000
0010
0000
0000
0100
0000
,
0000
0100
0000
0000
2000
0000
0000
0000
3002
0000
0000
0000
0103
0000
0010
0000
,
1000
1030
0001
1000
0200
0000
0310
0001
,
0010
0001
1000
0010
0000
0000
1001
0000
,
0001
0000
0100
0000
0010
0000
0000
1000
0010
0000
0000
0000
1000
0000
0001
0000
,
1000
0100
0010
0001
0100
0010
2002
0000
,
3003
0000
0000
0000
0000
0102
0000
1003
,
0100
0000
0010
0000
0031
0000
0000
0000
2001
0000
0000
0000
3001
0000
0000
0010
,
0000
0000
0100
0000
0000
1000
0000
0000
0020
0000
0000
0000
1030
0000
0000
0100
,
0000
0000
0010
0000
0000
0001
0000
0000
0200
0000
0000
0000
0310
0000
0000
1000
,
0100
0000
0100
0000
0010
0000
0000
0001
0100
0000
0100
0000
0001
0000
1000
0000
,
0001
1000
0010
0100
0001
0000
0102
0000
,
1003
0100
0010
0001
1000
0100
2100
0000
,
3001
0000
0100
0000
0010
0000
1000
0000
0001
0000
0000
0000
1000
0000
0000
0010
,
0000
0000
0100
0000
0000
0001
0000
0000
0010
0000
0000
0100
0000
0000
1000
0000
,
0000
0010
0000
0000
0110
0000
0000
0110
0000
0000
2002
0000
0000
0000
0000
0000
,
0000
3003
0000
0000
0000
0000
0000
0000
;

//---------------dance-single - ----------------
#NOTEDATA:;
#CHARTNAME:;
#STEPSTYPE:dance-single;
#DESCRIPTION:;
#CHARTSTYLE:;
#DIFFICULTY:Easy;
#METER:8;
#RADARVALUES:0.373378,0.455970,0.118354,0.483278,0.004931,265.000000,253.000000,12.000000,49.000000,0.000000,0.000000,0.000000,0.000000,0.000000,0.373378,0.455970,0.118354,0.483278,0.004931,265.000000,253.000000,12.000000,49.000000,0.000000,0.000000,0.000000,0.000000,0.000000;
#CREDIT:Ben Speirs;
#NOTES:
0000
0000
0000
0000
,
0000
0000
0000
0000
,
0000
0000
0000
0000
,
0000
0000
0000
0000
,
0000
0000
0000
0000
,
1000
1000
0100
0100
,
0010
0010
0001
0001
,
0200
0000
0000
0320
0000
0000
0000
0000
,
1030
0000
0000
0000
0000
0000
0000
0002
,
0000
2003
3200
0310
,
1001
0000
1000
0000
0001
0100
0001
0000
,
0100
0000
0010
0000
1000
0100
0010
0000
,
0001
0000
0001
0000
1000
0010
1000
0000
,
0010
0000
0100
0000
0001
0010
0100
0000
,
2000
0000
3000
0200
,
0300
0000
0310
0100
0020
0000
0000
0000
,
0030
0002
2003
3010
,
2002
3003
1000
0002
,
0003
0000
0001
0010
0200
0000
0300
0000
,
0100
0000
0010
0000
0100
0010
0100
0000
,
2002
3003
1000
0010
,
0100
0001
0100
0000
0002
0000
0003
0000
,
1000
0000
0001
0000
0010
0100
0010
0000
,
0200
0300
0010
0001
,
1000
0010
1000
0000
0020
0000
0030
0000
,
1000
0000
0001
0000
0100
0010
0100
0000
,
0001
2000
3000
0002
,
0003
0000
1000
0100
1000
0100
1000
0000
,
0000
0002
0003
2000
,
3000
0000
0001
0100
0001
0100
0001
0000
,
0000
0000
1000
0000
0000
0100
0000
0000
,
0010
0000
0000
0001
0000
0000
1000
0000
,
0000
0010
0000
0000
0100
0000
0100
0000
,
0001
1000
0200
0000
,
0300
0110
2002
3003
,
0010
0100
0010
0000
2002
0000
3003
0000
,
0001
0000
0100
0000
0010
0100
0010
0000
,
1000
1000
0001
0010
,
0200
0000
1300
0000
0001
0100
0001
0000
,
0100
0000
0100
0000
0001
1000
0001
0000
,
1000
0001
1000
0000
0200
0000
0300
0000
,
0020
0030
0001
1000
,
0010
0100
2002
3003
,
0100
0010
0100
0000
2002
0000
3003
0000
,
1000
0010
0100
0100
,
0001
0001
1000
0100
,
0020
0000
0031
0000
1000
0010
1000
0000
,
0010
0100
0010
0000
1000
0001
1000
0000
,
0001
1000
0001
0000
0020
0000
0030
0000
,
0200
0300
1000
0001
,
0100
0010
1000
0100
,
0100
0010
0100
0000
0010
0000
0001
0000
,
1000
0000
0001
0100
,
0100
0010
0100
0000
0010
0000
1000
0000
,
0001
0000
1000
0010
,
0100
0100
0100
0000
0001
0000
0010
0000
,
0100
0100
0100
0000
2000
0000
3001
0000
,
0200
0310
1000
0100
,
0010
0000
0001
1000
0000
0000
0001
0000
,
0001
0100
0110
1000
,
1000
0100
0110
0001
,
0000
0000
0000
0000
0000
2000
0000
0000
,
3020
0230
0301
1000
,
0100
0010
0001
1000
,
0010
0000
0100
0010
0100
0000
0001
0000
,
0000
1000
0001
0010
,
0100
0000
1000
0100
1000
0000
1001
0000
,
0000
0000
1000
0100
1000
0100
1000
0000
,
0000
0000
0001
0100
0001
0100
0002
0000
,
0000
2003
0000
0000
3200
0000
0000
0320
,
0000
0000
0000
0000
0031
0000
0000
1000
0000
0000
2002
0000
0000
0000
0000
0000
,
0000
3003
0000
0000
0000
0000
0000
0000
;

//---------------dance-single - ----------------
#NOTEDATA:;
#CHARTNAME:;
#STEPSTYPE:dance-single;
#DESCRIPTION:;
#CHARTSTYLE:;
#DIFFICULTY:Beginner;
#METER:5;
#RADARVALUES:0.184575,0.280597,0.049314,0.177531,0.000000,131.000000,126.000000,5.000000,18.000000,0.000000,0.000000,0.000000,0.000000,0.000000,0.184575,0.280597,0.049314,0.177531,0.000000,131.000000,126.000000,5.000000,18.000000,0.000000,0.000000,0.000000,0.000000,0.000000;
#CREDIT:Ben Speirs;
#NOTES:
0000
0000
0000
0000
,
0000
0000
0000
0000
,
0000
0000
0000
0000
,
0000
0000
0000
0000
,
0000
0000
0000
0000
,
0002
0000
0003
0000
,
2000
0000
3000
0000
,
0200
0000
0300
0000
,
0010
0000
0000
0000
,
0000
0000
0000
0000
,
0001
0000
0001
0000
,
0001
0000
0000
0000
,
0100
0000
0100
0000
,
0100
0000
0000
0000
,
0010
0000
0000
1000
,
0000
0000
0100
0000
,
0000
0010
0010
0010
,
0010
0000
0000
0001
,
0000
0000
1000
0000
,
0000
0010
0010
0010
,
0010
0000
1000
0000
,
0001
0000
0010
0000
,
0001
0000
1000
0000
,
0100
0000
1000
0000
,
0001
0000
0100
0000
,
0100
0000
0100
0000
,
0000
0020
0000
0000
,
0030
0010
0000
0000
,
0000
0200
0000
0000
,
0300
0100
0000
0000
,
0000
0001
0000
0000
,
0010
0000
0000
0100
,
0000
0000
1000
0000
,
1000
0000
1000
0000
,
0000
0000
2002
3003
,
1000
1000
2000
3000
,
0010
0000
0200
0300
,
0100
0000
0001
0001
,
0000
0000
0001
0001
,
0001
0000
0010
0010
,
0010
0000
0100
0000
,
0100
0000
2000
3000
,
0000
0000
2002
3003
,
0001
0001
0002
0003
,
0100
0000
0020
0030
,
0010
0000
1000
1000
,
0000
0000
1000
1000
,
1000
0000
0100
0100
,
0100
0000
0010
0000
,
0010
0000
0002
0003
,
2000
3000
0010
0010
,
0010
0010
0010
0000
,
0100
0000
0001
0001
,
0001
0001
0001
0000
,
0010
0000
0100
0100
,
0100
0000
1000
1000
,
1000
0000
0010
0010
,
0010
0010
0010
0000
,
0100
0000
0000
1001
,
0000
0000
0000
0001
,
0001
0001
0000
0010
,
0000
0000
0000
0000
,
0000
0000
0000
1001
,
0000
0000
0000
1000
,
1000
1000
0000
1000
,
0000
0000
0000
0100
,
0100
0100
0000
0100
,
0000
0010
0000
0001
,
0000
1000
0000
0010
,
0000
0000
0010
0000
,
0000
0000
0010
0000
0000
2002
0000
0000
,
0000
3003
0000
0000
0000
0000
0000
0000
;

//---------------dance-double - ----------------
#NOTEDATA:;
#CHARTNAME:;
#STEPSTYPE:dance-double;
#DESCRIPTION:;
#CHARTSTYLE:;
#DIFFICULTY:Hard;
#METER:14;
#RADARVALUES:0.694624,0.771641,0.236707,0.729848,0.507935,493.000000,469.000000,24.000000,74.000000,0.000000,0.000000,0.000000,0.000000,0.000000,0.694624,0.771641,0.236707,0.729848,0.507935,493.000000,469.000000,24.000000,74.000000,0.000000,0.000000,0.000000,0.000000,0.000000;
#CREDIT:;
#NOTES:
00000000
00000000
00000000
00000000
,
00000000
00000000
00000000
00000000
,
00000000
00000000
00000000
00000000
,
00000000
00000000
00000000
00000000
,
00000000
00000000
00000000
00000000
,
00001000
00000000
00100000
00001000
00000000
00100000
00001000
00000000
00010000
00001000
00000000
00010000
00002000
00000000
00000000
00000000
,
00013000
00000000
00000010
00010000
00000000
00000010
00010000
00000000
00001000
00010000
00000000
00001000
00010000
00000000
00001000
00000000
,
00200000
00000000
01300000
02000000
00000000
03010000
01000000
10000000
,
00010000
00000000
00000000
00000000
00000000
00000000
00000000
02001000
,
00000000
03100000
00010000
00001000
00000200
00000000
00000310
00000000
,
00001001
00000000
00000000
00000001
00000010
00000000
00000010
00000000
00000100
00000000
00000000
00001000
00000010
00000000
00000010
00000000
,
00000100
00000000
00000001
00000000
00001000
00000000
00000100
00010000
00000000
00000100
00010000
00000000
00001000
00000000
00000000
00000000
,
01010000
00000000
00000000
10000000
01000000
00000000
01000000
00000000
00100000
00000000
00000000
00010000
01000000
00000000
01000000
00000000
,
00100000
00000000
10000000
01000000
00000000
01000000
00100000
00000000
00010000
00000000
01000000
00000000
00001000
00000000
00010000
00000000
,
00000200
00000000
00000000
00000010
00000000
00000000
00010300
00000000
00000100
00000000
00010000
00000000
00001000
00000000
00000000
00000000
,
00000000
00000000
00000000
00000000
00010000
00000000
00001000
00000000
02000000
30000000
00000000
00100000
00000000
00000000
03001000
00000000
,
00010000
00000000
00001000
00000000
00200000
03000000
00000000
02300000
00000000
00000000
10000000
00000000
13000000
00000000
00000000
00000000
,
00020000
00000000
00000000
02030000
00000000
00000000
03100000
00000000
00010000
00000000
00001000
00000000
00000100
00000000
00000000
00000000
,
00000000
00000000
00000010
00000000
00001000
00000000
00000001
00000000
00002000
00000000
00000000
00003200
00000000
00000000
00000310
00000000
,
00001000
00000000
00010000
00000000
02000000
00000000
00000000
03200000
00000000
00000000
00310000
00000000
20000000
00000000
00000000
00000000
,
30100000
00000000
00000000
00100000
01000000
00000000
10000000
00000000
01000000
00000000
00010000
00000000
00200000
00000000
00000000
00000000
,
00301000
00000000
00001000
00000000
00010000
00000000
00000100
00000000
00000010
00000000
00000000
00000001
00001000
00000000
00000001
00000000
,
00000100
00000000
00000010
00000000
00002000
00000000
00000000
00000000
00003001
00000100
00000001
00000000
00001000
00000000
00000001
00000000
,
00000103
00000000
00000000
00000100
00000010
00000000
00000001
00000000
00000010
00000000
00001000
00000000
00000200
00000000
00000000
00000000
,
00010300
00000000
00010000
00000000
00001000
00000000
01000000
00000000
00100000
00000000
10000000
00010000
10000000
00000000
00100000
00000000
,
01000000
00000000
00001000
00010000
00002000
00000000
00000000
00000000
00103000
00000000
01000000
00000000
00200000
00030000
00000000
00000000
,
00301000
02002000
03303000
00020200
,
00030330
00000000
00000000
00000000
00010000
00000000
00001000
00000000
00010000
00000000
00000010
00000000
00010000
00001000
00000000
00100000
,
00000000
00000000
00001000
00003000
00202000
00000000
00000000
00000000
03303000
00000000
00000000
00000000
00020020
00000000
00000000
00000000
,
00030330
00000000
00000000
00000000
00010000
00000000
00001000
00000000
00010000
00000000
00000100
00000000
00001000
00000001
00001000
00000001
,
00000000
00000000
00000000
00000000
00000001
00000000
00000100
00000010
00000000
00000010
00002000
00000000
00000000
00000000
00003100
00000000
,
00010000
00000000
00001000
01000000
00000000
01000000
00200000
00000000
00000000
00000000
10300000
00000000
00010000
00000000
00100000
01000000
,
00000000
00100000
00002000
00000000
00000000
00000000
00013000
00000000
00010000
00000000
00000010
00000100
00000000
00000010
00010000
00000000
,
00001000
01000000
00001000
00010000
00000000
00000000
00000000
00000000
,
03010000
00001000
00011000
00000000
00201000
00000000
03310000
10000000
,
00100000
00000000
01000000
00100000
01000000
00000000
00001000
00000000
00020000
00000000
00000000
00000000
00030100
00000000
00001000
00000000
,
00000002
00000203
00002330
00003002
00000023
00000000
00002030
00000000
,
00003100
00000000
00000000
00010000
00001000
00000000
01000000
00000000
00100000
00000000
10000000
02000000
00000000
00000000
03100000
00000000
,
00010000
00000000
10000000
00000000
10010000
00000000
00000000
00000000
10000000
00100000
10000000
00100000
10000000
00000000
00010000
01000000
,
00010000
00000000
00100000
00000000
00002000
00000000
00000000
00000000
00013000
00000010
00010000
00000010
00010000
00000000
00000100
00001000
,
00000100
00001000
00000002
00000000
00000023
00000000
00000130
00000100
,
00002000
00000000
00003010
00000010
00001000
00000100
00010000
00010000
,
00000100
00001000
00000000
00001000
00000001
00000000
00000100
00000000
00000020
00000000
00000000
00000000
00001330
00000000
00000001
00000000
,
00000010
00000000
00000100
00000010
00000100
00000000
00010000
00000000
00002000
00000000
00000000
00000000
00103000
00000000
00010000
00000000
,
20000000
30200000
03320000
20030000
32000000
00000000
03320000
00000000
,
00130000
00000000
00000000
00001000
00010000
00000000
00000010
00000000
00000100
00000000
00000002
00000000
00000000
00000000
00001003
00000000
,
00000100
00000000
00000010
00000000
00000001
00000000
00000000
00000000
00000001
00000000
00000100
00000001
00000100
00000000
00000010
00001000
,
00000010
00000000
00010000
00000000
00002000
00000300
00000000
00000000
00103000
00010000
00100000
00010000
00100000
00000000
00010000
10000000
,
00010000
01000000
00200000
00000000
20300000
00000000
31000000
01000000
,
00200000
00000000
00000000
00000000
00310000
00000000
00010000
00000000
10000000
00010000
10000000
00000000
00010000
00000000
00100000
00000000
,
00001000
00010000
00001000
00000000
00010000
00000000
00000100
00000000
00001000
00000000
00000001
00000100
00000000
00000010
00001000
00000000
,
00000001
00000010
00000000
00000100
00001000
00000000
00000010
00000000
00020000
00000000
00000000
00031000
00000000
00000000
00102000
00000000
,
00000000
00000000
00103000
00000000
00010000
00000000
10000000
00000000
00010000
00000000
10000000
00100000
00000000
01000000
00010000
00000000
,
10000000
01000000
00000000
00100000
00010000
00000000
01000000
00000000
00002000
00000000
00000000
00013000
00000000
00000000
00020010
00000000
,
00000000
00000000
00030010
00000000
00001000
00000000
00000001
00000000
00000010
00000000
00000001
00000100
00000000
00000010
00001000
00000000
,
00000100
00010000
00000000
00001000
00200000
00000000
00000000
00000000
00310000
00000000
10000000
00100000
00000000
01000000
00010000
00000000
,
00100000
00001000
00000000
00010000
00000010
00000000
00000100
00000000
00000002
00000000
00000000
00000000
00001003
00000003
00000100
00000000
,
00000010
00000001
00000100
00000000
00001002
00000000
00003103
00000100
,
00000010
00000010
00010000
00001000
00000000
00000000
00201000
00000000
,
00310000
00000000
01000000
00000000
00100000
00000000
00000000
00100000
10000000
00000000
00010000
00000000
00100000
00000000
00001000
00010000
,
00001000
00010000
00000100
00000010
00000001
00001000
00000010
00000000
,
00000000
00000000
00000000
00000000
00000000
00010020
00000000
00000130
,
00001000
00000000
00010000
00000000
00200000
00000000
00000000
00000000
01300000
00000000
00000000
00000000
00010000
00000000
10000000
00100000
,
00000000
10000000
00010000
00000000
10000000
01000000
00000000
10000000
00100000
00000000
01000000
00000000
00001000
00000000
00010000
00000010
,
00000000
00010000
00000100
00000000
00010000
00001000
00000000
00010000
00000100
00000000
00001000
00000000
00000001
00000000
00000000
00000001
,
00000100
00000000
00000010
00000000
00001000
00000000
00000000
00001000
00000100
00000000
00001000
00000000
00000020
00000000
00000000
00000032
,
00000000
00000000
00000023
00000000
00000000
00002030
00000000
00000000
00003100
00000000
00000000
00000000
00011000
00000000
00001000
00000000
,
00100000
00010000
00100000
01000000
00100000
00001000
00010000
00010000
,
00000010
00000000
00001000
00000000
00000010
00000000
00000100
00000000
00000010
00000000
00001000
00000000
00000001
00000000
00000000
00000011
,
00000000
00000000
00001000
00000000
00000000
00001100
00000000
00000000
00010000
00000000
00000000
00010010
00000000
00000000
00011000
00000000
,
00000000
01001000
00000000
00000000
01010000
00000000
00000000
01100000
00000000
00000000
20020000
00000000
00000000
00000000
00000000
00000000
,
00000000
30030000
00000000
00000000
00000000
00000000
00000000
00000000
;

//---------------dance-double - ----------------
#NOTEDATA:;
#CHARTNAME:;
#STEPSTYPE:dance-double;
#DESCRIPTION:;
#CHARTSTYLE:;
#DIFFICULTY:Medium;
#METER:12;
#RADARVALUES:0.539636,0.561194,0.266296,0.808750,0.108491,383.000000,356.000000,27.000000,82.000000,0.000000,0.000000,0.000000,0.000000,0.000000,0.539636,0.561194,0.266296,0.808750,0.108491,383.000000,356.000000,27.000000,82.000000,0.000000,0.000000,0.000000,0.000000,0.000000;
#CREDIT:Ben Speirs;
#NOTES:
00000000
00000000
00000000
00000000
,
00000000
00000000
00000000
00000000
,
00000000
00000000
00000000
00000000
,
00000000
00000000
00000000
00000000
,
00000000
00000000
00000000
00000000
,
00010000
00000000
00000000
00010000
00000000
00000000
00001000
00000000
00000000
00001000
00000000
00000000
00200000
00000000
00000000
00000000
,
00301000
00300000
00000000
00001000
00000000
00000000
00010000
00000000
00000000
00010000
00000000
00000000
00000010
00000000
00001000
00000000
,
00000200
00000000
00000000
00000000
00000310
00000000
00000002
00000000
00000000
00000000
00000103
00000003
00000010
00000000
00000100
00000000
,
00000000
00000000
00000000
00000000
00000000
00000000
00000000
00001002
,
00000000
00000013
00000100
00010000
00002000
00000000
00013000
00000000
,
00201000
00000000
00310000
01000000
00020000
00000000
10030000
00100000
,
01000000
00010000
01000000
00010000
00200000
00000000
30301000
00010000
,
00000020
00000000
00001330
00000100
00002000
00000000
00003001
00000010
,
00000100
00001000
00000100
00001000
00000020
00000000
00010333
00000000
,
00022000
00000000
00333000
00000000
00001000
01000000
00200000
00000000
,
00320000
00031000
00022000
00033000
,
00010000
00000100
00000020
00000000
00002030
00000000
00013000
00000000
,
02001000
00000000
03200000
00000000
10300000
01000000
00200000
00000000
,
00301000
00010000
00010020
00000230
,
00000301
00000010
00000200
00000000
00010300
00001000
00010000
00000000
,
00002000
00000000
00103000
00010000
00100000
00010000
20000000
00000000
,
30100000
00000000
01000000
00001000
00020000
00000000
00030010
00001000
,
00000010
00001000
00000002
00000000
00000013
00000000
00000100
00010000
,
00002000
00000000
00103000
00010000
00100000
01000000
00200000
00000000
,
00301000
00000000
00100000
00001000
00020000
00000000
00030010
00001000
,
00000010
00000100
00000020
00000000
00001030
00000000
00000200
00000000
,
00010300
00020200
00030300
00022000
,
00033000
00000000
00100000
00010000
10000000
00010000
00200000
00000000
,
00301000
00000000
02002000
00030000
03003000
00000000
00022000
00000000
,
00033000
00000000
00000010
00001000
00000001
00001000
00000100
00010000
,
00001000
00000000
00000000
00000000
00010000
00000000
00000000
00001000
00000000
00000000
00100000
00000000
00100000
00000000
00000000
00000000
,
00001000
00000000
00000000
00010000
00000000
00000000
00000010
00000000
00000010
00000000
00000000
00000000
00010000
00000000
00000000
00001000
,
00000000
01000000
01000000
00000000
00100000
01000000
00100000
01000000
,
00010000
00100000
01000000
10000000
00010000
00000000
00000000
00000000
,
00000000
00000000
01100000
00000000
20020000
00000000
30030000
10000000
,
01000000
10000000
00010000
00100000
00002000
00000000
00000000
00013000
,
00000010
00000100
00000010
00001000
00000200
00000000
00000320
00000000
,
00000032
00000000
00001003
00000010
00000100
00000020
00000000
00001030
,
00000100
00000000
00010100
00000000
00010000
00010000
00001000
00100000
,
00010000
01000000
00001000
00000000
00001000
00001000
00010000
00000010
,
00001000
00000100
00010000
00000000
00010200
00000000
00010300
00001000
,
02000000
00000000
03001000
00010000
00000010
00000100
00000010
00000100
,
00000001
00000010
00000100
00000000
00002002
00000000
00003003
00000001
,
00000010
00000001
00001000
00000100
00020000
00000000
00000000
00031000
,
01000000
00100000
01000000
00010000
00200000
00000000
02300000
00000000
,
23000000
00000000
30010000
01000000
00100000
02000000
00000000
03010000
,
00100000
00000000
00101000
00000000
00001000
00001000
00010000
00000100
,
00001000
00000010
00010000
00000000
00010000
00010000
00001000
01000000
,
00010000
00100000
00001000
00000000
00201000
00000000
00301000
00010000
,
00000020
00000000
00010030
00001000
01000000
00100000
01000000
00100000
,
10000000
01000000
00100000
00000000
00120000
00000000
10030000
00000000
,
20100000
00000000
30010000
00000000
10000000
01000000
00010000
00002000
,
00000000
00003010
00000031
00001000
00002010
00000000
00003001
00000000
,
00000102
00000000
00001003
00000000
00000001
00000010
00001000
00020000
,
00000000
00000000
01030000
00000000
13000000
00000000
00000000
00000000
00010000
00000000
00000000
01000000
00000000
00000000
00001000
00000000
,
00000000
00010000
00000000
00000000
00000200
00000000
00000000
00000000
00001300
00000000
00000000
00000010
00000000
00000000
00010000
00000000
,
00000000
00001000
00000000
00000000
00100000
00000000
00010000
00000000
02300000
00000000
00000000
00000000
03100000
00000000
10000000
00000000
,
02000000
00000000
03100000
00000000
00010000
10000000
00010000
10000000
,
00100000
01000000
00001000
00010000
00000000
00000000
00011000
00000000
,
00010000
00000010
00000200
00000000
00000301
00000010
00000100
00001000
,
00000100
00001000
00000001
00000100
00000010
00010000
00001000
00000000
,
00000000
00000000
00000000
00000000
00000000
00201000
00000000
00310000
,
01000000
00000000
00100000
00000000
20000000
00000000
00000000
00000000
30010000
00000000
00000000
00000000
10000000
00000000
00000000
10000000
,
00000000
00000000
01000000
00000000
00000000
01000000
00000000
00000000
00200000
00000000
00000000
00000000
00301000
00000000
00000000
00001000
,
00000000
00000000
00010000
00000000
00000000
00010000
00000000
00000000
00000020
00000000
00000000
00000000
00000130
00000000
00000001
00000000
,
00000100
00000000
00000001
00001000
00000001
00000000
00001000
00000100
,
00001000
00000100
00000010
00000001
00001000
00000000
00000202
00000000
,
00000303
00000000
00001000
00000100
00010000
00000000
00022000
00000000
,
00033000
00000000
00000000
00000000
00010000
00000000
00001000
00000000
00200000
00000000
00000000
00000000
00310000
00000000
00000000
00010000
,
00000000
00000000
01000000
00000000
00000000
01000000
00000000
00000000
00001000
00000000
00000000
00001000
00000000
00000000
00010000
00000000
,
00000000
00010000
00000000
00000000
00000100
00000000
00000000
00000110
00000000
00000000
00002002
00000000
00000000
00000000
00000000
00000000
,
00000000
00003003
00000000
00000000
00000000
00000000
00000000
00000000
;

//---------------dance-double - ----------------
#NOTEDATA:;
#CHARTNAME:;
#STEPSTYPE:dance-double;
#DESCRIPTION:;
#CHARTSTYLE:;
#DIFFICULTY:Easy;
#METER:8;
#RADARVALUES:0.350834,0.420895,0.147942,0.463552,0.000000,249.000000,234.000000,15.000000,47.000000,0.000000,0.000000,0.000000,0.000000,0.000000,0.350834,0.420895,0.147942,0.463552,0.000000,249.000000,234.000000,15.000000,47.000000,0.000000,0.000000,0.000000,0.000000,0.000000;
#CREDIT:Ben Speirs;
#NOTES:
00000000
00000000
00000000
00000000
,
00000000
00000000
00000000
00000000
,
00000000
00000000
00000000
00000000
,
00000000
00000000
00000000
00000000
,
00000000
00000000
00000000
00000000
,
00010000
00010000
00001000
00100000
,
00001000
00001000
00010000
00000010
,
00020000
00000000
00000000
00032000
00000000
00000000
00000000
00000000
,
00103000
00000000
00000000
00000000
00000000
00000000
00000000
00002000
,
00000000
00023000
00030020
00000130
,
00001001
00000001
00000100
00000100
,
00000010
00001000
00000010
00000000
00001000
00000000
00000000
00000000
,
00000010
00000010
00010000
00010000
,
00001000
00010000
00001000
00000000
00100000
00000000
00000000
00000000
,
00022000
00000000
00033000
00002000
,
00103000
00010000
20020000
00000000
,
30030000
20000000
30100000
01000000
,
00022000
00000000
00033000
00020000
,
00030100
00000010
00002002
00000000
,
00003003
00000002
00000203
00000310
,
00001000
00000000
00000001
00000010
00000000
00000001
00000020
00000000
,
00000000
00000000
00000130
00000000
00001000
00000000
00000100
00010000
,
00000000
00000100
00020000
00000000
00000000
00000000
00031000
00000000
,
00100000
00000000
00010000
01000000
00000000
00010000
02000000
00000000
,
00000000
00000000
03100000
00000000
10000000
00000000
00010000
10000000
,
00000000
00010000
00200000
00000000
00000000
00000000
00302000
00000000
,
00000000
00000000
00023000
00300000
00000000
00000000
00032000
00000000
,
00000000
00000000
01003000
00010000
01000000
00010000
01000000
00000000
,
00000000
00001000
00000000
00010000
,
00000000
00000000
00000100
00001000
00000100
00001000
00000100
00000000
,
00000000
00000000
00010000
00000000
00000000
00001000
00000000
00000000
,
00100000
00000000
00000000
00001000
00000000
00000000
00010000
00000000
,
00000000
00000010
00000000
00000000
00010000
00000000
00001000
00000000
,
00100000
00000000
01000000
20000000
00000000
00000000
00000000
00000000
,
00000000
30010000
20020000
30030000
,
10000000
00010000
02200000
03300000
,
01000000
00001000
00010000
00010000
,
00000100
00000000
00000010
00000000
00000001
00001000
00000000
00000001
,
00000100
00000001
00000100
00000000
00000010
00000000
00000010
00000000
,
00001000
00000001
00001000
00000000
00000100
00000000
00000100
00000000
,
00001000
00000001
00001000
00000000
00000200
00000000
00000300
00000000
,
00020000
00030000
00001000
00010000
,
00000010
00000100
00002002
00003003
,
00000001
00001000
00000220
00000330
,
00000010
00010000
00001000
00001000
,
00100000
00000000
01000000
00000000
10000000
00010000
00000000
10000000
,
00100000
10000000
00100000
00000000
01000000
00000000
01000000
00000000
,
00010000
10000000
00010000
00000000
00100000
00000000
00100000
00000000
,
00010000
10000000
00010000
00000000
00200000
00000000
00300000
00000000
,
00002000
00003000
00010000
00001000
,
01000000
00100000
10000000
01000000
,
00010000
00001000
00000010
00000100
,
00001001
00000000
00000001
00000100
,
00001000
00010000
00100000
01000000
,
10010000
00000000
10000000
01000000
,
00100000
01000000
00100000
00000000
00010000
00000000
01000000
00000000
,
00001000
00010000
00001000
00000000
00020000
00000000
00000000
00000000
,
00030020
00000000
00000130
00000001
,
00001000
00000000
00000100
00010000
00000000
00000000
00022000
00000000
,
00033000
00001000
00100000
02200000
,
03300000
00100000
00001000
00010000
,
00000000
00000000
00000000
00000000
00000000
00000020
00000000
00000000
,
00001030
00000001
00000100
00001001
,
00000001
00000010
00000010
00000100
,
00000100
00000000
00010000
00000000
00001000
00000000
01000000
00100000
,
01000000
00000000
00100000
01000000
00100000
00000000
10000000
00000000
,
00010000
00100000
00000000
00001000
,
00001000
00010000
00010000
00000010
,
00000010
00000100
00000100
00000001
,
00000000
00000010
00000000
00000000
00000100
00000000
00000000
00010000
,
00000000
00000000
00001000
00000000
00000000
00022000
00000000
00000000
,
00000000
00033000
00000000
00000000
00000000
00000000
00000000
00000000
;
