#TITLE:Who's There;
#SUBTITLE:;
#ARTIST:Smash Mouth;
#TITLETRANSLIT:;
#SUBTITLETRANSLIT:;
#ARTISTTRANSLIT:;
#GENRE:;
#CREDIT:azureHaights;
#BANNER:Who's There-bn.png;
#BACKGROUND:Who's There-bg.png;
#LYRICSPATH:Who's There.lrc;
#CDTITLE:Who's There-cdtitle.png;
#MUSIC:Who's There.ogg;
#OFFSET:-0.022000;
#SAMPLESTART:58.396000;
#SAMPLELENGTH:11.823000;
#SELECTABLE:YES;
#BPMS:0.000000=162.391006
;
#STOPS:
;
#BGCHANGES:;
#KEYSOUNDS:;
#ATTACKS:;

//---------------dance-single - ----------------
#NOTES:
     dance-single:
     :
     Hard:
     11:
     0.451142,0.512107,0.119492,0.000000,0.000000,370.000000,356.000000,14.000000,0.000000,0.000000,0.000000,0.451142,0.512107,0.119492,0.000000,0.000000,370.000000,356.000000,14.000000,0.000000,0.000000,0.000000:
// measure 0
0000
0000
0000
0000
,  // measure 1
0000
0000
0000
0000
,  // measure 2
0000
0000
0000
0000
,  // measure 3
0000
0000
0000
0000
,  // measure 4
1000
0000
0100
0000
1000
0100
1000
0000
,  // measure 5
0001
0000
0100
0000
0001
0100
0001
0000
,  // measure 6
1000
0000
0100
0000
1000
0001
0100
0000
,  // measure 7
0001
1000
0100
0000
1000
0001
0010
0000
,  // measure 8
0001
0000
0100
0000
0010
1000
0010
0000
,  // measure 9
1000
0000
0001
0000
0010
0001
0010
0100
,  // measure 10
1000
0000
1000
0000
0010
1000
0001
0000
,  // measure 11
0001
0000
0010
0001
1000
0100
0010
0000
,  // measure 12
0001
0000
0001
0000
0010
0001
1000
0000
,  // measure 13
0001
0000
1000
0000
0010
1000
0001
0000
,  // measure 14
1000
0000
0100
0000
1000
0001
0100
0000
,  // measure 15
0010
0000
0100
0000
0010
1000
0001
1000
,  // measure 16
0100
0010
0001
1000
,  // measure 17
1000
0010
1000
0001
,  // measure 18
0001
0000
0100
0000
0010
0100
0010
0000
,  // measure 19
1000
0000
0100
0000
0010
0100
0010
0000
,  // measure 20
0001
0000
0100
0000
0010
1000
0100
0000
,  // measure 21
1000
0000
0010
0000
0100
0001
1000
0000
,  // measure 22
0100
0000
0010
0001
0000
0001
0000
0100
,  // measure 23
0000
0010
0000
1000
0000
0010
0000
0100
,  // measure 24
0001
0001
1000
1000
,  // measure 25
0010
0000
1000
0100
0000
1000
0000
0010
,  // measure 26
0000
1000
0000
0100
0000
1000
0000
0001
,  // measure 27
0010
0000
0001
0100
0000
0001
0000
0010
,  // measure 28
0000
0001
0000
0100
0000
0001
0000
1000
,  // measure 29
0100
0010
0001
0101
,  // measure 30
0100
0010
1000
1100
,  // measure 31
1000
0001
0100
0010
,  // measure 32
1000
0000
0100
0010
0000
0100
0000
1000
,  // measure 33
0000
0010
0000
0100
0000
0010
0000
1000
,  // measure 34
0000
0000
0001
0010
0000
0001
0000
0100
,  // measure 35
0000
0001
0000
0000
0010
0000
0001
0000
,  // measure 36
0100
0000
0010
0000
,  // measure 37
1000
0000
0001
0000
,  // measure 38
0010
0000
0100
0000
,  // measure 39
1000
1000
1100
1100
,  // measure 40
0011
0000
0001
0000
0100
0001
0100
0000
,  // measure 41
1010
0000
1000
0000
0100
1000
0100
0000
,  // measure 42
0011
0000
0001
0000
0100
0001
0100
0000
,  // measure 43
0010
1000
0010
0000
1000
0100
1000
0000
,  // measure 44
1100
0000
0100
0000
0010
0100
0010
0000
,  // measure 45
0011
0000
0001
0000
1000
0001
1000
0000
,  // measure 46
1001
0000
1000
0000
0100
1000
0100
0000
,  // measure 47
0010
0001
0010
0000
0001
0100
0001
0000
,  // measure 48
0100
0000
0010
0000
0100
0100
0010
1000
,  // measure 49
0000
1000
0010
0000
0100
0010
0100
0000
,  // measure 50
0001
0000
0010
0000
0001
0001
0010
0100
,  // measure 51
0000
0100
0010
0000
0001
1000
0001
0000
,  // measure 52
1000
0000
0010
0000
0100
0100
0010
1000
,  // measure 53
0000
1000
0010
0000
0100
0001
0100
0000
,  // measure 54
0001
0000
0010
0000
0001
0001
0010
0100
,  // measure 55
0000
0100
1000
0000
0001
1000
0001
1000
,  // measure 56
0001
0000
0001
0000
0100
0010
0100
0001
,  // measure 57
0000
0001
1000
0000
1000
0100
0010
0000
,  // measure 58
0001
0000
0010
0000
0100
0100
1000
0100
,  // measure 59
0000
0100
0010
0000
0001
0001
0100
0000
,  // measure 60
0001
0100
0010
1000
,  // measure 61
0001
0010
0100
1000
,  // measure 62
0010
0100
0001
1000
,  // measure 63
1001
1001
1100
1100
,  // measure 64
1000
0001
1000
0100
0010
0100
0010
0000
,  // measure 65
0001
0100
0010
0100
0001
0100
0001
0000
,  // measure 66
0010
0001
1000
0100
1000
0001
0010
0000
,  // measure 67
0001
0100
0010
0100
0010
1000
0100
1000
,  // measure 68
0001
0100
0010
1000
0010
0100
0001
0000
,  // measure 69
1000
0100
0010
0001
0100
0001
0010
0000
,  // measure 70
0001
0100
0001
0010
0001
0010
0100
0000
,  // measure 71
0010
0100
1000
0010
1000
0001
0100
0000
,  // measure 72
0001
0000
0000
1000
0100
0000
0100
0000
,  // measure 73
1000
0000
0000
0001
0100
0000
0100
0000
,  // measure 74
0010
0000
0000
1000
0100
0000
0100
0000
,  // measure 75
0010
0000
0000
0000
;

//---------------dance-single - ----------------
#NOTES:
     dance-single:
     :
     Medium:
     8:
     0.370668,0.384080,0.000000,0.000000,0.000000,304.000000,304.000000,0.000000,0.000000,0.000000,0.000000,0.370668,0.384080,0.000000,0.000000,0.000000,304.000000,304.000000,0.000000,0.000000,0.000000,0.000000:
0000
0000
0000
0000
,
0000
0000
0000
0000
,
0000
0000
0000
0000
,
0000
0000
0000
0000
,
0001
0000
1000
0000
0001
0001
1000
0000
,
0100
0000
1000
0000
0100
0100
1000
0000
,
0001
0000
0010
0000
0001
0001
0010
0000
,
0001
0000
0100
0000
0001
0001
0100
0000
,
0010
0000
1000
0000
0010
0010
1000
0000
,
0010
0000
0100
0000
0001
0001
1000
0000
,
0100
1000
0010
1000
,
0001
0000
0010
0000
0001
0100
0001
0000
,
0100
0010
1000
0010
,
0100
0001
0100
0010
,
1000
0100
0010
0001
,
0010
0000
0100
0000
0010
0001
1000
0000
,
0100
0000
1000
0000
,
0001
0000
1000
1000
,
0001
0100
0010
1000
,
1000
0000
0100
0000
0010
0100
0010
0000
,
0001
0100
0001
1000
,
0100
1000
0010
1000
,
0100
0000
1000
0001
0000
0001
0000
0000
,
0100
0000
0001
1000
0000
1000
0000
0000
,
0100
1000
0100
0010
,
0001
0000
0100
0001
0000
0100
0000
0001
,
0000
1000
0000
0001
0000
1000
0000
0000
,
0010
0000
1000
0010
0000
1000
0000
0010
,
0000
0100
0000
0010
0000
0100
0000
0000
,
0010
1000
0001
0100
,
0100
0001
1000
0010
,
0010
1000
0001
1000
,
0001
0000
0010
0001
0000
0010
0000
0100
,
0000
1000
0000
0100
0000
1000
0000
0000
,
0010
0000
1000
0010
0000
1000
0000
0010
,
0000
1000
0001
1000
,
0010
0000
1000
0000
,
0001
0000
1000
0000
,
0010
0000
1000
0000
,
0100
0100
0100
0100
,
0010
0001
1000
1000
,
0100
1000
0001
0001
,
0100
0001
1000
1000
,
0010
0000
1000
0000
0010
0010
1000
0000
,
0010
0100
0001
0001
,
0010
0100
1000
1000
,
0100
1000
0001
0001
,
0100
0000
0100
0000
0001
0100
0001
0000
,
0100
0000
0001
0000
0100
0100
0001
0000
,
1000
0000
0001
0000
1000
1000
0001
0000
,
1000
0000
0010
0000
1000
1000
0010
0000
,
0100
0000
0001
0000
0100
0001
1000
0000
,
1000
0000
0010
0000
1000
1000
0010
0000
,
1000
0000
0100
0000
1000
1000
0100
0000
,
0010
0000
0100
0000
0010
0010
0100
0000
,
0010
0000
0100
0000
0100
0100
1000
0000
,
0001
0000
0100
0000
0001
0001
0100
0000
,
0001
0000
1000
0000
0001
0001
1000
0000
,
0010
0000
1000
0000
0001
0001
0100
0000
,
0001
0001
0100
0000
0010
0000
0100
0000
,
0010
1000
0100
0000
,
0100
1000
0010
0000
,
1000
0001
0010
0001
,
0100
0100
0100
0100
,
0001
0000
0010
0000
0001
1000
0010
0000
,
1000
0000
0010
0000
1000
0001
0010
0000
,
0001
0000
0100
0000
0001
1000
0100
0000
,
0100
1000
0001
0000
0001
1000
0100
0000
,
1000
0000
0001
0000
0010
0001
1000
0000
,
0001
0000
1000
0000
0100
1000
0001
0000
,
0100
0000
0001
0000
0100
0001
1000
0000
,
0100
1000
0010
0000
0010
1000
0100
0000
,
1000
0000
0100
0100
,
0100
0000
0100
0100
,
0010
0000
0010
0010
,
0001
0000
0000
0000
;

//---------------dance-single - ----------------
#NOTES:
     dance-single:
     :
     Easy:
     5:
     0.236545,0.288060,0.000000,0.000000,0.000000,194.000000,194.000000,0.000000,0.000000,0.000000,0.000000,0.236545,0.288060,0.000000,0.000000,0.000000,194.000000,194.000000,0.000000,0.000000,0.000000,0.000000:
0000
0000
0000
0000
,
0000
0000
0000
0000
,
0000
0000
0000
0000
,
0000
0000
0000
0000
,
0001
1000
0001
0000
,
1000
0001
1000
0000
,
0001
0100
0001
0000
,
1000
0100
1000
0000
,
0001
0010
0001
0000
,
1000
0010
1000
0000
,
0001
0000
0010
0000
,
0001
0000
0001
0001
,
0100
0000
0010
0000
,
1000
0000
0001
0000
,
1000
0000
0100
0000
,
1000
0000
0010
0010
,
1000
0000
1000
0000
,
0001
0000
0001
0000
,
1000
0000
0100
0000
,
1000
0000
0001
0000
,
0010
0000
0001
0000
,
0010
0000
0100
0000
,
1000
1000
0000
0000
,
0001
0001
0000
0000
,
0100
0100
0000
0001
,
0001
0001
0000
0001
,
0000
1000
0000
1000
,
0000
0010
0000
0010
,
0000
1000
0000
1000
,
1000
0000
0100
0000
,
0010
0000
0001
0000
,
0010
0000
0100
0000
,
0100
0100
0000
1000
,
0000
0100
0000
1000
,
0000
0001
0000
1000
,
0000
0001
0000
1000
,
0010
0000
0000
0000
,
0100
0000
0000
0000
,
0001
0000
0000
0000
,
1000
0001
1000
0000
,
0001
0001
0001
0000
,
0100
0100
0100
0000
,
0010
0010
0010
0000
,
1000
1000
0010
0010
,
1000
1000
1000
0000
,
0100
0100
0100
0000
,
0010
0010
0010
0000
,
0001
0001
1000
1000
,
0001
0001
0100
0000
,
0010
0010
1000
0000
,
0010
0010
0100
0000
,
0001
0001
1000
0000
,
1000
1000
0100
0000
,
0010
0010
0001
0000
,
0010
0010
0100
0000
,
1000
1000
0001
0001
,
1000
1000
0100
0000
,
1000
1000
0001
0000
,
1000
1000
0010
0000
,
0100
0100
0001
0001
,
0010
0000
0001
0000
,
1000
0000
1000
0000
,
0010
0000
0010
0000
,
0010
0010
0010
0010
,
1000
1000
0010
0010
,
1000
1000
0100
0100
,
0010
0010
0001
0001
,
0100
0100
0001
0001
,
0100
0100
0010
0010
,
1000
1000
0010
0010
,
0100
0100
0010
0010
,
1000
1000
0001
0001
,
0100
0000
0001
0000
,
1000
0000
0001
0000
,
0010
0000
0001
0000
,
1000
0000
0000
0000
;
