#VERSION:0.83;
#TITLE:What's up?;
#SUBTITLE:;
#ARTIST:ひまわり∗パンチ;
#TITLETRANSLIT:;
#SUBTITLETRANSLIT:;
#ARTISTTRANSLIT:Himawari*Punch;
#GENRE:;
#CREDIT:;
#MUSIC:What's up.ogg;
#BANNER:What's up.png;
#BACKGROUND:What's up-bg.png;
#CDTITLE:;
#SAMPLESTART:65.259;
#SAMPLELENGTH:10.054;
#SELECTABLE:YES;
#OFFSET:0.903;
#BPMS:0.000=185.000;
#STOPS:;
#JACKET:What's up-jacket.png;
#BGCHANGES:0.000=What's up.avi=1.000=1=0=0=StretchNoLoop==CrossFade==;
#FGCHANGES:;

//--------------- dance-single - ----------------
#NOTEDATA:;
#STEPSTYPE:dance-single;
#CREDIT:Kikoia;
#DESCRIPTION:;
#DIFFICULTY:Beginner;
#METER:4;
#RADARVALUES:0,0,0,0,0;
#NOTES:
0000
0000
0000
0000
,
0000
0000
0000
0000
,
0000
0000
0000
0000
,
0000
0000
0000
0000
,
0001
0000
0100
0000
,
0001
0000
0010
0000
,
1000
0000
0100
0000
,
1000
0000
0010
0000
,
0000
0000
0000
0000
,
0000
0000
0000
0000
,
1000
0000
0001
0000
,
0100
0100
0100
0000
,
0001
0000
1000
0000
,
0100
0100
0100
0000
,
1000
0000
0100
0000
,
0010
0000
0001
0000
,
0001
0000
0100
0000
,
0010
0000
1000
0000
,
0001
0000
1000
0000
,
0010
0010
0010
0000
,
1000
0000
0001
0000
,
0010
0010
0010
0000
,
1000
0000
0010
0000
,
0100
0000
0001
0000
,
0001
0000
0010
0000
,
0100
0000
1000
0000
,
1001
0000
0000
0000
,
0000
0000
0000
0000
,
0000
0000
0000
0000
,
0000
0000
0000
0000
,
0001
0000
0001
0000
,
1000
0000
1000
0000
,
0001
0000
1000
0000
,
1001
0000
0000
0000
,
1000
0000
0100
0000
,
1000
1000
1000
0000
,
0001
0000
0100
0000
,
0001
0001
0001
0000
,
1000
0000
0100
0000
,
0010
0000
0001
0000
,
0001
0000
0100
0000
,
0010
0000
1000
0000
,
2000
0000
3000
0000
,
0002
0000
0003
0000
,
0020
0000
0030
0000
,
0200
0000
0300
0000
,
0002
0000
0003
0000
,
2000
0000
3000
0000
,
0010
0000
0010
0000
,
0100
0000
0100
0000
,
0110
0000
0000
0000
,
1001
0000
1000
0000
,
0001
1000
0001
0000
,
0001
0000
0100
0000
,
0010
0000
0100
0000
,
0001
0000
1000
0000
,
1000
0001
1000
0000
,
1000
0000
0100
0000
,
0010
0000
0100
0000
,
1000
0000
0000
0000
,
0000
0000
0000
0000
,
0001
0001
0001
0000
,
1000
1000
1000
0000
,
0100
0000
0100
0000
,
1000
0000
1000
0000
,
0001
0001
0001
0000
,
1000
1000
1000
0000
,
0010
0000
0010
0000
,
0100
0000
0100
0000
,
2002
0000
0000
0000
,
0000
0000
0000
0000
,
3003
0000
0000
0000
,
0000
0000
0000
0000
,
0000
0000
0000
0000
,
0000
0000
0000
0000
,
1000
0000
0100
0000
,
0020
0000
0030
0000
,
1001
0000
0001
0000
,
1000
0001
1000
0000
,
1000
0000
0010
0000
,
0100
0000
0010
0000
,
1000
0000
0001
0000
,
0001
1000
0001
0000
,
0001
0000
0010
0000
,
0100
0000
0010
0000
,
0001
0000
1000
0000
,
1000
1000
1000
0000
,
0001
0000
0100
0000
,
0010
0010
0010
0000
,
1000
0000
0100
0000
,
1000
0000
0010
0000
,
0001
0000
0100
0000
,
0001
0000
0010
0000
,
0000
0000
0000
0000
,
0000
0000
0000
0000
0000
0001
0000
1001
;

//--------------- dance-single - ----------------
#NOTEDATA:;
#STEPSTYPE:dance-single;
#CREDIT:Kikoia;
#DESCRIPTION:;
#DIFFICULTY:Easy;
#METER:8;
#RADARVALUES:0,0,0,0,0;
#NOTES:
0000
0000
0000
0000
,
0000
0000
0000
0000
,
0000
0000
0000
0000
,
0000
0000
0000
0000
,
1000
0100
0010
0000
,
0010
0100
1000
0000
,
0001
0100
0010
0000
,
0010
0100
0001
1000
,
1001
0000
0000
0000
,
1000
0000
0000
0000
,
0000
0001
1000
0001
,
0100
0000
0010
0000
2000
0000
0001
3001
,
0000
0001
1000
0001
,
1000
0100
0010
0001
,
2000
0000
0010
3010
0000
0000
0000
0010
,
0000
0000
0020
0000
0000
0000
0000
0130
,
0000
0200
0000
0300
,
0001
0000
0100
0000
0010
0000
1000
0001
,
0000
1000
0001
1000
,
0100
0000
0010
0000
0002
0000
1000
1003
,
0000
1000
0001
1000
,
0001
0100
0010
1000
,
0002
0000
0010
0013
0000
0000
0000
0010
,
0000
0000
0020
0000
0000
0000
0000
0130
,
0000
0200
0000
0300
,
1000
0100
0010
0001
,
1001
0000
0001
0000
,
1000
0000
0001
0000
,
0100
0000
0001
0000
,
0100
0010
0100
0010
,
0100
0000
0100
0000
,
0001
0000
0001
0000
,
1000
0000
0100
0000
1000
0000
1000
0002
,
0000
0000
0000
0000
0000
0000
0000
0003
,
0000
1000
0100
1000
,
0100
0000
0010
0000
0001
0000
1000
1000
,
0000
0001
0100
0001
,
0100
0010
1000
0001
,
0010
0000
0100
0200
0000
0000
0000
1300
,
0000
0000
2000
0000
0000
0000
0000
3001
,
0000
0000
0002
0000
0000
0000
0000
0003
,
1000
0010
0001
0010
,
1000
0000
0000
1000
0000
0000
0001
0000
,
0000
0001
0000
0000
1000
0000
0100
0000
,
0010
0000
0000
0010
0000
0000
0100
0000
,
0000
0100
0000
0000
1000
0000
0001
0000
,
0100
0000
0000
0100
0000
0000
0010
0000
,
0000
0010
0000
0000
0100
0000
0001
0000
,
1000
0100
0001
0010
,
1000
0000
0000
1000
0000
0000
0001
0000
,
2002
0000
0000
0000
0000
0000
0000
3003
,
0000
1000
0100
0001
,
0100
1000
0002
0003
,
0001
0100
1000
0100
,
0001
0001
0010
0200
,
0300
1000
0100
0010
,
0001
2000
0010
0000
,
3001
0100
0010
1000
,
0001
0000
0010
0100
0000
0220
0000
0000
,
0330
0000
0000
0000
,
0000
0000
0000
0000
,
1000
1100
0001
0101
,
1000
1010
0001
0011
,
1000
0010
0100
0001
,
1000
0000
1000
2000
0000
0000
3000
0000
,
0001
0011
1000
1010
,
0001
0101
1000
1100
,
1000
0100
0001
0100
,
2000
0000
3020
0000
,
0200
0000
0000
0000
,
0000
0000
0000
0000
,
0330
0000
0000
0000
;

//--------------- dance-single - ----------------
#NOTEDATA:;
#STEPSTYPE:dance-single;
#CREDIT:Kikoia;
#DESCRIPTION:;
#DIFFICULTY:Medium;
#METER:12;
#RADARVALUES:0,0,0,0,0;
#NOTES:
0000
0000
0000
0000
,
0000
0000
0000
0000
,
0000
0000
0000
0000
,
0000
0000
0000
0000
1000
0000
0001
0100
,
0020
0000
0030
0010
1000
0000
0100
0010
,
0002
0000
0003
0001
1000
0000
0010
0100
,
0002
0000
0103
2000
0000
3100
0001
1000
,
0001
1000
0001
1000
0000
0220
0000
0000
,
0330
0000
0000
0000
,
0000
0000
0000
0000
0100
0010
0100
1001
,
0000
1000
0001
0000
1000
0100
1000
0100
,
0000
0020
0000
0032
0000
1003
0010
0100
,
0001
0001
1000
0000
0010
1000
0010
2000
,
0000
3002
0000
0023
0000
0230
0000
1300
,
0100
0010
0001
0200
0000
0000
0000
0310
,
0000
0000
0110
0000
0000
1000
0001
1000
,
0000
0001
1001
0000
1000
0000
0100
0000
,
1000
0001
0100
0000
0001
1000
0100
0020
,
0000
0031
1000
0000
0001
0100
0001
0200
,
0000
0320
0000
2030
0000
3001
0010
0100
,
1000
0001
0010
0010
0001
0000
1000
0100
,
0000
0100
1000
0002
0000
0203
0000
0310
,
1000
0001
1000
0200
0000
0000
0000
0310
,
0000
0000
0110
0000
0000
0001
1000
0001
,
0000
1000
0001
0000
0001
0100
0010
1000
,
0000
1000
0100
0010
0001
0100
0101
0000
,
0110
0000
1001
0000
,
1000
0000
1100
0000
,
0001
0000
0010
0011
,
0000
1000
0001
1000
0010
0100
0010
0100
,
0000
0001
1000
0000
1000
0100
0000
0100
,
1000
0000
0001
0100
0000
0100
0001
0000
,
1000
0100
0010
0000
0001
0100
0010
2000
,
0000
0000
0001
0000
0001
0000
3001
1001
,
0000
1000
0010
0000
0100
0001
0100
0002
,
0000
0023
0000
0230
0000
1300
0001
0100
,
0010
0010
1000
0000
0001
1000
0001
2000
,
0000
3200
0000
0302
0000
0203
0000
1300
,
0100
0010
0001
2000
0000
0000
0000
3010
,
0000
0000
1010
0000
0000
0001
0100
0001
,
0000
0100
0001
0000
1000
0000
0100
0000
,
1000
0001
1000
0000
0001
0100
0002
0000
,
0013
0000
0010
0001
0000
0001
1000
0000
,
1000
0010
0000
0010
0100
0001
2000
0000
,
3100
0000
0100
0010
0000
0010
0100
0000
,
0100
1000
0000
1000
0001
0100
0020
0000
,
1030
0000
1000
0001
0000
0001
0010
0000
,
0010
0100
0000
0100
1000
0001
2000
0000
,
3010
0100
0001
0000
0010
0100
1000
0000
,
0001
1000
0001
1000
0000
1000
0001
1000
,
0100
0000
0100
0000
0100
0010
0100
0110
,
0000
0000
0110
0000
1001
0000
0001
0100
,
0010
0100
0001
1000
0100
0000
1100
0000
,
1000
0100
0010
0002
0000
2003
0000
3020
,
0000
1030
0001
0020
0000
0031
1000
0010
,
0100
0001
0100
0000
0001
1000
0001
0000
,
1000
0100
1000
0000
0001
0010
0001
0001
,
0100
0010
0100
1000
0100
0010
0100
0001
,
1000
0100
0010
0001
0000
0022
0000
0000
,
0033
0000
0000
0000
,
0000
0000
0000
0000
1000
0001
1000
0200
,
0000
1300
0001
1000
0010
1000
0001
0001
,
0100
0001
1000
0001
0010
0001
1000
1000
,
0100
0010
0001
0200
0000
0310
0100
0001
,
0010
0100
1000
0001
0000
1001
0000
0000
,
1000
0010
1000
0000
0001
0010
0001
0000
,
1000
0100
1000
0000
0001
0100
0001
0000
,
1000
0100
0010
0001
1000
0010
1000
0001
,
0010
0000
0010
0000
0100
0000
1000
0000
1000
0000
0001
0000
,
2002
0000
0000
0000
,
0000
0000
0000
0000
,
3003
0000
0000
0000
,
0000
0000
0000
0000
,
2000
0000
0100
0000
0000
0100
0000
0000
,
3002
0000
0000
0100
0000
0000
0100
0000
,
1003
0001
1000
0001
1000
0001
1000
0001
,
0100
0010
0100
0010
0000
0010
0100
0110
,
0000
0000
0110
0000
1001
0000
1000
0100
,
0010
0100
1000
0001
0100
0000
0101
0000
,
0001
0100
0010
2000
0000
3002
0000
0023
,
0000
0031
1000
0020
0000
1030
0001
0010
,
0100
1000
0100
0000
1000
0001
1000
0000
,
0001
0100
0001
0000
1000
0010
1000
1000
,
0100
0010
0100
0001
0100
0010
0100
1000
,
0001
0100
0010
1000
0000
2020
0000
3030
,
0002
0000
0203
0000
1300
0100
0001
0000
,
2000
0000
3200
0000
0301
0100
1000
0000
,
0002
0000
0023
0000
1030
0010
0001
0000
,
0001
0100
0010
1000
1000
0000
0001
0010
,
0200
0000
0000
0310
0001
0000
1000
0010
,
0200
0000
0300
0010
1000
0000
0100
0010
,
0002
0000
0103
2000
0000
3100
0001
1000
,
0001
1000
0001
1000
0000
0220
0000
0000
,
0330
0000
0000
0000
,
0000
0000
0000
0000
0100
0010
0100
1001
;

//--------------- dance-single - ----------------
#NOTEDATA:;
#STEPSTYPE:dance-single;
#CREDIT:Kikoia;
#DESCRIPTION:;
#DIFFICULTY:Hard;
#METER:15;
#RADARVALUES:0,0,0,0,0;
#NOTES:
0000
0000
0000
0000
,
0000
0000
0000
0000
,
0000
0000
0000
0000
,
0000
0000
0000
1000
0200
0000
1300
0001
,
0010
0000
0011
0001
0200
0000
0301
1000
,
0010
0000
1010
1000
0002
0000
0103
0001
,
1000
0100
0010
0200
0000
0301
0100
1000
,
0010
0100
0001
1000
0000
2001
0000
0000
,
3010
0000
0000
0000
,
0000
0000
0000
0000
0010
0010
0100
1001
,
0000
0001
0200
0000
0310
0100
0001
0001
,
1000
0100
1000
0100
0010
0001
0100
0100
,
0000
0001
0020
0000
0130
1000
0010
0010
,
1000
0001
1000
0001
0010
0100
1000
0001
,
0100
0000
0002
0010
0000
0100
0000
0100
,
0000
1000
2003
0000
0000
0001
0001
0001
,
0000
0010
0010
0000
3100
0010
0001
2000
,
0000
0000
3010
0000
0100
0000
0001
0000
0010
0000
0001
1000
0001
0000
1001
0000
,
0000
1000
0200
0000
0310
0100
1000
1000
,
0001
0100
0001
0100
0010
1000
0001
0001
,
0000
1000
0010
1000
0200
0000
0310
0001
,
1000
0010
0001
0020
0000
2030
0000
3100
,
0100
0000
2000
0010
0000
0100
0000
0100
,
0000
0001
3002
0000
0000
0010
0010
0010
,
0000
1000
1003
0000
0001
0100
0001
0020
,
0000
0000
0031
1000
0001
0000
1000
0001
1000
0000
0010
0000
1010
0000
0000
0000
,
0101
0000
0000
0000
1001
0000
0000
0001
,
1000
1000
0100
0000
,
1000
1000
0001
2002
,
3003
1000
0100
0010
0001
0010
0100
1000
,
0000
0001
0100
0000
1000
0100
0000
0001
,
0010
0000
1000
0010
0000
0001
1001
0000
,
1000
0100
0001
0100
0010
0100
1000
0001
,
0000
0000
1000
0001
1000
0000
0001
1000
0001
0000
0100
0000
0010
0000
0110
0000
,
0000
1000
0010
0000
1000
0001
0010
0010
,
0100
1000
0100
1000
0001
0100
0010
1000
,
0000
0001
0010
0000
0001
1000
0100
0002
,
0000
0203
0000
2300
0000
3020
0000
0130
,
0001
0000
0002
0010
0000
0100
0100
0100
,
0000
1000
2003
0000
0000
0100
0100
0100
,
0000
0001
3001
0000
1000
0100
0010
0001
,
1000
0000
0001
0010
0001
0000
1000
0000
0010
0000
0100
0000
0001
1000
0001
1000
,
0002
0000
0103
0020
0000
0130
0002
0000
,
0103
2000
0000
3100
0001
1000
1001
0000
,
2000
0000
3100
0020
0000
0130
2000
0000
,
3100
0002
0000
0103
1000
0001
1001
0000
,
0002
0000
0013
0200
0000
0310
0002
0000
,
0013
2000
0000
3010
0001
1000
1001
0000
,
0001
0100
1000
0100
0001
0010
0100
1000
,
0010
0001
1000
0100
0001
1000
0100
0000
,
0010
0100
0010
0000
0100
0010
0100
0000
1000
0000
1000
0000
0001
0000
1001
0000
,
0000
0000
0110
0000
1001
0000
1000
0100
,
0001
0100
1000
0010
0100
0001
1001
0000
,
0001
0100
0001
0010
0001
1000
0010
0002
,
0000
0013
1000
0200
0000
0301
0001
0100
,
1000
0001
0100
0001
0010
0100
1000
1000
,
0001
0010
0001
0200
0000
0000
0301
1000
,
0100
0001
1000
0010
0001
1000
0010
0010
,
0100
0001
1000
0100
0000
2002
0000
0000
,
3003
0000
0000
0000
,
0000
0000
0000
0000
0100
0100
0100
1001
,
0000
0000
0001
0100
0001
0000
0100
0010
0100
0000
0010
1000
0010
0000
1000
0001
,
1000
0000
0100
1000
0100
0000
0010
0100
0010
0000
0001
0010
0001
0000
0001
1000
,
0020
0000
0000
0000
1030
0001
0020
0000
0000
0000
0130
0000
1000
0000
0001
0000
,
0100
1000
0100
0001
0000
2002
0000
3003
,
1000
0100
0010
0100
1000
0001
0010
0000
,
0001
0100
0010
0100
0001
1000
0010
0000
,
1000
0100
0001
0100
1000
0010
0100
0001
,
1000
0000
0010
0000
1000
0100
0010
0000
0001
0000
0100
0010
,
2000
0000
0000
0000
,
0000
0000
0000
0000
,
3000
0000
0000
0000
,
0000
0000
0000
0000
,
1001
0000
0000
1100
0000
0000
0000
0000
,
1001
0000
0000
0101
0000
0000
1001
0000
,
1000
0001
1000
0001
0100
0010
0100
0010
,
1000
0000
0001
1000
0001
0000
1000
0001
1000
0000
0100
0000
0100
0000
0110
0000
,
0000
0000
0110
0000
1001
0000
0001
0100
,
1000
0100
0001
0010
0100
1000
1001
0000
,
1000
0100
1000
0010
1000
0001
0010
2000
,
0000
3010
0001
0200
0000
1300
1000
0100
,
0001
1000
0100
1000
0010
0100
0001
0001
,
1000
0010
1000
0200
0000
0000
1300
1000
,
0001
0010
1000
0001
0100
1000
0001
0100
,
0010
0000
0010
0000
1000
0000
0001
0010
0100
0000
0110
0000
0000
0000
0100
0000
,
1000
0001
0010
0001
1000
0000
1001
0000
,
0001
1000
0010
1000
0001
0000
1001
0000
,
1000
0100
0001
0100
2000
0000
3001
0100
,
1000
0100
0001
0001
0200
0000
0301
1000
,
0010
0000
1010
1000
0200
0000
1300
0001
,
0010
0000
0011
0001
2000
0000
3010
0100
,
0001
0010
0100
0020
0000
1030
0010
0001
,
1000
0010
0100
0001
0000
1002
0000
0000
,
0013
0000
0000
0000
,
0000
0000
0000
0000
0100
0100
0100
1001
;
