#TITLE:We Love Game!;
#SUBTITLE:(TAITO STATION);
#ARTIST:COSIO;
#TITLETRANSLIT:;
#SUBTITLETRANSLIT:;
#ARTISTTRANSLIT:;
#GENRE:SPIRITUAL;
#CREDIT:;
#BANNER:We Love Game (TAITO STATION).png;
#BACKGROUND:We Love Game (TAITO STATION)-bg.png;
#LYRICSPATH:;
#CDTITLE:;
#MUSIC:We Love Game (TAITO STATION).ogg;
#OFFSET:-0.002000;
#SAMPLESTART:57.730999;
#SAMPLELENGTH:12.000000;
#SELECTABLE:YES;
#BPMS:0.000000=133.000000
;
#STOPS:
;
#BGCHANGES:0.000=We Love Game (TAITO STATION).mp4=1.000=0=0=0=StretchNoLoop====,
99999=-nosongbg-=1.000=0=0=0 // don't automatically add -songbackground-
;
#KEYSOUNDS:;
#ATTACKS:;

//---------------dance-single - ----------------
#NOTES:
     dance-single:
     :
     Hard:
     12:
     0.539970,0.656568,0.381896,0.430857,0.274182,386.000000,347.000000,39.000000,44.000000,0.000000,0.000000,0.539970,0.656568,0.381896,0.430857,0.274182,386.000000,347.000000,39.000000,44.000000,0.000000,0.000000:
0000
0000
0000
0000
,
0000
0000
0000
0000
,
0000
0000
0000
0000
,
0000
0000
0000
0000
,
0001
0000
0100
0000
0010
0000
0000
1000
0000
0001
0000
2000
0000
0000
3001
0000
,
1000
0000
0100
0000
0010
0000
0000
0001
0000
1000
0000
0002
0000
0000
1003
0000
,
0001
0000
0100
0000
0010
0000
0000
1000
0000
0001
0000
2000
0000
0000
3001
0000
,
0010
0000
0100
0000
1000
0000
0010
0100
0000
0000
2002
0000
0000
0000
3003
0000
,
1000
0001
0100
0020
0000
0031
0010
2000
,
0000
3001
0010
0200
0000
0301
0100
1000
,
0010
0010
1000
0200
0000
1300
0001
1000
,
0010
0000
0002
0000
0000
0000
0313
2000
0000
0000
3100
0000
1000
0001
1000
0001
,
1000
0100
0010
0001
0100
1000
0100
0001
,
1000
0000
0100
0000
0001
0000
0200
0000
0000
0000
0310
0000
0010
0000
0001
1000
,
0002
0000
0100
0000
1000
1000
1003
0000
,
1000
0000
0001
0000
0010
0000
0100
0000
0010
0100
0010
0000
0100
0010
0100
0000
,
1000
0001
1000
0000
1000
0100
1100
0000
,
0001
1000
0001
0000
0001
0100
0101
0000
,
1000
0100
0001
0000
0001
0100
1001
0000
,
0001
0100
1000
0000
1000
0100
1001
0000
,
1000
0100
0010
0001
1000
0010
0100
1000
,
0200
0000
0000
0000
0010
0000
0000
0000
0301
0000
0100
0000
0010
0000
1000
0001
,
2000
0010
0010
0000
3002
0000
0103
0000
,
0001
0000
0010
0000
1000
0000
0010
0000
0100
0010
0100
0000
0010
0100
0010
0000
,
0001
0011
0011
0000
1000
1010
1010
0000
,
0001
0101
0101
0000
1000
1100
1100
0000
,
0001
0101
1001
0000
1000
1100
1001
0000
,
0001
0011
1001
0000
1000
1010
1001
0000
,
0001
1000
0020
0000
0230
0000
0301
1000
,
0100
0001
0100
1000
0010
0100
0001
1000
,
0200
0000
0000
0010
0310
0000
1001
0000
,
2000
0100
3002
0100
2003
0010
3001
1000
,
1002
0000
1003
0100
0001
0100
1000
1020
,
0000
0000
0130
0000
0100
0000
0001
0000
0020
0000
0000
0230
0000
0000
1300
0001
,
1000
0000
0100
0000
0010
0000
0001
0000
0100
0000
0000
0100
0000
0000
0100
0000
,
0010
1010
0011
1001
,
0001
0000
0100
0010
0100
0000
0001
0000
1000
0000
0100
0000
0010
0000
0001
0000
,
1000
0000
0010
0000
1010
0000
0000
0000
0101
0000
0000
1000
0100
0000
0010
0000
,
0020
0000
0000
0000
0031
0000
0100
0000
0010
0000
0000
0010
0000
0000
0010
0000
,
1000
0000
0000
0000
1020
0000
0000
0000
0130
0000
0000
0001
0010
0000
0100
0000
,
2000
3100
0000
0000
,
0002
0103
0000
0000
,
2000
0010
3010
0000
0000
0000
0000
0000
,
0002
0010
0013
0000
0000
0000
0000
0000
,
1000
0000
0100
0000
0020
0000
0000
0001
0000
0001
0000
0032
0000
0000
1003
0000
,
0001
0000
0100
0000
0020
0000
0000
1000
0000
1000
0000
2030
0000
0000
3001
0000
,
1000
0000
0100
0000
0020
0000
0000
0001
0000
0001
0000
0032
0000
0000
1003
0000
,
0001
0000
0010
0000
1000
0000
0010
0100
0000
0000
2002
0000
0000
0000
3003
0000
,
0001
0000
0100
0000
1000
0000
0100
0010
0000
0100
0000
0010
0100
0000
0010
0000
,
1000
0000
0100
0000
0001
0000
0100
0010
0000
0100
0000
0010
0100
0000
0010
0000
,
0001
0000
0100
0000
1000
0000
0100
0010
0000
0100
0000
0010
0100
0000
0010
0000
,
1000
0000
0100
0000
0001
0000
0100
0010
0000
0000
2002
0000
0000
0000
3003
0000
,
0001
0000
0100
0000
0101
0000
1000
0100
0000
0001
0000
0100
0010
0000
0001
0000
,
1000
0000
0010
0000
1010
0000
0001
0100
0000
1000
0000
0100
0010
0000
1000
0000
,
0001
0000
0010
0000
0011
0000
1000
0100
0000
0001
0000
0100
1000
0000
0010
0000
,
0101
0000
0101
0000
1010
0000
0001
0010
0000
0000
2002
0000
0000
0000
3003
0000
;

//---------------dance-single - ----------------
#NOTES:
     dance-single:
     :
     Medium:
     9:
     0.395885,0.437712,0.264390,0.372104,0.009792,283.000000,256.000000,27.000000,38.000000,0.000000,0.000000,0.395885,0.437712,0.264390,0.372104,0.009792,283.000000,256.000000,27.000000,38.000000,0.000000,0.000000:
0000
0000
0000
0000
,
0000
0000
0000
0000
,
0000
0000
0000
0000
,
0000
0000
0000
0000
,
0001
0100
0010
0000
1000
0001
1000
0000
,
1000
0100
0010
0000
0001
1000
0001
0000
,
0001
0100
0010
0000
1000
0001
1000
0000
,
0001
0010
0100
1000
0000
2002
0000
3003
,
0102
0000
0000
0023
0000
0230
0000
2300
,
0000
3010
0100
0020
0000
2030
0000
3100
,
0020
0000
0000
0032
0000
0000
0000
0000
,
1003
0020
0000
0230
0000
0301
0010
0100
,
2000
0000
0000
0000
0000
3200
0000
0320
,
0000
0031
1000
0002
0000
0000
0000
0103
,
0020
0000
1000
1000
,
0130
0001
0010
0100
1000
0000
1100
0000
,
0001
0100
0001
0000
1001
0000
1001
0000
,
1000
0100
1000
0000
1001
0000
1001
0000
,
0001
0010
0001
0000
1001
0000
1001
0000
,
1000
0010
1000
0000
1001
0000
1001
0000
,
1100
0002
0203
0320
,
2030
0000
0000
0000
0000
3100
0010
0100
,
0020
0000
0001
0031
,
0010
0001
0100
0010
1000
0001
1000
0000
,
0001
0001
0001
0000
0010
0010
0010
0000
,
0100
0100
0100
0000
1000
1000
1000
0000
,
0010
0010
0010
0000
0100
0100
0100
0000
,
0001
0001
0001
0000
1000
1000
1000
0000
,
1002
0000
0000
0000
0000
0023
0000
0230
,
0000
1300
0010
2000
0000
3001
0100
0001
,
2000
0000
0000
0000
0000
0000
0100
3000
0200
0000
0000
0000
0310
0000
0000
0000
,
0010
0001
1000
0001
0100
0010
1000
0000
,
1010
0000
0101
0000
1000
0100
0010
0000
,
0001
1000
0001
0000
1000
0001
0100
0000
,
0101
0000
1010
0000
0001
0010
0100
0000
,
1000
0010
0100
0000
0001
0010
0100
0000
,
1100
0000
0011
0000
1000
0001
0100
0000
,
0001
1000
0001
0000
1000
0010
0100
0000
,
0020
0000
0000
0100
0200
0000
0330
0000
,
0010
0100
0002
0000
2003
0000
3100
0000
,
1100
0000
0000
0000
,
0001
0000
0000
0000
,
0101
0000
0000
0000
,
1000
0000
0000
0000
,
0001
0100
0010
0000
0100
0000
0110
0000
,
1000
0100
0010
0000
0100
0000
0110
0000
,
0010
0001
1000
0000
0001
0000
1001
0000
,
1000
0001
0100
0010
0000
2002
0000
3003
,
1000
0100
0010
0100
1000
0001
1000
0000
,
0001
0100
0010
0100
0001
1000
0001
0000
,
1000
0100
0010
0100
1000
0001
1000
0000
,
0001
0100
0010
1000
0000
2002
0000
3003
,
0001
0010
0100
0010
0001
1000
0001
0000
,
1000
0010
0100
0010
1000
0001
1000
0000
,
0001
0010
0100
0010
0001
1000
0001
0000
,
1000
0000
0010
0000
0100
0000
0010
0100
0000
0000
2002
0000
0000
0000
3003
0000
;

//---------------dance-single - ----------------
#NOTES:
     dance-single:
     :
     Easy:
     5:
     0.222423,0.273570,0.068545,0.107714,0.000000,159.000000,152.000000,7.000000,11.000000,0.000000,0.000000,0.222423,0.273570,0.068545,0.107714,0.000000,159.000000,152.000000,7.000000,11.000000,0.000000,0.000000:
0000
0000
0000
0000
,
0000
0000
0000
0000
,
0000
0000
0000
0000
,
0000
0000
0000
0000
,
1000
0100
0010
0010
,
0001
0100
0010
0010
,
1000
0001
0010
0010
,
0001
0000
1000
0000
0000
1001
0000
0000
,
1000
0001
0100
0010
,
1000
0100
0010
0001
,
0200
0000
0300
0000
,
0010
0010
0100
0100
,
0001
0010
0100
1000
,
0001
0100
0010
1000
,
0020
0000
0030
0000
,
0010
0010
0100
0000
,
0001
0001
0001
0000
0000
0000
0000
0000
,
1000
1000
1000
0000
0000
0000
0000
0000
,
0100
0100
0100
0000
0000
0000
0000
0000
,
0100
0100
0100
0000
0000
0000
0000
0000
,
1001
0000
1000
0001
,
0100
0000
0001
0100
,
0020
0000
0000
0030
,
0010
1000
0001
0001
,
1000
1000
1000
0000
0000
0000
0000
0000
,
0100
0100
0100
0000
0000
0000
0000
0000
,
0010
0010
0010
0000
0000
0000
0000
0000
,
0001
0001
0001
0000
0000
0000
0000
0000
,
1000
0001
0100
0010
,
1000
0001
0010
0100
,
0020
0030
0200
0300
,
1000
0001
1000
0000
,
1001
0001
0100
0010
,
0100
0100
0010
1000
,
0200
0300
0020
0030
,
0001
1000
0010
0000
,
1000
1000
0001
0000
,
0001
0001
0010
0010
,
0200
0300
0020
0030
,
0001
1000
0010
0010
,
1001
0000
0000
0000
,
0001
0000
0000
0000
,
0100
0000
0000
0000
,
0100
0000
0000
0000
,
0001
0001
0000
0000
0000
0000
0000
0000
,
1000
1000
0000
0000
0000
0000
0000
0000
,
0100
0100
0000
0000
0000
0000
0000
0000
,
0010
0000
0010
0000
0000
1001
0000
0000
,
0001
0001
0001
0000
0000
0000
0000
0000
,
1000
1000
1000
0000
0000
0000
0000
0000
,
0010
0010
0010
0000
0000
0000
0000
0000
,
0010
0000
0100
0000
0000
1001
0000
0000
,
1000
1000
1000
0000
0000
0000
0000
0000
,
0100
0100
0100
0000
0000
0000
0000
0000
,
0010
0010
0010
0000
0000
0000
0000
0000
,
0001
1000
0001
0000
0000
2002
0000
3003
;

//---------------dance-single - ----------------
#NOTES:
     dance-single:
     :
     Beginner:
     3:
     0.137091,0.217877,0.068545,0.000000,0.000000,98.000000,91.000000,7.000000,0.000000,0.000000,0.000000,0.137091,0.217877,0.068545,0.000000,0.000000,98.000000,91.000000,7.000000,0.000000,0.000000,0.000000:
0000
0000
0000
0000
,
0000
0000
0000
0000
,
0000
0000
0000
0000
,
0000
0000
0000
0000
,
1000
0000
0100
0100
,
0000
0000
0010
0010
,
0000
0000
0001
0001
,
0001
0000
1000
0000
,
1001
0000
0000
0000
,
0001
0000
0001
0000
,
0100
0000
0000
0000
,
0010
0000
0010
0000
,
0010
0000
0000
0000
,
1000
0000
1000
0000
,
1000
0000
0000
0000
,
0100
0000
0000
0000
,
1000
1000
0000
0000
,
0001
0001
0000
0000
,
0100
0100
0000
0000
,
0010
0010
0000
0000
,
1001
0000
0000
0000
,
0001
0000
0001
0000
,
0010
0000
0000
0000
,
0100
0000
0000
0000
,
1000
1000
0000
0000
,
0001
0001
0000
0000
,
0100
0100
0000
0000
,
0010
0010
0000
0000
,
1001
0000
0000
0000
,
1000
0000
1000
0000
,
1000
0000
0000
0000
,
0100
0000
0000
0000
,
0010
0000
0010
0000
,
0010
0000
0000
0000
,
0001
0001
0000
0000
,
1000
1000
0000
0000
,
0001
0000
0001
0000
,
0100
0000
0100
0000
,
0010
0000
0000
0000
,
1000
0000
1000
0000
,
1001
0000
0000
0000
,
0000
0000
0000
0000
,
0001
0000
0000
0000
,
0000
0000
0000
0000
,
1000
1000
0000
0000
,
0100
0100
0000
0000
,
0010
0010
0000
0000
,
0001
0000
0001
0000
,
1001
0000
1000
1000
,
1000
0000
0010
0010
,
0010
0000
0100
0100
,
0100
0000
0000
0000
,
1001
0000
0001
0001
,
0001
0000
0010
0010
,
0010
0000
0100
0100
,
0100
0000
0000
0000
0000
1001
0000
0000
;

//---------------dance-double - ----------------
#NOTES:
     dance-double:
     :
     Hard:
     12:
     0.510594,0.601854,0.274182,0.470026,0.254597,365.000000,337.000000,28.000000,48.000000,0.000000,0.000000,0.510594,0.601854,0.274182,0.470026,0.254597,365.000000,337.000000,28.000000,48.000000,0.000000,0.000000:
// measure 0
00000000
00000000
00000000
00000000
,  // measure 1
00000000
00000000
00000000
00000000
,  // measure 2
00000000
00000000
00000000
00000000
,  // measure 3
00000000
00000000
00000000
00000000
,  // measure 4
00010000
00000000
00001000
00000000
00020000
00000000
00000000
00031000
00000000
00100000
00000000
00020000
00000000
00000000
01030000
00000000
,  // measure 5
00001000
00000000
00010000
00000000
00002000
00000000
00000000
00013000
00000000
00000010
00000000
00002000
00000000
00000000
00003100
00000000
,  // measure 6
00010000
00000000
00001000
00000000
00020000
00000000
00000000
00031000
00000000
00100000
00000000
00020000
00000000
00000000
01030000
00000000
,  // measure 7
00100000
00000000
00100000
00000000
10000000
00000000
01000000
00100000
00000000
00000000
20020000
00000000
00000000
00000000
30030000
00000000
,  // measure 8
00010000
01000000
00100000
02000000
00000000
03200000
00000000
00320000
,  // measure 9
00000000
00031000
00100000
00002000
00000000
00013000
00000010
00000100
,  // measure 10
00000002
00000000
00000013
00000200
00000000
00000301
00000100
00001000
,  // measure 11
00000010
00000000
00000200
00000000
00000000
00000000
00001300
00020000
00000000
00000000
00030100
00000000
00010000
00001000
00010000
00001000
,  // measure 12
00010000
00001000
01000000
00100000
10000000
00020000
00000000
02030000
,  // measure 13
00000000
00000000
03100000
00000000
00010000
00000000
00002000
00000000
00000000
00000000
00013000
00000000
00000100
00000000
00000010
00000100
,  // measure 14
00000020
00000000
00000031
00000000
00001000
00001000
00001000
00000000
,  // measure 15
00000001
00000100
00000010
00001000
00010000
01000000
00100000
10000000
,  // measure 16
00010000
00100000
00110000
00000000
10000000
01000000
00010000
00000000
,  // measure 17
00001000
00010000
00011000
00000000
00010000
00001000
00000100
00000000
,  // measure 18
00000001
00000100
00000101
00000000
00000001
00000010
00001000
00000000
,  // measure 19
00010000
00001000
00011000
00000000
00001000
00010000
00100000
00000000
,  // measure 20
10010000
20000000
30020000
00032000
,  // measure 21
00003002
00000000
00000000
00000000
00000103
00000000
00000010
00000000
00000100
00000000
00000001
00000000
00001000
00000000
00000100
00020000
,  // measure 22
00000000
00031000
00031000
01000000
00100000
10000000
00010000
00000000
,  // measure 23
10000000
01000000
00100000
00010000
00001000
00000100
00000010
00000001
,  // measure 24
00001000
00001010
00001010
00000000
00000001
00000100
00001000
00000000
,  // measure 25
00010000
00011000
00011000
00000000
00001000
00010000
01000000
00000000
,  // measure 26
10000000
11000000
11000000
00000000
10000000
00100000
00010000
00000000
,  // measure 27
00001000
00011000
00011000
00000000
00010000
00001000
00000010
00000000
,  // measure 28
00000001
00001000
00000001
00000010
00000100
00002000
00000000
00023000
,  // measure 29
00000000
00130000
01000000
00200000
00000000
00310000
10000000
00100000
,  // measure 30
02000000
00000000
00000000
00100000
03100000
00000000
01100000
00000000
,  // measure 31
10000000
00100000
00010000
00100000
00010000
00001000
00000010
00000001
,  // measure 32
00000012
00000000
00001003
00000010
00000100
00000001
00001000
00020100
,  // measure 33
00000000
00000000
00031000
00000000
00001000
00000000
01000000
00000000
00100000
00000000
00000000
00100000
10000000
00000000
00010000
01000000
,  // measure 34
00010000
00000000
10000000
00000000
01000000
00000000
00100000
00000000
00001000
00000000
00000000
00001000
00000000
00000000
00001000
00000000
,  // measure 35
00010000
00011000
00101000
00010010
,  // measure 36
00010000
00000000
00001000
01000000
00002000
00000000
00000000
00000000
00013000
00000000
00000100
00000000
00000010
00000000
00000001
00000000
,  // measure 37
00000100
00000000
00000010
00000000
00000110
00000000
00000000
00000000
00001001
00000000
00000000
00000001
00000100
00000000
00001000
00000000
,  // measure 38
00002000
00000000
00013300
00100000
00200000
00000000
10000000
00000000
,  // measure 39
01300000
00000000
00010000
00000000
10000000
00000000
01000000
00000000
00100000
00000000
00000000
00100000
00001000
00000000
00010000
00000000
,  // measure 40
00000002
00001003
00000000
00000000
,  // measure 41
20000000
30010000
00000000
00000000
,  // measure 42
00000001
00000001
00000001
00000000
00000000
00000000
00000000
00000000
,  // measure 43
10000000
10000000
10000000
00000000
00000000
00000000
00000000
00000000
,  // measure 44
00001000
00000000
00010000
00000000
00002000
00000000
00000000
00100000
00000000
00100000
00000000
00203000
00000000
00000000
00301000
00000000
,  // measure 45
00010000
00000000
00001000
00000000
00020000
00000000
00000000
00000010
00000000
00000010
00000000
00030020
00000300
00000000
00010030
00000000
,  // measure 46
00001000
00000000
00010000
00000000
00002000
00000000
00000000
00100000
00000000
00100000
00000000
00203000
00000000
00000000
00301000
00000000
,  // measure 47
00010000
00000000
00000010
00000000
00000100
00000000
00000001
00001000
00000000
00000000
00002002
00000000
00000000
00000000
00003003
00000000
,  // measure 48
00000001
00000000
00000100
00000000
00000001
00000000
00001000
00000100
00000000
00000010
00000000
00000100
00010000
00000000
00001000
00000000
,  // measure 49
00100000
00000000
00010000
00000000
00100000
00000000
00001000
00010000
00000000
00001000
00000000
01000000
00100000
00000000
10000000
00000000
,  // measure 50
00010000
00000000
01000000
00000000
00010000
00000000
10000000
01000000
00000000
00100000
00000000
00010000
10000000
00000000
00100000
00000000
,  // measure 51
01000000
00000000
01000000
00000000
00001000
00000000
00010000
00001000
00000000
00000000
00022000
00000000
00000000
00000000
30033000
00000000
,  // measure 52
00001000
00000000
00010000
00030000
01000000
00000000
00100000
00010000
00000000
00100000
00000000
00010000
01000000
00000000
00001000
00000000
,  // measure 53
00010000
00000000
00001000
00000000
00000100
00000000
00000010
00001000
00000000
00000010
00000000
00001000
00000100
00000000
00010000
00000000
,  // measure 54
00001000
00000000
00010000
00000000
01000000
00000000
00100000
00010000
00000000
00100000
00000000
00010000
01000000
00000000
00001000
00000000
,  // measure 55
00011000
00000000
00011000
00000000
00010010
00000000
00000010
00000100
00000000
00000000
00002002
00000000
00000000
00000000
00003003
00000000
;

//---------------dance-double - ----------------
#NOTES:
     dance-double:
     :
     Medium:
     9:
     0.359514,0.410355,0.097922,0.587533,0.000000,257.000000,247.000000,10.000000,60.000000,0.000000,0.000000,0.359514,0.410355,0.097922,0.587533,0.000000,257.000000,247.000000,10.000000,60.000000,0.000000,0.000000:
// measure 0
00000000
00000000
00000000
00000000
,  // measure 1
00000000
00000000
00000000
00000000
,  // measure 2
00000000
00000000
00000000
00000000
,  // measure 3
00000000
00000000
00000000
00000000
,  // measure 4
00010000
00001000
00020000
00000000
00000010
00000000
00031000
00000000
,  // measure 5
00001000
00010000
00002000
00000000
00100000
00000000
00013000
00000000
,  // measure 6
00010000
00001000
00020000
00000000
00000010
00000000
00031000
00000000
,  // measure 7
00010000
00001000
00010000
00001000
00000000
00022000
00000000
00033000
,  // measure 8
00002000
00000000
00000000
00203000
00000000
00320000
00000000
20030000
,  // measure 9
00000000
30100000
01000000
00200000
00000000
02300000
00000000
03010000
,  // measure 10
00200000
00000000
00000000
00302000
00000000
00000000
00000000
00000000
,  // measure 11
00013000
00000020
00000000
00000230
00000000
00000301
00000010
00000100
,  // measure 12
00002000
00000000
00000000
00000000
00000000
00003002
00000000
00000203
,  // measure 13
00000000
00000310
00001000
00000020
00000000
00000000
00000000
00010030
,  // measure 14
00002000
00000000
00100000
00103000
,  // measure 15
00001000
00010000
00001000
00000000
00100000
00010000
01000000
00000000
,  // measure 16
00010000
10000000
00010000
00000000
00100000
00000000
00100000
00000000
,  // measure 17
00001000
00010000
00001000
00000000
00010000
00000000
00010000
00000000
,  // measure 18
00000010
00001000
00000010
00000000
00000100
00000000
00000100
00000000
,  // measure 19
00000001
00001000
00000001
00000000
00000010
00000000
00000010
00000000
,  // measure 20
00001001
00000002
00000203
00002300
,  // measure 21
00023000
00000000
00000100
00000000
00031000
00010000
00001000
00200000
,  // measure 22
00000000
00010000
00010000
00310000
,  // measure 23
10000000
00010000
10000000
00000000
00010000
01000000
00001000
00000000
,  // measure 24
00010000
00010000
00010000
00000000
00001000
00000000
00010000
00000000
,  // measure 25
00000100
00000100
00000100
00000000
00001000
00000000
00000001
00000000
,  // measure 26
00000100
00000100
00000100
00000000
00000001
00000000
00000100
00000000
,  // measure 27
00000010
00000010
00000010
00000000
00001000
00000000
00000100
00000000
,  // measure 28
00010100
00000000
00010000
00000000
00001000
02000000
00000000
03020000
,  // measure 29
00000000
10030000
01000000
20000000
00000000
30020000
00000000
01030000
,  // measure 30
00200000
10000000
02300000
00010000
,  // measure 31
03100000
10000000
00100000
10000000
00010000
00100000
00010000
00000000
,  // measure 32
00102000
00000000
00013000
00000000
00010000
00000010
00000100
00000000
,  // measure 33
00000101
00000000
00001010
00000000
00000001
00000010
00000100
00000000
,  // measure 34
00001000
00000001
00002000
00000000
00000100
00000000
00000100
00000000
,  // measure 35
00003001
00001000
00000002
00000000
00000100
00000000
00000100
00000000
,  // measure 36
00001003
00000100
00020000
00000000
00001000
00000000
00031000
00000000
,  // measure 37
00010000
00001000
02000000
00000000
03200000
00000000
10300000
00010000
,  // measure 38
20000000
00000000
31000000
00100000
02000000
00000000
03100000
00000000
,  // measure 39
00010000
00000000
10020000
00000000
10030000
00100000
01000000
00000000
,  // measure 40
00002000
00013000
00000000
00000000
,  // measure 41
00020000
00031000
00000000
00000000
,  // measure 42
00100000
00100000
00100000
00000000
00000000
00000000
00000000
00000000
,  // measure 43
00000010
00000010
00000010
00000000
00000000
00000000
00000000
00000000
,  // measure 44
00010000
00001000
00020000
00000000
00000010
00000000
00031000
00000000
,  // measure 45
00001000
00010000
00002000
00000000
00100000
00000000
00013000
00000000
,  // measure 46
00010000
00001000
00020000
00000000
00000010
00000000
00031000
00000000
,  // measure 47
00001000
00010000
00001000
00010000
00000000
00022000
00000000
00033000
,  // measure 48
00001000
00100000
00001000
00000000
00200000
00000000
00320000
00000000
,  // measure 49
10030000
00100000
10000000
00000000
00200000
00000000
02300000
00000000
,  // measure 50
03001000
00010000
00001000
00000000
00020000
00000000
00030200
00000000
,  // measure 51
00000310
00000100
00000010
00000100
00000000
00002002
00000000
00003003
,  // measure 52
00000001
00000100
00000020
00000000
00001030
00001000
00000100
00000000
,  // measure 53
00010000
00001000
00020000
00000000
00031000
00001000
01000000
00000000
,  // measure 54
00010000
01000000
00010000
00000000
10000000
10000000
00200000
00000000
,  // measure 55
13300000
01000000
00100000
00010000
00000000
20020000
00000000
30030000
;

//---------------dance-double - ----------------
#NOTES:
     dance-double:
     :
     Easy:
     5:
     0.226620,0.246213,0.058753,0.166468,0.000000,162.000000,156.000000,6.000000,17.000000,0.000000,0.000000,0.226620,0.246213,0.058753,0.166468,0.000000,162.000000,156.000000,6.000000,17.000000,0.000000,0.000000:
// measure 0
00000000
00000000
00000000
00000000
,  // measure 1
00000000
00000000
00000000
00000000
,  // measure 2
00000000
00000000
00000000
00000000
,  // measure 3
00000000
00000000
00000000
00000000
,  // measure 4
00010000
00010000
00001000
00100000
,  // measure 5
00001000
00001000
00010000
00000010
,  // measure 6
00010000
00010000
00001000
01000000
,  // measure 7
00010000
10000000
00100000
00000000
,  // measure 8
10010000
00000000
10000000
01000000
,  // measure 9
00100000
00100000
00001000
00001000
,  // measure 10
00020000
00030000
00000020
00000030
,  // measure 11
00001000
00000010
00000100
00000001
,  // measure 12
00002000
00003000
00000001
00000010
,  // measure 13
00000100
00001000
00000010
00010000
,  // measure 14
00002000
00003000
00100000
00100000
,  // measure 15
00010000
10000000
00100000
00000000
,  // measure 16
10000000
10000000
00000000
00000000
,  // measure 17
00010000
00010000
00000000
00000000
,  // measure 18
00001000
00001000
00000000
00000000
,  // measure 19
00000001
00000001
00000000
00000000
,  // measure 20
00001001
00000000
00000001
00000100
,  // measure 21
00000020
00000030
00001000
00000100
,  // measure 22
00020000
00030000
00001000
00000000
,  // measure 23
00010000
00000010
00000100
00000000
,  // measure 24
00000001
00000001
00001000
00000000
,  // measure 25
00001000
00001000
00010000
00000000
,  // measure 26
00010000
00010000
10000000
00000000
,  // measure 27
10000000
10000000
00010000
00000000
,  // measure 28
10010000
00000000
10000000
01000000
,  // measure 29
00200000
00300000
00002000
00003000
,  // measure 30
00020000
00030000
00000010
00000010
,  // measure 31
00010000
00000100
00000010
00000001
,  // measure 32
00002002
00003003
00000001
00000100
,  // measure 33
00000010
00000010
00001000
00000100
,  // measure 34
00020000
00030000
00002000
00003000
,  // measure 35
00100000
00010000
10000000
00000000
,  // measure 36
00010000
00010000
01000000
01000000
,  // measure 37
00100000
10000000
01000000
00100000
,  // measure 38
00002000
00003000
00020000
00030000
,  // measure 39
00000010
00000010
00001000
00000100
,  // measure 40
00001001
00000000
00000000
00000000
,  // measure 41
00010000
00000000
00000000
00000000
,  // measure 42
00001000
00000000
00000000
00000000
,  // measure 43
10000000
00000000
00000000
00000000
,  // measure 44
00010000
00010000
01000000
00000000
,  // measure 45
00001000
00001000
00010000
00000000
,  // measure 46
00010000
00010000
00000100
00000000
,  // measure 47
00000100
00000010
00000100
00000000
,  // measure 48
00000010
00000001
00000100
00000100
,  // measure 49
00000010
00001000
00000100
00000100
,  // measure 50
00010000
00001000
00100000
00100000
,  // measure 51
00010000
10000000
00100000
00000000
,  // measure 52
10000000
00100000
01000000
01000000
,  // measure 53
00010000
00100000
00001000
00001000
,  // measure 54
00010000
00000010
00000100
00000100
,  // measure 55
00000001
00000000
00001000
00000000
00000000
00002002
00000000
00003003
;
