#VERSION:0.83;
#TITLE:Wannabe;
#SUBTITLE:;
#ARTIST:Spice Girls;
#TITLETRANSLIT:;
#SUBTITLETRANSLIT:;
#ARTISTTRANSLIT:;
#GENRE:;
#ORIGIN:;
#CREDIT:;
#BANNER:Wannabe.png;
#BACKGROUND:Wannabe-bg.png;
#PREVIEWVID:;
#JACKET:Wannabe-jacket.png;
#CDIMAGE:;
#DISCIMAGE:;
#LYRICSPATH:;
#CDTITLE:;
#MUSIC:Wannabe.ogg;
#OFFSET:0.195000;
#SAMPLESTART:43.410000;
#SAMPLELENGTH:15.000000;
#SELECTABLE:YES;
#DISPLAYBPM:110.000000;
#BPMS:0.000=110.050;
#STOPS:;
#DELAYS:;
#WARPS:;
#TIMESIGNATURES:0.000=4=4;
#TICKCOUNTS:0.000=4;
#COMBOS:0.000=1;
#SPEEDS:0.000=1.000=0.000=0;
#SCROLLS:0.000=1.000;
#FAKES:;
#LABELS:0.000=Song Start;
#BGCHANGES:5.500=Wannabe.mp4=1.000=1=0=1===CrossFade==,
162.500=Wannabe-bg.png=1.000=1=0=1===CrossFade==,
99999=-nosongbg-=1.000=0=0=0 // don't automatically add -songbackground-
;
#KEYSOUNDS:;
#ATTACKS:
;

//---------------dance-single - ----------------
#NOTEDATA:;
#CHARTNAME:;
#STEPSTYPE:dance-single;
#DESCRIPTION:;
#CHARTSTYLE:;
#DIFFICULTY:Beginner;
#METER:1;
#RADARVALUES:0.069876,0.086957,0.010870,0.054348,0.000000,45.000000,44.000000,1.000000,5.000000,0.000000,0.000000,0.000000,0.000000,0.000000,0.069876,0.086957,0.010870,0.054348,0.000000,45.000000,44.000000,1.000000,5.000000,0.000000,0.000000,0.000000,0.000000,0.000000;
#CREDIT:Gameoson;
#DISPLAYBPM:110.000000;
#NOTES:
// measure 0
0000
0000
0000
0000
,  // measure 1
0000
0000
0000
0000
,  // measure 2
0001
0000
0000
0000
,  // measure 3
0010
0000
0000
0000
,  // measure 4
0100
0000
0000
0000
,  // measure 5
1000
0000
0000
0000
,  // measure 6
0001
0000
0001
0000
,  // measure 7
0001
0000
0000
0000
,  // measure 8
1000
0000
0000
0000
,  // measure 9
1000
0000
0000
0000
,  // measure 10
0010
0000
0000
0000
,  // measure 11
0010
0000
0000
0000
,  // measure 12
0100
0000
0000
0000
,  // measure 13
0100
0000
0000
0000
,  // measure 14
0001
0000
0000
0000
,  // measure 15
0001
0000
0000
0000
,  // measure 16
0010
0000
0000
0000
,  // measure 17
0100
0000
0000
0000
,  // measure 18
1000
0000
1000
0000
,  // measure 19
1000
0000
0000
0000
,  // measure 20
0010
0000
0000
0000
,  // measure 21
0100
0000
0000
0000
,  // measure 22
0001
0000
0000
0000
,  // measure 23
0020
0000
0030
0000
,  // measure 24
0010
0000
0000
0000
,  // measure 25
0100
0000
0000
0000
,  // measure 26
1000
0000
0000
0000
,  // measure 27
0020
0000
0030
0000
,  // measure 28
1000
0000
0000
0000
,  // measure 29
0001
0000
0001
0000
,  // measure 30
0001
0000
0000
0000
,  // measure 31
0020
0000
0030
0000
,  // measure 32
0200
0000
0300
0000
,  // measure 33
1000
0000
1000
0000
,  // measure 34
2000
0000
3000
0000
,  // measure 35
0010
0000
0010
0000
,  // measure 36
0010
0000
0000
0000
,  // measure 37
0100
0000
0000
0000
,  // measure 38
0001
0000
0000
0000
,  // measure 39
1000
0000
0000
0000
,  // measure 40
1001
0000
0000
0000
;

//---------------dance-single - ----------------
#NOTEDATA:;
#CHARTNAME:;
#STEPSTYPE:dance-single;
#DESCRIPTION:;
#CHARTSTYLE:;
#DIFFICULTY:Easy;
#METER:5;
#RADARVALUES:0.226708,0.239130,0.097826,0.000000,0.000000,146.000000,137.000000,9.000000,0.000000,0.000000,0.000000,0.000000,0.000000,0.000000,0.226708,0.239130,0.097826,0.000000,0.000000,146.000000,137.000000,9.000000,0.000000,0.000000,0.000000,0.000000,0.000000,0.000000;
#CREDIT:RaverAce;
#DISPLAYBPM:110.000000;
#NOTES:
// measure 0
0000
0000
0000
0000
,  // measure 1
0000
0000
0000
0000
,  // measure 2
1001
1000
0100
1000
,  // measure 3
0001
0100
0001
1000
,  // measure 4
1001
0001
0010
0100
,  // measure 5
1000
0010
0100
0001
,  // measure 6
1001
0100
0010
0100
,  // measure 7
0010
0000
0100
0000
,  // measure 8
1001
1000
0010
0000
,  // measure 9
0100
0001
0010
0000
,  // measure 10
0100
1000
0001
0100
,  // measure 11
0010
1000
0100
0000
,  // measure 12
1000
0001
0010
0000
,  // measure 13
0001
1000
0010
0000
,  // measure 14
1000
0001
0100
0001
,  // measure 15
1000
0100
1000
0000
,  // measure 16
1001
0001
0100
0010
,  // measure 17
1000
0100
0010
0001
,  // measure 18
0100
1000
0100
0001
,  // measure 19
0010
0100
1000
0001
,  // measure 20
0101
0100
0010
1000
,  // measure 21
0100
0010
0001
0000
,  // measure 22
1000
0010
0100
0001
,  // measure 23
1000
0010
1000
0100
,  // measure 24
1100
0100
0010
0001
,  // measure 25
0100
0010
1000
0000
,  // measure 26
0001
0010
0100
1000
,  // measure 27
0001
0100
0001
1000
,  // measure 28
1010
0010
0100
0010
,  // measure 29
0001
0010
0100
0010
,  // measure 30
1000
0100
0010
0100
,  // measure 31
0001
0100
0010
0001
,  // measure 32
0011
0010
0100
1000
,  // measure 33
0010
0001
0010
0100
,  // measure 34
0001
1000
0100
0001
,  // measure 35
0100
0010
0001
1000
,  // measure 36
0010
0000
0100
0000
,  // measure 37
0001
0000
1000
0100
,  // measure 38
0001
0000
0100
0000
,  // measure 39
1000
0000
0001
0100
,  // measure 40
0010
0000
0000
0000
;

//---------------dance-single - ----------------
#NOTEDATA:;
#CHARTNAME:;
#STEPSTYPE:dance-single;
#DESCRIPTION:;
#CHARTSTYLE:;
#DIFFICULTY:Medium;
#METER:8;
#RADARVALUES:0.265528,0.282609,0.097826,0.000000,0.000000,171.000000,162.000000,9.000000,0.000000,0.000000,0.000000,0.000000,0.000000,0.000000,0.265528,0.282609,0.097826,0.000000,0.000000,171.000000,162.000000,9.000000,0.000000,0.000000,0.000000,0.000000,0.000000,0.000000;
#CREDIT:RaverAce;
#DISPLAYBPM:110.000000;
#NOTES:
// measure 0
0000
0000
0000
0000
,  // measure 1
0000
0000
0000
0000
,  // measure 2
1001
0000
0000
0001
1000
0000
0000
1000
,  // measure 3
0100
0000
0000
0100
1000
0000
0001
0000
,  // measure 4
1001
0000
0000
1000
0001
0000
0000
0001
,  // measure 5
0100
0000
0000
0100
0001
0000
1000
0000
,  // measure 6
1010
0010
0100
0001
,  // measure 7
0010
0000
0100
0000
,  // measure 8
0011
0000
0001
0000
0100
0001
0000
0000
,  // measure 9
1000
0010
1000
0010
1000
0000
0000
0000
,  // measure 10
0001
0000
1000
0000
0100
1000
0100
0000
,  // measure 11
1000
0010
0100
0000
,  // measure 12
0001
0000
0010
0000
0100
0010
0000
0000
,  // measure 13
0001
1000
0001
1000
0001
0000
0000
0000
,  // measure 14
1000
0010
0100
0001
,  // measure 15
1000
0100
1000
0000
,  // measure 16
1001
1000
0100
0001
,  // measure 17
0100
0010
0001
0100
,  // measure 18
1000
0100
0010
1000
,  // measure 19
0100
1000
0001
1000
,  // measure 20
1100
0000
0100
1000
0100
1000
0000
0000
,  // measure 21
0001
0000
0100
0001
0100
0000
0000
0000
,  // measure 22
0001
0000
0010
0001
0010
0001
0000
0000
,  // measure 23
1000
0100
1000
0001
,  // measure 24
0101
0000
0100
0001
0100
0001
0000
0000
,  // measure 25
1000
0000
0100
1000
0100
0000
0000
0000
,  // measure 26
1000
0010
1000
0010
1000
0010
1000
0001
,  // measure 27
0000
0100
0001
1000
,  // measure 28
1100
0100
0001
0100
,  // measure 29
0010
0001
0100
0010
,  // measure 30
0100
1000
0100
0010
,  // measure 31
1000
0001
1000
0000
0001
0100
0001
0000
,  // measure 32
0101
0100
1000
0100
,  // measure 33
0010
1000
0100
0010
,  // measure 34
0100
0001
0100
0010
,  // measure 35
0001
1000
0001
0000
1000
0100
1000
0000
,  // measure 36
0001
0000
0000
0100
0010
0000
0000
1000
,  // measure 37
0100
0000
0000
1000
0001
0000
0001
0000
,  // measure 38
1000
0000
0000
0100
0010
0000
0000
0001
,  // measure 39
0100
0000
0000
0001
1000
0000
1000
0000
,  // measure 40
0001
0000
0000
0000
;

//---------------dance-single - ----------------
#NOTEDATA:;
#CHARTNAME:;
#STEPSTYPE:dance-single;
#DESCRIPTION:;
#CHARTSTYLE:;
#DIFFICULTY:Hard;
#METER:11;
#RADARVALUES:0.479814,0.453804,0.141304,0.402174,0.179348,309.000000,296.000000,13.000000,37.000000,0.000000,0.000000,0.000000,0.000000,0.000000,0.479814,0.453804,0.141304,0.402174,0.179348,309.000000,296.000000,13.000000,37.000000,0.000000,0.000000,0.000000,0.000000,0.000000;
#CREDIT:Gameoson x RaverAce;
#DISPLAYBPM:110.000000;
#NOTES:
// measure 0
0000
0000
0000
0000
,  // measure 1
0000
0000
0000
0000
0000
0000
0000
0000
0000
0000
0000
0000
2002
0000
3003
0001
,  // measure 2
0010
0000
0100
0000
1000
0000
0001
0000
0100
0010
1000
0000
1010
0000
0000
0000
,  // measure 3
1000
0000
0100
0000
0010
0000
0100
0000
1000
0001
1000
0000
0001
0000
0000
1000
,  // measure 4
0010
0000
0100
0000
0001
0000
1000
0000
0100
0010
0001
0000
0011
0000
0000
0000
,  // measure 5
0001
0000
0100
0000
0010
0000
0100
0000
0001
1000
0001
0000
1000
0000
0001
0000
,  // measure 6
2000
0100
3002
0100
2003
0010
3002
0010
,  // measure 7
1003
0000
0010
0000
0100
0000
0010
0000
1000
0010
1000
0000
0012
0000
0000
0000
,  // measure 8
1003
0100
0010
0100
1000
1000
0001
0000
,  // measure 9
1000
0010
0100
0010
2000
0000
3001
0000
,  // measure 10
0001
0100
0010
0100
0001
0001
1000
0000
,  // measure 11
0001
0010
0100
0010
0002
0000
1003
0000
,  // measure 12
0001
0100
1000
0100
0010
1000
0100
0000
,  // measure 13
1000
0100
0001
0100
0010
0001
0100
0000
,  // measure 14
0001
0000
0100
0000
0010
0000
1000
0200
0000
0000
1300
0000
0010
0000
0100
0000
,  // measure 15
0002
0000
0000
0023
0000
0000
2030
0000
0000
0000
3001
0000
0100
0000
0000
1000
,  // measure 16
0010
0000
0100
0000
0001
0000
0010
0000
0100
1000
0001
0000
1001
0000
0001
0000
,  // measure 17
0100
0000
0010
0000
1000
0000
0001
0000
1000
0100
0010
0000
0001
0000
1000
0000
,  // measure 18
0002
0100
2003
0100
3002
0010
2003
0010
,  // measure 19
3001
0000
0010
0000
0100
0000
0010
0000
0001
0010
0001
0000
2010
0000
0000
0000
,  // measure 20
3001
0100
0001
0000
0100
0000
0010
0000
0001
0000
0010
0000
1000
0000
0000
1000
,  // measure 21
0010
1000
0010
0000
0100
0000
0001
0000
2000
0000
3200
0000
0320
0000
0032
0000
,  // measure 22
1003
0010
0001
1000
0100
0002
0000
0023
,  // measure 23
0000
0000
0130
0000
1000
0000
0010
0000
0100
0000
0001
1000
0001
0000
0000
0000
,  // measure 24
1000
0100
1000
0000
0100
0000
0010
0000
1000
0000
0010
0000
0001
0000
0000
0000
,  // measure 25
0002
0100
2003
0100
3001
0000
1001
0000
,  // measure 26
0001
0010
1000
0001
0100
1000
0010
0200
,  // measure 27
0000
0000
0301
0000
0010
0000
0001
0000
1000
0000
0001
1000
0001
0000
0000
0000
,  // measure 28
1000
0010
1000
0000
0010
0000
0001
0000
0010
0000
1000
0000
0001
0000
2000
0000
,  // measure 29
3100
0020
0130
0002
0103
0020
0130
2000
,  // measure 30
3001
0100
1000
0001
0010
1000
0001
0000
,  // measure 31
1000
0100
1000
0000
0001
0000
1000
0010
0000
1000
0010
0000
0100
0000
0000
0000
,  // measure 32
0001
1000
0001
0000
0010
0000
1000
0010
0000
0100
0010
0000
0001
0000
0011
0000
,  // measure 33
0000
1100
0000
1010
0000
0101
0000
1001
,  // measure 34
0001
0100
0001
0000
1000
0000
0001
0010
0000
0001
0010
0000
0100
0000
0000
0000
,  // measure 35
1000
0000
0010
0000
0001
0000
0010
0000
0100
0010
0100
0000
0010
0000
0000
0000
,  // measure 36
1001
0000
1000
0100
0001
0000
0001
0100
,  // measure 37
1000
0000
0000
0000
0001
0000
0010
0000
2000
0000
0000
3002
0000
0000
0103
0000
,  // measure 38
1000
0000
0001
0100
1000
0000
1000
0100
,  // measure 39
0001
0000
0000
0000
1000
0000
0010
0000
0002
0000
0000
2003
0000
0000
3100
0000
,  // measure 40
0001
0010
0001
0000
0010
0000
1000
0000
0010
0000
0002
0000
0000
0000
0000
0000
,  // measure 41
0000
0000
0000
0003
;

//---------------dance-single - ----------------
#NOTEDATA:;
#CHARTNAME:;
#STEPSTYPE:dance-single;
#DESCRIPTION:;
#CHARTSTYLE:;
#DIFFICULTY:Challenge;
#METER:14;
#RADARVALUES:0.645963,0.658016,0.489130,0.239130,0.614130,416.000000,371.000000,45.000000,22.000000,0.000000,0.000000,0.000000,0.000000,0.000000,0.645963,0.658016,0.489130,0.239130,0.614130,416.000000,371.000000,45.000000,22.000000,0.000000,0.000000,0.000000,0.000000,0.000000;
#CREDIT:Gameoson x RaverAce;
#DISPLAYBPM:110.000000;
#NOTES:
// measure 0
0000
0000
0000
0000
,  // measure 1
0000
0000
0000
0000
0000
0000
0000
0000
0000
0000
0000
0000
2002
0000
3003
0001
,  // measure 2
0010
0001
0010
0001
1000
0000
0001
0100
0010
1000
0010
1000
0100
0000
1000
0000
,  // measure 3
0010
1000
0010
1000
0100
0000
0010
0001
0100
0001
0100
0001
1000
0000
0000
1000
,  // measure 4
0010
1000
0010
1000
0001
0000
1000
0100
0010
0001
0010
0001
0100
0000
0001
0000
,  // measure 5
0010
0001
0010
0001
0100
0000
0010
1000
0100
1000
0100
1000
0001
1000
0010
0100
,  // measure 6
0000
0100
0010
1000
0000
0001
0010
0100
0000
0100
0010
0001
0000
0001
1000
0001
,  // measure 7
0100
0010
0100
0010
1000
0001
0010
0100
1000
0001
1000
0000
0102
0000
0000
0000
,  // measure 8
1003
0000
0001
0010
0001
0000
0010
0000
0011
0000
2100
0000
3001
0000
0000
0000
,  // measure 9
1000
0001
0001
0101
2010
0000
3100
0010
,  // measure 10
0001
0000
1000
0010
1000
0000
0010
0000
1010
0000
0101
0000
1002
0000
0000
0000
,  // measure 11
0013
0000
0100
0010
0100
0000
1100
0000
0012
0000
0000
0000
0103
0000
0010
0000
,  // measure 12
1000
0001
1000
0100
0110
1001
1000
0000
,  // measure 13
0001
0010
0100
0110
1001
0000
0001
0000
,  // measure 14
1000
0000
0010
0000
0001
0000
0010
0100
0000
0000
0001
0000
1000
0000
0100
0000
,  // measure 15
1100
0000
0000
0011
0000
0000
1001
0000
0000
0000
1000
0000
0001
0000
0000
1000
,  // measure 16
0010
1000
0010
1000
0100
0000
0010
0100
1000
0001
0100
0010
1000
0000
0001
0000
,  // measure 17
0100
0001
0100
0001
0010
0000
0100
1000
0010
1000
0010
0100
0001
1000
0100
0010
,  // measure 18
0000
0010
0100
1000
0000
0001
0100
0010
0000
0010
0100
0001
0000
1000
0001
1000
,  // measure 19
0100
0010
0100
0010
0001
1000
0010
0100
0001
1000
0001
0000
2100
0000
0000
0000
,  // measure 20
3001
0100
0010
0100
1000
0000
0001
0000
0010
0000
1000
0000
1001
0000
0000
1000
,  // measure 21
0100
0010
0100
0000
0001
0000
0100
0000
1000
0001
0100
0000
1000
0000
0100
0000
,  // measure 22
0001
0010
1000
0010
0100
1000
0010
2010
,  // measure 23
0000
3100
0000
0000
0011
0000
1001
0000
1010
0000
0010
0100
0001
0000
0000
0000
,  // measure 24
1000
0100
0010
0100
0001
0000
1000
0000
0010
0000
0001
0000
1001
0000
0000
0000
,  // measure 25
0102
1003
2100
3001
2002
3003
0001
1000
,  // measure 26
0010
0001
0010
0100
0001
0010
0100
0012
,  // measure 27
0000
0103
0000
0000
1010
0000
1001
0000
0011
0000
0010
0100
1000
0000
0000
0000
,  // measure 28
1000
0010
0100
0010
0001
0000
1000
0000
0100
0000
0001
0000
0000
1000
0100
0010
,  // measure 29
0000
1000
0010
0001
0000
0001
0100
0010
0000
0001
0010
1000
0000
0100
0010
0001
,  // measure 30
0100
1000
0100
0001
0010
1000
0010
0100
,  // measure 31
1000
0010
0100
0010
1000
0000
0010
0100
0000
0001
0100
0010
1000
0000
0000
0000
,  // measure 32
0001
0010
0100
0010
1000
0000
0010
0001
0000
1000
0010
0100
0001
0000
2010
0000
,  // measure 33
3100
0012
0103
2010
3100
0012
0103
2010
,  // measure 34
3001
0010
0100
0010
0001
0000
0010
0100
0000
1000
0100
0010
0001
0000
0000
0000
,  // measure 35
1000
0010
0001
0010
1000
0000
0001
0000
1000
0100
0001
0000
0100
0000
0000
0000
,  // measure 36
1001
0000
1000
0010
1010
0000
1000
0001
,  // measure 37
0011
0000
0000
0000
0001
0000
1000
0000
1200
0000
0000
0001
0000
0000
1300
0000
,  // measure 38
1001
0000
0001
0010
0011
0000
0001
1000
,  // measure 39
1010
0000
0000
0000
1000
0000
0001
0000
0201
0000
0000
1000
0000
0000
0301
0000
,  // measure 40
1000
0100
0010
0100
0001
0000
1000
0000
0010
0000
0002
0000
0000
0000
0000
0000
,  // measure 41
0000
0000
0000
0003
;
