#VERSION:0.83;
#TITLE:ワニとシャンプー;
#SUBTITLE:(ZZ ver.);
#ARTIST:ももいろクローバーZ;
#TITLETRANSLIT:Wani to Shampoo;
#SUBTITLETRANSLIT:(ZZ ver.);
#ARTISTTRANSLIT:Momoiro Clover Z;
#GENRE:;
#ORIGIN:;
#CREDIT:;
#BANNER:;
#BACKGROUND:;
#PREVIEWVID:;
#JACKET:;
#CDIMAGE:;
#DISCIMAGE:;
#LYRICSPATH:;
#CDTITLE:;
#MUSIC:Wani to Shampoo (ZZ ver.).ogg;
#OFFSET:-0.621000;
#SAMPLESTART:64.343224;
#SAMPLELENGTH:12.000000;
#SELECTABLE:YES;
#BPMS:0.000=135.000;
#STOPS:;
#DELAYS:;
#WARPS:;
#TIMESIGNATURES:0.000=4=4;
#TICKCOUNTS:0.000=4;
#COMBOS:0.000=1;
#SPEEDS:0.000=1.000=0.000=0;
#SCROLLS:0.000=1.000;
#FAKES:;
#LABELS:0.000=Song Start;
#BGCHANGES:;
#KEYSOUNDS:;
#ATTACKS:
;

//---------------dance-single - ----------------
#NOTEDATA:;
#CHARTNAME:;
#STEPSTYPE:dance-single;
#DESCRIPTION:;
#CHARTSTYLE:;
#DIFFICULTY:Hard;
#METER:14;
#RADARVALUES:0.614905,0.685363,0.389440,0.655899,0.450931,420.000000,382.000000,38.000000,64.000000,0.000000,0.000000,0.000000,0.000000,0.000000,0.614905,0.685363,0.389440,0.655899,0.450931,420.000000,382.000000,38.000000,64.000000,0.000000,0.000000,0.000000,0.000000,0.000000;
#CREDIT:nobarben;
#NOTES:
0000
0000
0000
0000
,
0000
0000
0000
0000
0000
0000
0000
0101
,
0101
0000
0000
1100
1100
0000
0000
1001
,
0001
0000
0010
0000
0100
0000
1000
0000
0010
0000
0100
0000
0001
0000
0000
1000
0000
0000
2002
0000
0000
3003
0000
0000
,
2000
0000
0000
0000
3100
0000
1000
0000
0001
0000
0010
0000
0100
0000
0010
0002
,
0000
0000
1003
0010
1000
0010
0000
0100
0000
0001
0000
1000
0100
0000
0010
0000
,
0002
0000
0000
0000
0103
0000
0001
0000
1000
0000
0010
0000
0100
0000
0010
1000
,
0002
0023
0230
2300
,
3002
0000
0000
0000
0013
0000
0001
0000
1000
0000
0010
0000
0100
0000
0010
2000
,
0000
0000
3001
0010
0001
0010
0000
0100
0000
1000
0000
0001
0100
0000
0010
0000
,
2000
0000
3100
0010
0100
1000
0001
0100
,
0000
0000
1010
0000
0000
1100
0000
0000
2002
0000
0000
0000
3003
0000
0000
0000
,
0002
0000
0013
0001
0100
1000
0100
0010
,
1000
0000
0001
0010
0100
0000
1000
0000
0020
0000
0000
1030
0000
0000
0001
0000
,
0020
0000
0130
1000
0010
0001
0010
0100
,
0002
0000
0000
0023
0000
0000
0130
0000
1000
0000
0000
1000
0000
0000
0001
0000
,
0200
0000
0310
1000
0100
0001
0100
0010
,
0011
0000
0000
0000
0101
0000
0000
0000
0120
0000
0000
1030
0000
0000
0001
0000
,
0020
0000
0000
0000
0230
0000
0000
0310
0001
0000
1000
0000
0010
0000
0100
0000
,
0002
1000
1000
0010
1003
0000
1001
0000
,
2000
0000
3010
1000
0100
0001
0100
0010
,
0001
0000
1000
0010
0100
0000
0001
0000
0020
0000
0000
0031
0000
0000
1000
0000
,
0020
0000
0130
0001
0010
1000
0010
0100
,
2000
0000
0000
3020
0000
0000
0130
0000
0001
0000
0000
0001
0000
0000
1000
0000
,
0200
0000
0310
0001
0100
1000
0100
0010
,
1010
0000
0000
0000
1100
0000
0000
0000
0120
0000
0000
0031
0000
0000
0100
0000
,
0201
0310
1000
0001
1200
0310
0001
2000
,
0000
0001
0001
0100
3001
0000
1001
0000
,
1000
0000
0001
0000
0010
0100
1000
0000
0020
0000
0000
0100
0000
0000
1030
0000
,
0002
0000
0000
1003
0100
0000
0010
0000
0200
0000
0000
0010
0000
0000
1300
0000
,
0001
0000
1000
0010
0100
0000
0001
0000
0020
0000
0000
0100
0000
0000
0031
0000
,
0011
0101
1010
1001
,
1000
0000
0001
0000
0010
0000
0100
1000
0020
0000
0000
0001
0000
0000
0130
0000
,
0001
0000
1000
0000
0010
0000
0100
0001
0020
0000
0000
1000
0000
0000
0130
0000
,
2000
3020
0230
0302
,
1003
0000
0100
0000
0010
0000
0001
0000
0100
0000
0010
0000
1000
0000
0000
0001
0000
0000
0002
0000
0000
1003
0000
0000
,
1200
0000
0310
0001
0000
0000
0100
0000
0201
0000
0310
1000
0000
0000
1002
0000
,
0000
0000
0013
0100
0010
0000
0001
0100
0020
0000
1030
0001
0000
0000
0010
0000
,
0021
0000
0130
1000
0000
0000
0010
0000
1020
0000
0130
0001
0000
0000
1000
0000
,
1100
1010
0011
0101
,
1000
0100
1000
0100
1000
0000
0001
0010
0200
0000
1300
0001
0000
0000
1000
0001
,
0100
0000
0010
0100
0010
0100
0000
0001
0020
0000
0031
1000
0000
0000
0001
0000
,
0010
1000
0010
0001
0100
1000
0100
0001
,
1000
0000
0100
0000
0001
0000
0100
0000
1000
0010
0100
0001
0000
0001
0010
0100
,
2000
0000
3001
0010
0000
0000
0100
0010
0002
0000
1003
0010
0000
0000
0210
0000
,
0000
0000
0301
1000
0100
0000
0010
0100
2000
0000
3001
0010
0000
0000
0001
1000
,
0020
0000
0130
0001
0000
0000
1000
0001
0020
0000
0130
1000
0000
0000
0001
0000
,
0101
0011
1010
1100
,
0001
0100
0001
0100
0001
0000
1000
0001
0010
0100
0010
0200
0000
0000
1300
0001
,
0100
0010
0000
0010
1000
0000
0001
1000
0100
0010
0100
0020
0000
0000
0031
0000
,
0100
1000
0100
0001
0010
1000
0010
0001
,
1000
0000
0010
0000
0001
0000
0010
0000
1000
0000
0001
0010
0100
1000
0010
0100
,
0002
0000
0000
0000
0000
0000
0000
0000
0000
0000
0000
0000
0003
0000
1000
0001
,
2002
0000
3003
0000
;

//---------------dance-double - ----------------
#NOTEDATA:;
#CHARTNAME:;
#STEPSTYPE:dance-double;
#DESCRIPTION:;
#CHARTSTYLE:;
#DIFFICULTY:Challenge;
#METER:15;
#RADARVALUES:0.705677,0.678958,0.225465,0.645651,0.717390,482.000000,460.000000,22.000000,63.000000,0.000000,0.000000,0.000000,0.000000,0.000000,0.705677,0.678958,0.225465,0.645651,0.717390,482.000000,460.000000,22.000000,63.000000,0.000000,0.000000,0.000000,0.000000,0.000000;
#CREDIT:nobarben;
#NOTES:
00000000
00000000
00000000
00000000
,
00000000
00000000
00000000
00000000
00000000
00000000
00000000
10000000
,
11000000
00000000
00000000
00010000
00110000
00000000
00000000
00100000
,
00001000
00000000
00010000
00000000
00001000
00000000
00010000
00000000
00001000
00000000
00010000
00000000
00000100
00000000
00000000
00000010
00000000
00000000
00000002
00000000
00000000
00000000
00000000
00000000
,
00001003
00000000
00000001
00000000
00000100
00000001
00000100
00000000
00000010
00000000
00001000
00000000
00000100
00001000
00000100
00000000
,
00010000
00000000
00001000
00010000
00001000
01000000
00000000
00010000
00000000
01000000
00000000
00100000
10000000
00000000
00010000
00000000
,
10000000
00000000
00010000
00000000
10000000
01000000
10000000
00000000
01000000
00000000
00100000
00000000
00010000
00100000
00010000
00000000
,
20000000
00000000
31000000
00100000
00020000
00000000
00130000
00001000
00020000
00000000
00031000
00010000
00000200
00000000
00000310
00000001
,
00001000
00000000
00000010
00000000
00000100
00000001
00001000
00000000
00000010
00000000
00001000
00000000
00000100
00010000
00001000
00000000
,
01000000
00000000
00010000
01000000
00100000
10000000
00000000
00010000
00000000
10000000
00000000
01000000
00100000
00000000
00010000
00000000
,
10000000
00000000
00100000
00000000
01000000
00010000
10000000
00000000
01000000
00000000
00100000
00000000
00010000
01000000
00001000
00000000
,
00010000
00000000
00000000
00000000
00000000
00000000
00011000
00000000
00000000
00000000
00000000
00000000
00000000
00000000
00000000
00010100
00000000
00000000
00000000
00000000
00000000
00000000
00000000
00000000
00001100
00000000
00000000
00000000
00000000
00000000
00001000
00000000
00000001
00000000
00001000
00000000
00000002
00000000
00000000
00000000
00000000
00000000
00000000
00000000
00000000
00000000
00000000
00000000
,
00000023
00000000
00000031
00000100
00001000
00010000
01000000
10000000
,
00010000
00000000
10000000
01000000
00100000
00000000
01000000
00100000
00010000
00000000
00000000
10000000
00000000
00000000
00100000
00000000
,
02000000
00000000
03100000
10000000
01000000
00010000
00001000
00000100
,
00000002
00000000
00000000
00002003
00000000
00000000
00003010
00000000
00000100
00000000
00000000
00000100
00000000
00000000
00000001
00000000
,
00002000
00000000
00000000
00000000
00003100
00000000
00000010
00000001
00001000
00000000
00000010
00000000
00000100
00000000
00001000
00000000
,
00011000
00000000
00000000
00000000
01001000
00000000
00000000
00000000
02010000
00000000
00000000
03100000
00000000
00000000
10000000
00000000
,
00020000
00000000
00000000
00000000
00230000
00000000
00000000
01300000
00010000
00000000
00001000
00000000
00000100
00000000
00000010
00000000
,
00020000
00000000
00000000
00001000
00000000
00000000
00001000
00000000
00000000
00000100
00000000
00000000
00031000
00000000
00000000
00010000
00001000
00010000
00002000
00000000
00000000
00000000
00000000
00000000
,
00203000
00000000
00310000
01000000
00100000
00010000
00001000
00000100
,
00000010
00000000
00001000
00000100
00000010
00000000
00000100
00000010
00000001
00000000
00000000
00000001
00000000
00000000
00001000
00000000
,
00000020
00000000
00001030
00000100
00000010
00001000
00010000
01000000
,
00100000
00000000
00010000
00000000
00000000
10000000
00000000
00000000
00100000
00000000
00000000
10000000
00000000
00000000
00010000
00000000
,
00200000
00000000
00000000
00000000
01300000
00000000
10000000
00010000
01000000
00000000
00100000
00000000
00010000
00000000
00001000
00000000
,
00011000
00000000
00000000
00000000
00010100
00000000
00000000
00000000
00001200
00000000
00000000
00000310
00000001
00000100
00000010
00001000
,
00000002
00000103
00001000
00010000
02000000
03010000
00001000
00020000
,
00000000
00000000
00000000
00000100
00000000
00000000
00000100
00000000
00000000
00001000
00000000
00000000
00030100
00000000
00000000
00010000
00001000
00010000
00002000
00000000
00000000
00000000
00000000
00000000
,
00103000
00000000
01000000
10000000
00010000
10000000
00010000
00000000
01000000
00000000
00000000
20100000
00000000
00000000
30010000
00000000
,
10000000
00000000
00000000
00100000
01000000
00010000
01000000
00001000
00010000
00001000
00000000
00021000
00000000
00000000
00030100
00000000
,
00000010
00000000
00000001
00000100
00000001
00000100
00000010
00001000
00000001
00001000
00000000
00001200
00000000
00000000
00010300
00000000
,
00002000
00000000
00013000
00001000
02000000
00000000
03100000
10000000
00020000
00000000
10030000
01000000
00200000
00000000
00300000
00000000
,
00010000
00000000
00100000
00001000
00010000
00001000
00010000
00000100
00001000
00000000
00000000
00002100
00000000
00000000
00003001
00000000
,
00000010
00000000
00000001
00000100
00000000
00000010
00001000
00000010
00010000
00000000
00000000
00012000
00000000
00000000
01003000
00000000
,
00200000
20300000
32000000
03020000
,
00031000
00000000
00000010
00000000
00001000
00000000
00010000
00000000
00100000
00000000
00010000
00000000
00001000
00000000
00000000
00010000
00000000
00000000
00012000
00000000
00000000
01003000
00000000
00000000
,
02010000
00000000
03100000
10000000
00000000
00010000
10000000
00000000
12000000
00000000
03100000
00010000
00000000
00100000
00002000
00000000
,
00013000
00000000
00000100
00010000
00000100
00000000
00001000
00000100
00000020
00000000
00000031
00001000
00000000
00000001
00000100
00000000
,
00000201
00000000
00000310
00001000
00000000
00000001
00001000
00000000
00001200
00000000
00010300
00001000
00000000
01000000
00001000
00000000
,
00200000
00000000
01300000
10000000
02000000
00000000
03100000
00001000
00020000
00000000
00031000
00010000
00000200
00000000
00000300
00000000
,
00000010
00000001
00001000
00000001
00000100
00000000
00000010
00001000
00000002
00000000
00001003
00000100
00000000
00000000
00010000
00001000
,
01000000
00010000
10000000
00010000
01000000
00100000
00000000
10000000
00020000
00000000
00130000
01000000
00000000
00000000
10000000
00000000
,
01000000
00010000
01000000
10000000
00100000
00010000
00001000
00010000
,
01000000
00000000
00010000
00000000
00001000
00000000
00000100
00000000
00000001
00000010
00000100
00001000
00000000
00001000
00000001
00000100
,
00000020
00000030
00001000
00000010
00000000
00001000
00000100
00010000
00002000
00003000
01000000
00001000
00000000
01000000
00200000
00000000
,
10300000
00000000
00010000
10000000
01000000
00000000
10000000
00010000
00200000
00300000
01000000
00100000
00000000
00010000
00100000
00001000
,
00020000
00030000
00001000
00010000
00000000
00000100
00001000
00000100
00000020
00000030
00000001
00001000
00000000
00000001
00000100
00000000
,
00000020
00000000
00000130
00000010
00002000
00000000
00003100
00010000
00002000
00000000
01003000
00010000
02000000
00000000
03000000
00000000
,
00100000
10000000
00010000
10000000
01000000
00000000
00100000
00001000
00010000
00001000
00010000
00002000
00000000
00000000
00013000
00000100
,
00000010
00000001
00000000
00001000
00000001
00000000
00000100
00000010
00010000
00001000
00010000
00002000
00000000
00000000
00013000
00000000
,
00001000
00000100
00001000
00010000
01000000
10000000
00100000
00010000
,
00001000
00000000
00000100
00000000
00000001
00000000
00000010
00000000
00001000
00000000
00010000
01000000
00100000
00001000
00010000
00000100
,
00002000
00000000
00000000
00000000
00000000
00000000
00000000
00000000
00000000
00000000
00000000
00000000
00003000
00000000
00000001
00001000
,
00001001
00000000
00000000
00000000
;

//---------------dance-single - ----------------
#NOTEDATA:;
#CHARTNAME:;
#STEPSTYPE:dance-single;
#DESCRIPTION:;
#CHARTSTYLE:;
#DIFFICULTY:Challenge;
#METER:15;
#RADARVALUES:0.759847,0.791306,0.563663,0.737886,0.737886,519.000000,464.000000,55.000000,72.000000,0.000000,0.000000,0.000000,0.000000,0.000000,0.759847,0.791306,0.563663,0.737886,0.737886,519.000000,464.000000,55.000000,72.000000,0.000000,0.000000,0.000000,0.000000,0.000000;
#CREDIT:nobarben;
#NOTES:
0000
0000
0000
0000
,
0000
0000
0000
0000
0000
0000
0000
1010
,
1001
0000
0000
0011
1001
0000
0000
1010
,
1001
0000
0001
0000
0010
0000
0100
0000
0100
0000
1000
0000
0001
0000
0000
1000
0000
0000
2002
0000
0000
3003
0000
0000
,
2000
0000
0100
0000
3100
0000
1000
0001
0010
0000
0100
0000
0010
0000
0001
2000
,
0010
0000
3010
0100
0010
0100
0000
1000
0000
0100
0000
0001
1000
0000
1000
0000
,
0002
0000
0010
0000
0013
0000
0001
1000
0010
0000
0100
0000
0010
0000
1000
0001
,
0020
0000
0130
1000
0002
0000
0103
0010
2000
0000
3001
0010
0200
0000
0310
0000
,
0002
0000
0100
0000
0103
0000
0001
1000
0010
0000
0100
0000
0010
0000
1000
0002
,
0010
0000
0013
0100
0010
0100
0000
0001
0000
0100
0000
1000
0001
0000
0001
0000
,
2000
0000
0010
0000
3010
0000
1000
0001
0010
0000
0100
0000
0010
0000
0001
0000
,
0000
0000
1100
0000
0000
1001
0000
0000
1010
0000
1000
0001
2000
0000
0000
0000
,
3002
0000
0000
0000
0013
0000
0001
0100
0010
0000
0100
0000
1000
0000
0100
0000
,
0010
0000
1000
0100
0010
0000
0001
0100
0010
0000
0000
1000
0000
0000
0001
0000
,
0020
0000
0000
0000
0130
0000
1000
0010
0100
0000
0010
0000
0001
0000
0010
0000
,
0200
0000
0000
0302
0000
0000
1003
0000
0100
0000
0000
0010
0000
0000
0001
1000
,
0002
0000
0000
0000
0013
0000
0001
0100
0010
0000
1000
0000
0001
0000
0010
0000
,
0110
0000
0000
0000
1100
0000
0000
0000
1002
0000
0000
0103
0010
1000
0001
0010
,
0200
0000
0000
0000
0001
0000
0000
0310
0001
0000
1000
0000
0010
0000
0100
0000
,
0010
0000
0000
0110
0000
0000
0110
0000
0000
1001
0000
0000
0110
0000
0000
1000
0001
1000
0002
0000
0000
0000
0000
0000
,
0023
0000
0000
0000
0031
0000
1000
0010
0100
0000
1000
0000
0100
0000
0010
0000
,
0001
0000
0010
0100
0001
0000
0010
0100
2000
0000
0000
3001
0000
0000
0100
0000
,
0020
0000
0000
0000
1030
0000
0001
0010
0100
0000
0001
0000
0100
0000
0010
0000
,
2000
0000
0000
3020
0000
0000
0130
0000
1000
0000
0000
0001
0000
0000
0100
0000
,
0020
0000
0000
0000
0130
0000
0001
0010
0100
0000
1000
0000
0001
0000
0100
0000
,
0110
0000
0000
0000
1010
0000
0000
0000
2001
0000
0000
3100
0010
0001
1000
0001
,
0201
0310
1000
0001
1200
0310
0001
1000
,
0000
0000
0000
1001
0000
0000
1001
0000
0000
0110
0000
0000
1001
0000
0000
0001
1000
0001
2000
0000
0000
0000
0000
0000
,
3001
0000
1000
0100
0010
0100
1000
0000
0010
0000
0000
0210
0000
0000
0301
0000
,
1000
0000
0001
0010
0100
1000
0001
1000
0010
0100
0000
0120
0000
0000
1030
0000
,
0100
0000
1000
0001
0010
0001
1000
0010
0100
0010
0000
0120
0000
0000
1030
0000
,
0002
0000
1003
0100
0020
0000
0031
0100
0020
0000
1030
0001
0020
0000
0000
0000
,
0130
0000
1000
0100
0010
0001
1000
0001
0100
0000
0000
0210
0000
0000
0301
0000
,
1000
0000
0001
0010
0000
0100
1000
0010
0100
0000
0000
0210
0000
0000
0301
0000
,
2000
3200
0320
0032
,
0103
0000
0100
0000
0010
0000
1000
0000
1000
0000
0001
0000
0010
0000
0000
0001
0000
0000
1002
0000
0000
1003
0000
0000
,
1200
0000
0310
0001
0000
1000
0001
0000
0201
0000
0310
1000
0000
0001
2000
0000
,
0000
0000
3100
0010
0001
0000
1000
0001
0200
0000
0310
1000
0000
0001
0010
0000
,
0021
0000
0130
1000
0000
0001
0100
0000
1020
0000
0130
0001
0000
1000
0100
0000
,
0021
0000
0130
1000
0002
0000
0103
0010
2000
0000
3001
0010
0200
0000
0300
0000
,
1000
0100
0010
0001
1000
0000
0001
0100
0010
0000
1000
0002
0000
0000
1003
0010
,
0100
0000
0010
1000
0001
0010
0000
0100
0010
0000
0001
2000
0000
0000
3010
0000
,
1000
1100
0001
0101
1000
1010
0001
0011
,
1001
0000
1010
0000
0110
0000
0101
0000
1000
0100
0010
0001
0000
0001
0100
0010
,
2000
0000
3001
0100
0000
0001
1000
0100
0020
0000
0130
1000
0000
0001
0200
0000
,
0000
0000
0310
1000
0002
0000
1003
0100
0020
0000
0031
1000
0000
0001
0100
0010
,
2000
0000
3100
0010
0000
0100
1000
0010
0200
0000
0301
0010
0000
0100
0010
0001
,
0200
0000
0310
1000
0002
0000
0013
0100
2000
0000
3001
0100
0020
0000
1030
0000
,
0001
0010
0100
1000
0001
0000
1000
0010
0100
0010
1000
0001
0000
0000
0010
0100
,
1000
0001
0000
0100
0010
0000
0100
0010
1000
0001
1000
0200
0000
0000
0310
0000
,
0001
0101
1000
1100
0001
0011
1000
1010
,
1001
0000
0011
0000
0110
0000
1100
0000
1001
0000
1000
0010
0100
0001
0010
0100
,
2000
0000
0000
0000
0000
0000
0000
0000
0000
0000
0000
0000
3000
0000
0001
1000
,
2002
3003
0000
0000
;

//---------------dance-single - ----------------
#NOTEDATA:;
#CHARTNAME:;
#STEPSTYPE:dance-single;
#DESCRIPTION:;
#CHARTSTYLE:;
#DIFFICULTY:Medium;
#METER:10;
#RADARVALUES:0.461179,0.466047,0.133229,0.563663,0.092236,315.000000,302.000000,13.000000,55.000000,0.000000,0.000000,0.000000,0.000000,0.000000,0.461179,0.466047,0.133229,0.563663,0.092236,315.000000,302.000000,13.000000,55.000000,0.000000,0.000000,0.000000,0.000000,0.000000;
#CREDIT:nobarben;
#NOTES:
// measure 0
0000
0000
0000
0000
,  // measure 1
0000
0000
0000
0000
0000
0000
0000
0001
,  // measure 2
0001
0000
0000
1000
1000
0000
0000
0001
,  // measure 3
0002
0000
0023
0000
0130
1000
1001
0000
,  // measure 4
0002
0000
0010
0000
0103
0010
1000
0000
,  // measure 5
0001
0010
0001
0010
0100
0010
0001
0000
,  // measure 6
2000
0000
0010
0000
3100
0010
0001
0000
,  // measure 7
2000
3020
0230
0302
,  // measure 8
2003
0000
0010
0000
3100
0010
0001
0000
,  // measure 9
1000
0010
1000
0010
0100
0010
1000
0000
,  // measure 10
0002
0000
0010
0000
0103
0010
1000
0001
,  // measure 11
0000
0000
0010
0000
0000
0100
0000
0000
0110
0000
0000
0000
0000
0000
0000
0000
,  // measure 12
0002
0000
0010
0000
0013
0100
1000
0000
,  // measure 13
0001
0000
0100
0000
0010
0000
1000
0000
0002
0000
0000
0010
0000
0000
0013
0000
,  // measure 14
0200
0000
1300
0010
0100
0001
1000
0001
,  // measure 15
0020
0000
0000
0230
0000
0000
1300
0000
0001
0000
0000
0001
0000
0000
0100
0000
,  // measure 16
0020
0000
1030
0100
0010
0001
1000
0000
,  // measure 17
1010
0000
0000
0000
0110
0000
0000
0000
0102
0000
0000
1000
0003
0000
1000
0000
,  // measure 18
0002
0000
0023
0000
0031
0100
0010
0000
,  // measure 19
1000
0100
0100
0010
0100
0000
1001
0000
,  // measure 20
2000
0000
0010
0000
3010
0100
0001
0000
,  // measure 21
1000
0000
0100
0000
0010
0000
0001
0000
2000
0000
0000
0010
0000
0000
3010
0000
,  // measure 22
0200
0000
0301
0010
0100
1000
0001
1000
,  // measure 23
0020
0000
0000
0230
0000
0000
0301
0000
1000
0000
0000
1000
0000
0000
0100
0000
,  // measure 24
0020
0000
0031
0100
0010
1000
0001
0000
,  // measure 25
0011
0000
0000
0000
0110
0000
0000
0000
2100
0000
0000
0001
3000
0000
0001
0000
,  // measure 26
0102
0000
1003
0000
2100
0000
3001
0100
,  // measure 27
0000
0010
0010
0100
0010
0000
1001
0000
,  // measure 28
1000
0000
0100
0000
0010
0000
0001
0000
1000
0000
0000
0020
0000
0000
0130
0000
,  // measure 29
0001
0000
0010
0000
0100
0000
1000
0000
0001
0000
0000
0200
0000
0000
0310
0000
,  // measure 30
1000
0000
0100
0000
0010
0000
0001
0000
1000
0000
0000
0020
0000
0000
0130
0000
,  // measure 31
0002
0023
0230
2300
,  // measure 32
3001
0000
0100
0000
1000
0000
0100
0000
0001
0000
0000
2000
0000
0000
3010
0000
,  // measure 33
1000
0000
0100
0000
0001
0000
0100
0000
1000
0000
0000
0002
0000
0000
0013
0000
,  // measure 34
0200
2300
3020
0230
,  // measure 35
0301
1000
0001
1000
0001
1000
0002
0000
0000
0023
0000
0000
,  // measure 36
0031
0100
1000
0000
0001
0010
1000
0000
,  // measure 37
0001
0010
1000
0010
0001
1000
0001
0000
,  // measure 38
1000
0100
0001
0000
1000
0010
0001
0000
,  // measure 39
2000
3020
0032
0023
,  // measure 40
1030
0100
0010
0100
0001
0100
0010
0000
,  // measure 41
0001
0100
0010
0100
1000
0100
0010
0000
,  // measure 42
1000
0100
0010
0100
1000
0010
0100
0010
,  // measure 43
1000
0100
0010
0001
0200
0000
0310
0000
,  // measure 44
1000
0010
0001
0000
1000
0100
0001
0000
,  // measure 45
1000
0100
0001
0100
1000
0001
1000
0000
,  // measure 46
0001
0010
1000
0000
0001
0100
1000
0000
,  // measure 47
0002
0203
2300
3200
,  // measure 48
0301
0010
0100
0010
1000
0010
0100
0000
,  // measure 49
1000
0010
0100
0010
0001
0010
0100
0000
,  // measure 50
0001
0010
0100
0010
0001
0100
0010
0100
,  // measure 51
0001
0010
0100
1000
0001
0100
0010
1000
,  // measure 52
0200
0000
0000
0300
,  // measure 53
2002
0000
3003
0000
;

//---------------dance-single - ----------------
#NOTEDATA:;
#CHARTNAME:;
#STEPSTYPE:dance-single;
#DESCRIPTION:;
#CHARTSTYLE:;
#DIFFICULTY:Easy;
#METER:6;
#RADARVALUES:0.325021,0.491156,0.573912,0.532918,0.000000,222.000000,166.000000,56.000000,52.000000,0.000000,0.000000,0.000000,0.000000,0.000000,0.325021,0.491156,0.573912,0.532918,0.000000,222.000000,166.000000,56.000000,52.000000,0.000000,0.000000,0.000000,0.000000,0.000000;
#CREDIT:nobarben;
#NOTES:
// measure 0
0000
0000
0000
0000
,  // measure 1
0000
0000
0000
0000
,  // measure 2
1001
0000
0110
0000
,  // measure 3
1001
0110
1001
0000
,  // measure 4
0002
0010
0010
0013
,  // measure 5
0100
1000
1001
0000
,  // measure 6
2000
0010
0010
3010
,  // measure 7
0200
0302
2003
3200
,  // measure 8
0320
0001
0001
0031
,  // measure 9
1000
0010
0110
0000
,  // measure 10
0020
1000
1000
1030
,  // measure 11
0000
0001
2002
3003
,  // measure 12
2000
0000
3001
0010
,  // measure 13
1000
0010
0001
0000
,  // measure 14
2000
0000
3001
0100
,  // measure 15
0020
0000
1030
0001
,  // measure 16
2000
3000
0100
0010
,  // measure 17
0002
2003
3002
0000
,  // measure 18
0103
0000
0100
0000
0010
0100
0010
0000
,  // measure 19
0220
0000
0330
0000
,  // measure 20
0002
0000
1003
0010
,  // measure 21
0001
0010
1000
0000
,  // measure 22
0002
0000
1003
0100
,  // measure 23
0020
0000
0031
1000
,  // measure 24
0002
0003
0100
0010
,  // measure 25
2000
3002
2003
0000
,  // measure 26
3100
0010
0100
0000
0010
0100
0010
0000
,  // measure 27
0000
0110
0220
0330
,  // measure 28
1000
0100
1100
0000
,  // measure 29
0001
0100
0101
0000
,  // measure 30
1000
0010
1010
0000
,  // measure 31
0001
0010
0110
1001
,  // measure 32
0001
0100
0101
0000
,  // measure 33
1000
0100
1100
0000
,  // measure 34
0002
0023
0230
2300
,  // measure 35
3001
1000
2002
3003
,  // measure 36
1100
1000
1001
0001
,  // measure 37
0101
0101
1001
0000
,  // measure 38
0011
0001
1001
1000
,  // measure 39
1010
1010
1001
0000
,  // measure 40
2000
3020
0230
0000
,  // measure 41
0302
0023
0230
0300
,  // measure 42
1100
1100
1001
1001
,  // measure 43
0101
0101
2002
3003
,  // measure 44
0101
0001
1001
1000
,  // measure 45
1100
1100
1001
0000
,  // measure 46
1010
1000
1001
0001
,  // measure 47
0011
0011
1001
0000
,  // measure 48
0002
0023
0230
0000
,  // measure 49
2300
3020
0230
0300
,  // measure 50
0101
0101
1001
1001
,  // measure 51
1100
1001
0101
1001
,  // measure 52
0220
0000
0000
0330
,  // measure 53
2002
3003
0000
0000
;
