#TITLE:WORLD COLOR;
#SUBTITLE:;
#ARTIST:猫叉Master feat. 林ももこ;
#TITLETRANSLIT:;
#SUBTITLETRANSLIT:;
#ARTISTTRANSLIT:Nekomata Master feat. MOMOKO HAYASHI;
#GENRE:VITAMIN POP;
#CREDIT:DigiMindAxel;
#BANNER:WORLD COLOR.png;
#BACKGROUND:WORLD COLOR-bg.png;
#LYRICSPATH:;
#CDTITLE:cdtitle.png;
#MUSIC:WORLD COLOR.ogg;
#OFFSET:-0.491000;
#SAMPLESTART:83.400002;
#SAMPLELENGTH:17.455000;
#SELECTABLE:YES;
#DISPLAYBPM:110.000000;
#BPMS:0.000000=110.000000
;
#STOPS:
;
#BGCHANGES:;
#KEYSOUNDS:;
#ATTACKS:;

//---------------dance-single - ----------------
#NOTES:
     dance-single:
     Colorful Planet:
     Hard:
     12:
     0.453899,0.456399,0.061546,0.230796,0.230796,413.000000,405.000000,8.000000,30.000000,0.000000,0.000000,0.453899,0.456399,0.061546,0.230796,0.230796,413.000000,405.000000,8.000000,30.000000,0.000000,0.000000:
// measure 0
0000
0000
0000
0000
,  // measure 1
0000
0000
0000
0000
,  // measure 2
0000
0000
0000
0000
,  // measure 3
2000
3020
0230
0302
,  // measure 4
0023
0000
0230
0000
1300
0001
0100
0010
,  // measure 5
0100
0000
0000
0000
0000
0000
0001
0000
0000
0000
0000
1000
0000
0000
0000
0000
0000
0000
0100
0000
0000
0010
0000
0000
,  // measure 6
0001
0000
1000
0000
0000
0000
0010
0000
0000
0100
0000
0001
0000
0000
0010
0000
0000
0000
1000
0000
0000
0010
0000
0000
,  // measure 7
0002
0203
0320
2030
,  // measure 8
3100
0010
0001
0100
,  // measure 9
0001
0000
0000
0000
0000
0010
0001
0000
0000
1000
0000
0000
0010
0000
0100
0001
0000
0000
0010
0000
0100
1000
0000
0000
,  // measure 10
0002
0000
0000
0000
0000
0000
0100
0000
0000
0010
0000
0000
1003
0000
0010
0100
0000
0000
0001
0000
1000
0100
0000
0000
,  // measure 11
0010
0000
0000
0000
0000
0001
0100
0000
0000
0001
0000
0000
0010
0000
0000
0100
0000
0000
1000
0000
0001
0100
0000
0000
,  // measure 12
0010
0000
0000
0010
0000
0000
0100
0000
0000
0100
0000
0000
0001
0000
0000
0001
0000
0000
0010
0000
0100
1000
0000
0000
,  // measure 13
0001
0000
0000
0000
0000
0000
0100
0000
0000
0010
0000
0000
1000
0000
0000
0100
0000
0000
0010
0000
0000
0000
0000
0100
,  // measure 14
1000
0000
0000
0001
0000
0000
0100
0000
0000
0010
0000
0000
1000
0000
0001
0100
0000
0000
0010
0000
0000
1000
0000
0000
,  // measure 15
0100
0000
0000
0000
0000
0000
0010
0000
0000
0100
0000
0000
1000
0000
0000
0010
0000
0000
0001
0000
0000
0010
0000
0100
,  // measure 16
0000
0000
0001
1000
0000
0000
0100
0000
0000
0010
0000
0000
0100
0000
0000
0000
0000
1000
0001
0000
0000
0100
0000
0000
,  // measure 17
1000
0000
0000
0100
0000
0000
0001
0000
0000
0010
0000
0100
0000
0000
1000
0001
0000
0000
0100
0000
0000
0010
0000
0000
,  // measure 18
0001
0010
1000
0100
0010
0001
0100
1000
,  // measure 19
0100
0000
0000
0000
0000
0001
1000
0000
0000
0100
0000
0000
0010
0000
0000
0000
0000
0001
0100
0000
0000
0010
0000
0000
,  // measure 20
1000
1000
0100
0100
0010
0001
0100
0010
,  // measure 21
1000
0000
0000
0000
0000
0100
0010
0000
0000
0001
0000
0000
0100
0000
0000
0000
0000
0010
1000
0000
0000
0001
0000
0010
,  // measure 22
0000
0100
1000
0001
0100
0010
1000
0100
,  // measure 23
0010
0000
0000
0000
0000
0001
0100
0000
0000
0010
0000
0000
1000
0000
0000
0000
0000
0100
0010
0000
0000
0100
0000
0001
,  // measure 24
0000
0000
0100
1000
0000
0000
0001
0000
0000
0100
0000
0000
0010
0000
0000
0100
0000
0000
0001
0000
0000
0010
0000
0000
,  // measure 25
1000
0000
0000
0010
0000
0000
0001
0000
0000
0100
0000
0010
0000
0000
1000
0001
0000
0000
0010
0000
0000
0100
0000
0000
,  // measure 26
0001
0100
1000
0001
0100
0010
1000
0100
,  // measure 27
0010
0000
0000
0000
0000
0001
0100
0000
0000
0010
0000
1000
0000
0000
0000
0100
0000
0000
0010
0000
0000
0001
0000
0000
,  // measure 28
0100
0100
0010
0010
1000
1000
0100
0010
,  // measure 29
0002
0000
0100
0010
2003
0100
0000
0001
,  // measure 30
3200
0000
0001
0010
2300
0001
0000
0010
,  // measure 31
3002
0000
0010
0100
1003
0010
0100
1000
,  // measure 32
0200
0000
1000
0000
0301
0010
0100
1000
,  // measure 33
0020
0000
0001
0100
2030
0001
0000
0010
,  // measure 34
3200
0000
0001
0010
2300
0001
0000
0010
,  // measure 35
3001
0000
0000
0000
0000
1010
0000
0000
0000
1000
0000
0000
0100
0000
0000
0000
0000
0011
0000
0000
0000
0001
0000
0000
,  // measure 36
0101
1000
1100
0001
0101
1000
0100
0010
,  // measure 37
1000
0010
0001
0000
0100
0010
1000
0000
0000
1010
0000
0000
,  // measure 38
0101
0000
0000
0100
0000
0000
0001
0000
0000
0001
0000
0000
0010
0000
0000
0010
0000
0000
0100
0000
0000
0100
0000
1000
,  // measure 39
0001
0000
0000
0001
0000
0000
0100
0000
0000
0100
0000
0000
0010
0000
0000
0001
0000
0000
0010
0000
0000
0100
0000
0001
,  // measure 40
1000
0000
0000
0100
0000
0000
0010
0000
0000
0010
0000
0000
0001
0000
0000
0001
0000
0000
0100
0000
0000
0010
0000
1000
,  // measure 41
0001
0000
0000
0010
0000
0000
0100
0000
0000
0100
0000
0000
1000
0000
0000
0100
0000
0000
0001
0000
0000
0100
0000
1000
,  // measure 42
0001
0000
0000
0100
0000
0000
0010
0000
0000
0010
0000
0000
1000
0000
0000
1000
0000
0000
0100
0000
0000
0100
0000
0010
,  // measure 43
0001
0000
0000
0001
0000
0000
0100
0000
0000
0100
0000
0000
0010
0000
0000
1000
0000
0000
0001
0000
0000
0010
0000
0100
,  // measure 44
2000
0000
0000
0000
0000
0000
0010
0000
0000
3100
0000
1000
0002
0000
0000
0000
0000
0103
0010
0000
0000
1000
0000
0100
,  // measure 45
0010
0000
0000
0000
0000
0001
0100
0000
0000
0010
0000
0000
0100
0000
0000
0001
0000
0000
0010
0000
0000
0100
0000
0000
,  // measure 46
1100
0000
0000
1000
0000
0000
0010
0000
0000
0010
0000
0000
0100
0000
0000
0100
0000
0000
1000
0000
0000
1000
0000
0100
,  // measure 47
0010
0000
0000
0010
0000
0000
1000
0000
0000
1000
0000
0000
0100
0000
0000
0010
0000
0000
0001
0000
0000
0100
0000
0010
,  // measure 48
1000
0000
0000
0100
0000
0000
0010
0000
0000
0010
0000
0000
1000
0000
0000
1000
0000
0000
0010
0000
0000
0001
0000
0100
,  // measure 49
0010
0000
0000
1000
0000
0000
0100
0000
0000
0100
0000
0000
0001
0000
0000
0100
0000
0000
1000
0000
0000
0001
0000
0100
,  // measure 50
0010
0000
0000
1000
0000
0000
0100
0000
0000
0100
0000
0000
0001
0000
0000
0001
0000
0000
0100
0000
0000
0100
0000
1000
,  // measure 51
0001
0000
0000
0100
0000
0000
0010
0000
0000
0010
0000
0000
0001
0000
0000
0010
0000
0000
1000
0000
0000
0100
0000
0010
,  // measure 52
0002
0000
0000
0000
0000
0103
0010
0000
0000
1000
0000
0002
0000
0000
0000
0000
0000
0013
0100
0000
0000
0010
0000
0001
,  // measure 53
0200
0000
1000
0010
0301
0010
0100
0001
,  // measure 54
0100
0000
0000
0000
0000
1000
0002
0000
0000
0000
0000
0000
0023
0000
0000
0000
0000
0130
2000
0000
0000
0000
0000
0000
,  // measure 55
3020
0000
0000
0000
,  // measure 56
0000
0000
0030
0000
;
