#TITLE:WOOKIE WOOKIE;
#SUBTITLE:;
#ARTIST:MACHOMAN;
#TITLETRANSLIT:;
#SUBTITLETRANSLIT:;
#ARTISTTRANSLIT:;
#GENRE:EURODANCE POP;
#CREDIT:;
#BANNER:WOOKIE WOOKIE.png;
#BACKGROUND:WOOKIE WOOKIE-bg.png;
#LYRICSPATH:;
#CDTITLE:;
#MUSIC:WOOKIE WOOKIE.ogg;
#OFFSET:0.024473;
#SAMPLESTART:65.679977;
#SAMPLELENGTH:12.000000;
#SELECTABLE:YES;
#BPMS:0.000000=136.990005
;
#STOPS:
;
#BGCHANGES:;
#KEYSOUNDS:;
#ATTACKS:;

//---------------dance-single - ----------------
#NOTES:
     dance-single:
     :
     Hard:
     14:
     0.623881,0.621967,0.131419,0.272948,0.404367,432.000000,419.000000,13.000000,27.000000,42.000000,0.000000,0.623881,0.621967,0.131419,0.272948,0.404367,432.000000,419.000000,13.000000,27.000000,42.000000,0.000000:
0000
0000
0000
0000
,
0000
0000
0000
0000
,
0000
0000
0000
0000
,
0000
0000
0000
0000
,
0000
0000
0000
0000
,
1000
1000
0001
0100
1M00
1000
0001
0100
,
0010
0000
1000
0010
0000
1000
0010
0000
1000
0000
0010
0000
0100
0000
0001
0000
,
1000
0000
0100
1000
0000
0100
1000
0000
0100
0000
0010
0000
0001
0000
1000
0000
,
0001
0000
1000
0100
00M0
0100
0001
0000
1000
0000
0001
0100
00M0
0100
1000
0000
,
0000
000M
00M0
0000
0001
0001
1000
0100
,
0M01
0001
1000
0100
1000
0010
1000
0001
,
0100
1000
0100
0001
1000
1000
0001
0100
,
1M00
0000
1000
0000
0001
0000
0100
0000
0001
0000
0M10
0010
1000
0000
0001
0000
,
1000
0000
0M10
0010
0001
0000
1000
0000
0001
0000
0001
0000
1000
0000
0010
0000
,
00M1
0001
1000
0010
1000
0100
1000
0001
,
0010
1000
0010
0001
1000
1000
0001
0010
,
10M0
0000
1000
0000
0001
0000
0010
0000
0001
0000
1000
0100
00M0
0100
0001
0000
,
1000
0000
0010
0100
0001
0000
0000
0000
0011
0000
0000
1100
0000
0000
0100
0000
,
0010
0000
0001
0000
0100
00M0
0100
0000
1000
0000
0010
1000
0000
0000
0010
0000
,
0100
0000
0001
0000
0010
0M00
0010
0000
1000
0010
1000
0010
0100
0000
0000
0000
,
1M00
0010
1000
0010
0100
0000
0000
0000
1M00
0010
1000
0010
0100
0000
0000
0000
,
1M00
0010
1000
0010
4000
0000
3004
0000
1003
0000
0100
0010
0000
0100
0000
1000
,
0000
0010
0100
0000
0001
0000
1000
0000
0001
0000
0010
0100
0000
0000
0100
0010
,
0001
0000
0100
0000
0010
0000
1000
0000
0001
0010
0001
0010
0100
0000
0000
0000
,
0M01
0010
0001
0010
0100
0000
0000
0000
0M01
0010
0001
0010
0100
0000
0000
0000
,
0M01
0010
0001
0010
0004
0000
4003
0000
3001
0100
0010
0000
00M1
0100
0010
0000
,
1000
0010
0000
1000
0001
0000
0000
1000
0100
0000
0010
0000
0001
0000
1000
0000
,
0001
0100
0000
0001
1000
0000
0000
0000
0010
1000
0010
1000
0001
0000
0000
0000
,
001M
1000
0010
1000
0001
0000
0000
0000
001M
1000
0010
1000
0001
0000
0000
0000
,
001M
1000
0010
1000
0004
0000
4003
0000
3001
0010
0100
0000
0M01
0010
0100
0000
,
1000
0100
0000
1000
0001
0000
0000
1000
0010
0000
0100
0000
0001
0000
1000
0000
,
0100
0000
0010
0001
1000
0000
0000
0000
0100
1000
0100
1000
0001
0000
0000
0000
,
010M
1000
0100
1000
0001
0000
0000
0000
010M
1000
0100
1000
0001
0000
0000
0000
,
010M
1000
0100
1000
0004
0000
4003
0000
3002
0000
0203
0000
0302
0000
1003
0000
,
0002
0013
0002
2003
3002
0023
2030
3020
,
0032
1003
0010
0100
0002
0023
0230
2300
,
3002
0100
2003
3100
2100
0000
3010
0000
,
0102
0000
0013
0000
0001
0001
1000
0100
,
0M01
0001
1000
0100
1000
0010
1000
0001
,
0100
1000
0100
0001
1000
1000
0001
0100
,
1M00
0000
1000
0000
0001
0000
0100
0000
0001
0000
0M10
0010
1000
0000
0001
0000
,
1000
0000
0M10
0010
0001
0000
1000
0000
0001
0000
0001
0000
1000
0000
0010
0000
,
00M1
0001
1000
0010
1000
0100
1000
0001
,
0010
1000
0010
0001
1000
1000
0001
0010
,
10M0
0000
1000
0000
0001
0000
0010
0000
0001
0000
01M0
0100
1000
0000
01M0
0100
,
0001
0000
01M0
0100
1000
0000
0001
0000
0102
0000
0000
0000
1003
0000
0010
0000
,
0102
0000
0000
0000
1003
0000
0010
0000
1000
0000
01M0
0100
0001
0000
0010
0000
,
0001
0000
01M0
0100
1000
0000
0001
0000
0012
0000
0000
0000
1003
0000
0100
0000
,
0012
0000
1003
0100
0010
1000
0010
0100
,
1000
0000
0001
0100
0010
0000
1000
0000
2010
0000
0000
0000
3001
0000
0100
0000
,
2010
0000
0000
0000
3001
0000
0100
0000
0001
0000
0M10
0010
1000
0000
0M10
0010
,
0001
0000
0M10
0010
0100
0000
0001
0000
0012
0000
0000
0000
1003
0000
0100
0000
,
0012
0000
1003
0100
0010
1000
0010
0100
,
1000
0000
0001
0100
0010
0000
1000
0000
1001
0000
0000
0000
0000
0000
0000
0000
;

//---------------dance-single - ----------------
#NOTES:
     dance-single:
     :
     Medium:
     12:
     0.475131,0.486757,0.192074,0.171856,0.055600,329.000000,310.000000,19.000000,17.000000,2.000000,0.000000,0.475131,0.486757,0.192074,0.171856,0.055600,329.000000,310.000000,19.000000,17.000000,2.000000,0.000000:
0000
0000
0000
0000
,
0000
0000
0000
0000
,
0000
0000
0000
0000
,
0000
0000
0000
0000
,
0000
0000
0000
0000
,
0001
0001
0100
0001
1000
1000
0100
1000
,
0001
0010
0100
1000
,
0001
0100
0010
1000
,
0001
0010
1000
0010
0001
0010
0100
0100
,
0000
M000
000M
0000
1000
1000
0010
1000
,
0001
0001
0010
0001
1000
0001
1000
0001
,
0100
1000
0100
0001
1000
1000
0100
1000
,
0001
0001
0100
0001
1000
0100
0001
0001
,
1000
0010
0001
0001
1000
1000
0010
1000
,
0001
0001
0100
0001
1000
0001
1000
0001
,
0010
1000
0010
0001
1000
1000
0100
1000
,
0001
0000
0001
0000
0010
0000
0001
0000
1000
0000
0000
0010
0000
0000
0001
0000
,
1000
0000
0100
0000
0001
0000
0000
0000
1001
0000
0000
1001
0000
0000
0001
0000
,
0010
0000
0100
0000
1000
0000
0000
0000
1001
0000
0000
1001
0000
0000
1000
0000
,
0010
0100
0001
0000
1200
0000
0010
0000
,
0301
0000
0000
0000
0100
0000
1000
0000
0001
0000
0000
0010
0000
0000
0001
0000
,
0000
0000
1000
0000
0001
0000
0000
0000
1000
0000
0000
0010
0000
0100
0000
0010
,
0000
0000
1000
0000
0001
0000
0000
0000
0010
0000
0000
0100
0000
0000
1000
0000
,
0001
0100
0010
0000
1020
0000
0100
0000
,
0031
0000
0000
0000
0010
0000
1000
0000
0001
0000
0000
0010
0000
0000
0001
0000
,
0000
1000
0001
0000
1000
1000
0010
0010
,
0100
0010
1000
0000
0001
0010
0100
1000
,
0001
0100
0010
0000
1020
0000
0100
0000
,
0031
0000
0000
0000
0010
0000
1000
0000
0100
0000
0000
0001
0000
0000
0100
0000
,
0000
1000
0001
0000
1000
1000
0100
0100
,
0010
0100
1000
0000
0001
0100
0010
1000
,
0001
0010
0100
0000
1200
0000
0010
0000
,
0301
0000
0000
0000
0100
0000
1000
0000
0010
0000
0000
0001
0000
0000
0010
0000
,
0000
1000
0001
0000
1000
0010
0100
0000
,
0001
0000
1000
0001
1000
0010
0001
0010
,
2000
0000
3001
0000
0010
0100
0010
0100
,
1000
0010
0102
0013
,
2100
0000
3010
0000
1000
1000
0010
1000
,
0001
0001
0100
0001
1000
0100
1000
0001
,
0100
1000
0100
0001
1000
1000
0010
1000
,
0001
0001
0100
0001
1000
0100
0001
0001
,
1000
0010
0001
0001
1000
1000
0100
1000
,
0001
0001
0010
0001
1000
0010
1000
0001
,
0010
1000
0010
0001
1000
1000
0100
1000
,
0001
0001
0010
0001
1000
0010
0001
0010
,
1000
0010
0100
0100
0102
0000
0013
0000
,
0201
0000
0310
0000
1000
0010
0001
0001
,
1000
0100
0001
0001
0012
0000
0103
0000
,
0021
0000
0130
0000
0010
0001
0100
1000
,
0200
0310
2100
3010
,
1200
0000
0310
0000
0001
0100
1000
0100
,
0001
0100
0010
0010
2010
0000
3010
0000
,
1200
0000
0310
0000
0100
1000
0010
0001
,
0020
0000
0130
0001
1001
0000
0000
0000
;

//---------------dance-single - ----------------
#NOTES:
     dance-single:
     :
     Easy:
     6:
     0.285945,0.324505,0.121310,0.080873,0.000000,198.000000,186.000000,12.000000,8.000000,0.000000,0.000000,0.285945,0.324505,0.121310,0.080873,0.000000,198.000000,186.000000,12.000000,8.000000,0.000000,0.000000:
0000
0000
0000
0000
,
0000
0000
0000
0000
,
0000
0000
0000
0000
,
0000
0000
0000
0000
,
0000
0000
0000
0000
,
1000
1000
0001
0001
,
0100
0000
0010
0000
,
1000
0000
0001
0000
,
0010
0000
0010
0000
0010
0000
0100
0100
,
0000
0000
1000
0010
,
0100
0001
1000
0100
,
0010
0001
1000
0010
,
0001
0010
0100
1001
,
0100
1001
1000
0010
,
0100
0001
1000
0100
,
0010
0001
1000
0100
,
0001
0100
1000
0010
,
0100
0100
0100
0000
0001
0000
0100
0000
,
0001
0001
1000
0100
,
1000
1000
0001
0100
,
0010
0100
1000
0100
,
0001
0000
1000
0010
,
1000
1000
0001
0010
,
0001
0001
1000
0010
,
0100
0010
0001
0010
,
1000
0000
0001
0010
,
0100
0100
1000
0100
,
0010
0010
0001
0100
,
0010
0100
1000
0100
,
0001
0000
1000
0100
,
0010
0010
0001
0010
,
0100
0100
1000
0010
,
0100
0010
0001
0010
,
1000
0000
0001
0010
,
0100
1000
0001
0001
,
0001
0000
1000
0010
,
0100
0001
1001
1000
,
1001
0001
1000
0100
,
0010
0001
1000
0010
,
0100
0001
1000
0100
,
0001
0100
0010
1001
,
0010
1001
1000
0100
,
0010
0001
1000
0010
,
0100
0001
1000
0010
,
0001
0010
1000
0001
,
1000
1001
0002
0100
,
2003
0100
3001
0101
,
1000
1010
0002
0010
,
2003
0010
3001
0010
,
0100
1001
2000
0100
,
3002
0010
1003
0010
,
0100
1001
0002
0010
,
2003
0100
3001
0100
,
0010
1000
1001
0000
;

//---------------dance-single - ----------------
#NOTES:
     dance-single:
     :
     Beginner:
     2:
     0.171856,0.189294,0.040437,0.000000,0.000000,119.000000,115.000000,4.000000,0.000000,0.000000,0.000000,0.171856,0.189294,0.040437,0.000000,0.000000,119.000000,115.000000,4.000000,0.000000,0.000000,0.000000:
0000
0000
0000
0000
,
0000
0000
0000
0000
,
0000
0000
0000
0000
,
0000
0000
0000
0000
,
0000
0000
0000
0000
,
1001
0000
0000
0000
,
0000
0000
0000
0000
,
0000
0000
0000
0000
,
0010
0010
0010
0010
,
0000
0000
0100
0000
,
0001
0000
0010
0010
,
0010
0000
0100
0000
,
1000
0000
0010
0010
,
0010
0000
0100
0000
,
0001
0000
1000
1000
,
1000
0000
0100
0000
,
1000
0000
0001
0001
,
0001
0001
0001
0000
,
0010
0000
0100
0000
,
1000
0000
0010
0000
,
0010
0000
0010
0010
,
0010
0000
0100
0000
,
0001
0000
1000
0000
,
0100
0000
0001
0000
,
0001
0000
0001
0001
,
0001
0000
0100
0000
,
1000
0000
0010
0000
,
0100
0000
0010
0000
,
0010
0000
0010
0010
,
0010
0000
1000
0000
,
0001
0000
0010
0000
,
0100
0000
1000
0000
,
1000
0000
1000
1000
,
1000
0000
0001
0000
,
0100
0000
0010
0010
,
0010
0000
0100
0000
,
0001
0000
1001
0000
,
1001
0000
0001
0000
,
0010
0000
0100
0100
,
0100
0000
1000
0000
,
0010
0000
0100
0100
,
0100
0000
0001
0000
,
1000
0000
0010
0010
,
0010
0000
1000
0000
,
0001
0000
0010
0010
,
0010
0010
0010
0000
,
0100
0000
1000
1000
,
1000
1000
1000
0000
,
0010
0000
0100
0100
,
0100
0000
0001
0000
,
1000
0000
0010
0010
,
0010
0010
0010
0000
,
0100
0000
0001
0001
,
0001
0000
1001
0000
;
