#TITLE:WELCOME TO MOTOWN PARK;
#SUBTITLE:;
#ARTIST:OSTER project;
#TITLETRANSLIT:;
#SUBTITLETRANSLIT:;
#ARTISTTRANSLIT:;
#GENRE:;
#CREDIT:;
#MUSIC:WELCOME TO MOTOWN PARK.ogg;
#BANNER:WELCOME TO MOTOWN PARK.png;
#BACKGROUND:WELCOME TO MOTOWN PARK-bg.png;
#CDTITLE:;
#SAMPLESTART:55.812;
#SAMPLELENGTH:12.000;
#SELECTABLE:YES;
#OFFSET:-0.539;
#BPMS:0.000=165.000;
#STOPS:;
#BGCHANGES:;
#FGCHANGES:;

//--------------- dance-single - Peter ----------------
#NOTES:
     dance-single:
     Peter:
     Hard:
     13:
     0,0,0,0,0:
0000
0000
0000
0000
,
0000
0000
0000
0000
,
0000
0000
0000
0000
,
0000
0000
0000
0000
,
1000
0100
1000
0001
,
1000
0010
1000
0100
,
1000
0010
0100
0001
0000
0010
0100
1001
,
0000
0000
0001
0000
0010
0000
0100
2002
,
0000
0000
0000
3003
0110
0110
0000
0000
,
1000
0000
0010
0100
0001
1000
0100
0001
,
0000
0100
1000
0000
0110
0000
0001
0010
,
0000
1000
0010
0100
0010
0001
1000
0010
,
0000
0010
0100
0010
1000
1000
1001
0000
,
0001
0000
0011
0010
0100
0010
0000
0001
,
0000
0000
1010
0010
0100
0010
0001
0010
,
1000
0000
0011
0001
0000
0000
0000
1000
,
0020
0032
0203
2300
,
3001
0000
0000
0100
1000
0100
0010
0001
,
0000
0000
0000
0010
1000
0000
0001
0000
,
0010
0100
0000
1000
1001
0000
0001
0100
,
0000
0010
1000
0000
0100
0000
0010
0000
,
1001
0000
1000
0100
0001
0100
1000
0001
,
0000
1000
0001
0100
1000
0100
0001
1000
,
0010
0100
0001
0010
1000
0010
0001
1000
,
0000
0001
1000
0010
0001
0010
1000
0001
,
1001
0000
0001
0010
1000
0001
0100
1000
,
0000
0001
1000
0100
0001
1000
0010
0001
,
0010
0100
1000
0010
0001
1000
0100
0001
,
0000
1000
0001
0100
1000
0001
0010
1000
,
0001
1000
0001
1000
0001
0000
0000
0000
0000
0000
0110
0000
0000
0000
1001
0000
,
0000
1000
0100
0000
0110
0000
1001
0000
,
1000
0001
1000
0001
1000
0000
0000
0000
0000
0000
0110
0000
0000
0000
1001
0000
,
0000
0001
0100
0000
0110
0000
1001
0000
,
0001
1000
0001
1000
0001
0000
0000
0000
0000
0000
0110
0000
0000
0000
1001
0000
,
0000
1000
0010
0000
0110
0000
0001
1000
,
0000
0000
0100
0010
0001
0010
0100
0001
,
0000
0100
0010
0001
1000
0010
0100
0010
,
1000
0001
0010
0100
1000
0000
0010
0100
,
0001
0000
1000
0000
0100
0001
0100
1000
,
0000
0000
0001
0000
0100
1000
0100
0001
,
0000
0001
0010
0100
1000
0001
0010
0001
,
1000
0000
0010
1000
0001
0010
0100
1000
,
0001
0000
1001
0000
1000
0010
0001
0010
,
0000
0000
1000
0000
0010
0001
0010
0100
,
0000
0001
0010
0001
1000
0000
0010
0100
,
0000
0001
1000
0001
0010
0100
1000
0001
,
1001
0000
0110
0000
1001
0000
0010
0001
,
0000
0010
0100
0000
0010
0001
1000
0000
,
1000
0001
1000
0001
1000
0001
1000
0001
1000
0000
0001
0000
0000
0000
1001
0000
,
0000
1000
0100
0000
0011
0000
0110
0000
,
0001
1000
0001
1000
0001
1000
0001
1000
0001
0000
1000
0000
0000
0000
1001
0000
,
0000
0001
0100
0000
1010
0000
0110
0000
,
1000
0001
1000
0001
1000
0001
1000
0001
1000
0000
0001
0000
0000
0000
1001
0000
,
0000
0001
0010
0000
1100
0000
0001
1000
,
0000
0000
0010
0100
1000
0100
0010
1000
,
0000
0100
1000
0010
0100
0001
0010
0001
,
0000
1000
0010
0100
0001
1000
0100
0010
,
0001
0000
1000
0000
0010
0000
0000
0000
0100
0001
0100
0001
0100
0000
0000
0000
,
1001
0000
0001
1000
0010
0001
0010
0100
,
0000
0001
0010
0100
1000
0010
0100
0010
,
0010
0010
1000
0001
0010
1000
0001
0100
,
1000
0000
0001
1000
0010
0100
0001
0010
,
0100
0010
0001
1000
0010
0100
0010
0001
,
0000
0010
1000
0001
0010
0100
1000
0001
,
0000
0010
0100
0010
0001
1000
0010
1000
,
0000
0001
1000
0100
0001
0100
1000
0001
,
1001
0000
0110
0000
1001
0000
0100
0001
,
0000
0010
1000
0000
0010
0001
1000
0000
,
1001
0000
0110
0000
1001
0000
0100
1000
,
0000
0010
0001
0000
0010
0100
0001
1000
,
1001
0000
0110
0000
1001
0000
0010
1000
,
0000
0000
0100
0001
0100
1000
0010
0100
,
0001
0000
1000
0001
0000
0010
0000
1000
0000
0000
0010
0000
0001
0000
0100
0000
,
0010
1000
0000
0010
0000
0100
0000
0001
1000
0000
0100
0000
0010
0000
0001
0000
,
0000
2002
0000
0000
,
0000
0000
3003
0000
;

//--------------- dance-single - Peter ----------------
#NOTES:
     dance-single:
     Peter:
     Challenge:
     16:
     0,0,0,0,0:
0000
0000
0000
0000
,
0000
0000
0000
0000
,
0000
0000
0000
0000
,
0000
0000
0000
0000
,
2000
0100
0000
0100
,
0000
0000
0001
0000
0000
3000
0001
0000
,
0010
0100
0010
0001
0000
0100
0010
1001
,
0000
0000
1000
0000
0100
0000
0010
1001
,
0000
0000
0001
0100
0000
0010
1000
0000
1001
0000
1001
0000
0000
0000
0000
0000
,
1000
0000
0010
0000
1000
0000
0001
0000
0010
0000
0100
0000
0010
0100
1000
0000
,
0000
0001
0100
1000
0100
0001
1000
0001
,
0000
0000
0100
0000
0010
1000
0000
0100
0010
0000
0100
1000
0001
0000
0100
0000
,
0000
0010
1000
0010
0110
0000
1001
0000
,
1000
0000
0001
0100
0001
1000
0001
0010
,
0001
0000
1000
0010
1000
0001
1000
0100
,
2000
3000
0010
0200
0000
0300
0101
0001
,
0020
2030
3200
0302
,
1003
0000
0100
0010
0100
1000
0001
0100
,
0000
0000
1000
0100
0001
1000
0010
0000
,
1000
1001
0000
0011
0011
0000
0100
0110
,
0000
0001
0200
0000
0302
0003
2002
3003
,
1000
0010
0001
0010
0100
0010
0001
0010
,
0000
1000
0001
0100
0010
0100
0001
1000
,
0001
0010
1000
0010
0100
0010
1000
0010
,
0000
0001
1000
0010
0100
0010
1000
0001
,
2000
0000
3000
0100
1000
0010
0100
0002
,
0000
0003
0020
0000
0230
0000
2300
0000
,
3001
0100
0010
0002
0000
0013
1000
0002
,
0000
0013
0100
1000
0002
0003
2002
3003
,
1000
0100
1000
0100
1000
0000
0000
0000
0000
0000
0110
0000
0000
0000
2002
0000
,
3003
0000
1000
0000
0010
0000
0000
0000
0101
0000
0000
0001
1000
0000
0000
0000
,
0001
0100
0001
0100
0001
0000
0000
0000
0000
0000
0110
0000
0000
0000
2002
0000
,
3003
0000
0001
0000
0010
0000
0000
0000
0100
1000
0100
1000
0100
1000
0000
0000
,
0010
0100
0010
0100
0010
0000
0000
0000
0000
0000
1001
0000
0000
0000
0220
0000
,
0330
1000
0100
0000
0011
0000
0001
2002
,
3003
0000
0000
1000
0010
0000
0001
0000
0010
0000
0100
0000
0010
0000
1010
0000
,
0000
0000
0001
0000
0010
0000
0100
1000
0001
0000
0100
0000
0010
0000
0100
0000
,
0001
0000
1000
0001
1000
0100
0010
0001
0010
0000
0001
0100
0001
1000
0010
0100
,
0001
0000
0000
0000
0010
1000
0000
0000
0010
0000
0100
0000
0010
0000
0001
0000
,
0000
0000
0000
0000
1000
0000
0000
0010
0001
0000
0010
0000
0100
0000
0001
0000
,
0000
0010
0001
0000
0100
0000
0010
0000
1000
0000
0100
0000
1000
0100
0010
0001
,
1000
0000
0010
0000
1000
0000
0001
0010
0001
1000
0010
0000
1000
0010
0100
0001
,
1000
0000
0000
0010
0100
0000
0000
0000
1000
0000
0100
0000
0001
0000
1000
0000
,
0000
0000
0100
0000
0001
0000
0000
0100
0010
0000
0001
0000
0100
0000
0010
0000
,
0000
0000
0010
0000
0100
0001
1000
0010
1000
0000
0001
0010
0100
1000
0100
0000
,
0000
0000
1000
0000
0001
0000
1000
0100
0010
0000
0001
0010
0100
0010
1000
0000
,
1010
0000
0011
0000
1001
0000
0010
0220
,
0330
0000
1000
0000
0001
0000
0100
0000
0010
0000
0100
0001
1000
0000
0000
0000
,
1000
0001
0100
0001
1000
0001
0100
0001
1000
0000
1001
0000
0000
0000
0220
0000
,
0330
0000
1000
0000
0001
0010
0100
0010
0001
0000
0100
0010
1000
0001
0010
0001
,
1000
0001
0010
0001
1000
0001
0010
0001
1000
0000
1001
0000
0000
0000
0220
0000
,
0330
0000
0001
1000
0100
0000
0010
0000
0001
0000
1000
0000
0010
0000
0100
0000
,
0001
0010
0000
0100
0010
0000
1000
0010
0000
0000
0001
0000
0000
0000
0220
0000
,
0330
0001
0010
0000
1100
0000
1000
2002
,
3003
0000
0000
0001
0010
0000
1000
0000
0010
0000
0100
0000
0010
0000
0011
0000
,
0000
0000
1000
0000
0010
0000
0100
0001
1000
0000
0001
0000
0010
0000
0110
0000
,
0000
1000
0100
0010
0001
0100
0010
1000
,
0100
0000
1000
0000
0010
1000
0010
0100
0001
0000
0100
0000
0001
0010
0001
0010
,
0100
0000
0000
0001
0100
0000
0000
0000
0010
0000
0001
0000
1000
0000
0010
0000
,
0000
0000
0100
0001
0100
0010
1000
0100
1000
0000
0100
0000
0010
0000
0001
0010
,
0001
0010
0001
0010
0100
0000
1000
0100
0001
0000
0100
0010
0001
0010
0100
1000
,
0001
0000
0000
0000
0101
0000
0001
0100
0001
1000
0100
0000
1000
0000
0010
1000
,
0001
0100
0001
0000
1000
0001
0010
0100
1000
0100
1000
0000
0001
0100
0010
0100
,
0000
0100
0001
0000
1000
0000
0100
1000
0001
0000
0100
0000
0010
0000
1001
0000
,
0000
0000
0001
0000
0010
1000
0010
0000
0001
0000
0100
0010
1000
0000
1010
0000
,
0000
0000
1000
0000
0100
0000
0000
0010
0001
0000
0100
0000
0001
0010
1000
0000
,
1010
0000
0011
0000
1001
0000
0010
0220
,
0330
0000
1000
0010
0100
0000
0000
0001
0010
0000
0100
0000
0001
0000
0000
0000
,
0101
0000
1100
0000
1001
0000
0100
0220
,
0330
0000
0001
0000
0100
0010
0000
0010
0001
0000
0010
0000
0100
0000
1000
0000
,
1100
0000
0101
0000
1001
0000
0010
0220
,
0330
0000
0000
1000
0001
0000
1000
0001
0100
0000
0010
1000
0001
0010
0100
1000
,
0001
0100
0001
0100
0000
1010
0000
1001
0000
1000
0100
0010
0001
0000
1000
0000
,
0010
0001
0000
0010
0000
0100
0000
1000
0100
0000
0001
1000
0100
1000
0001
0100
,
0010
0100
0000
0000
2002
0000
0000
0000
0000
0000
0000
0000
0000
0000
0000
0000
,
0000
0000
0000
0000
3003
0000
1000
0100
0001
0000
0000
0000
0000
0000
0000
0000
;
