#VERSION:0.83;
#TITLE:WANT U LUV IT;
#SUBTITLE:;
#ARTIST:Reol;
#TITLETRANSLIT:;
#SUBTITLETRANSLIT:;
#ARTISTTRANSLIT:;
#GENRE:;
#CREDIT:;
#MUSIC:WANT U LUV IT.ogg;
#BANNER:WANT U LUV IT-bn.png;
#BACKGROUND:;
#CDTITLE:;
#SAMPLESTART:40.555;
#SAMPLELENGTH:13.241;
#SELECTABLE:YES;
#OFFSET:1.238;
#BPMS:0.000=145.000
,290.000=150.000
,294.000=155.000
,298.000=160.000
,302.000=165.000
,306.000=170.000
,310.000=175.000
,314.000=180.000
,318.000=185.000
;
#STOPS:;
#SCROLLS:0.000=1.276,
290.000=1.233,
294.000=1.194,
298.000=1.156,
302.000=1.121,
306.000=1.088,
310.000=1.057,
314.000=1.028,
318.000=1.000
;
#TIMESIGNATURES:284.000=2=4,
286.000=4=4
;
#JACKET:;
#DISCIMAGE:;
#CDIMAGE:;
#BGCHANGES:;
#FGCHANGES:;

//--------------- dance-single - ----------------
#NOTEDATA:;
#STEPSTYPE:dance-single;
#DESCRIPTION:;
#DIFFICULTY:Beginner;
#METER:5;
#RADARVALUES:0,0,0,0,0;
#CHARTNAME:;
#CHARTSTYLE:;
#CREDIT:Talkion;
#METERF:5;
#NOTES:
0000
0000
0000
0000
,
0000
0000
0000
0000
,
0000
0000
0000
0000
,
0000
0000
0000
0000
,
1000
0000
0000
0000
,
1001
0000
0001
0000
,
0100
0000
0010
0000
,
1000
0000
0001
0000
,
0010
0010
0000
0000
,
0002
0003
1000
0000
,
0020
0030
1000
0000
,
0002
0003
2000
3000
,
0100
0000
0010
0000
,
0001
0001
1000
0000
,
0001
0001
1000
0000
,
0010
0000
0010
0000
,
0100
0100
0200
0000
,
0300
0000
1001
0000
,
0000
0000
0200
0000
,
0300
0000
1001
0000
,
0000
0000
1000
0000
,
0200
0300
0100
0020
,
0030
0010
0001
0000
,
0100
0000
0000
0100
0000
0000
0100
0000
,
0010
0000
0000
0000
,
0000
0000
0000
0000
,
1000
1000
0100
0000
,
1000
1000
0100
0000
,
0010
0000
0001
0000
,
1000
1000
0000
0000
,
0001
0001
0100
0000
,
0010
0010
0100
0000
,
0001
0000
1000
0000
,
0100
0100
0000
0000
,
1000
1000
1000
1000
,
1000
1000
1000
0000
,
0001
0000
0000
0000
,
0100
0000
1001
0000
,
0000
0000
0200
0000
,
0300
0000
1001
0000
,
0000
0000
0200
0000
,
0300
0000
1001
0000
,
0000
0000
1000
0000
,
0010
0000
0200
0000
,
0300
0000
0001
0001
,
0010
0000
1001
0000
,
0000
0000
1001
0000
,
0010
0000
1001
0000
,
0000
0000
1000
1000
,
0100
0000
1001
0000
,
0000
0000
1001
0000
,
0100
0000
1001
0000
,
0000
0000
0001
0001
,
0000
0000
0000
0000
,
1000
0000
0000
0000
,
1000
0000
0000
0000
,
0010
0000
0100
0000
,
0001
0000
0000
0001
0000
0000
0000
0000
,
1000
1000
0100
0000
,
0010
0010
0100
0000
,
1000
0000
0001
0000
,
0100
0100
0000
0000
,
0001
0001
0001
0001
,
0001
0001
0001
0000
,
1000
1000
1000
1000
,
1000
0000
0010
0000
,
1000
1000
1000
1000
,
1000
1000
1000
0000
,
0001
0000
0010
0000
,
0001
0000
0010
0000
,
0001
0000
0100
0100
,
0000
0000
1001
0000
,
1000
0000
0100
0000
,
0010
0000
0001
0000
,
1000
0000
0010
0010
,
0000
0000
1000
0000
,
0001
0000
0100
0000
,
0010
0000
1000
0000
,
0001
0000
0010
0010
,
0010
0000
0020
0000
,
0030
0000
0002
0000
,
0000
0000
0003
0000
;

//--------------- dance-single - ----------------
#NOTEDATA:;
#STEPSTYPE:dance-single;
#DESCRIPTION:;
#DIFFICULTY:Easy;
#METER:8;
#RADARVALUES:0,0,0,0,0;
#CHARTNAME:;
#CHARTSTYLE:;
#CREDIT:Talkion;
#METERF:8;
#NOTES:
0000
0000
0000
0000
,
0000
0000
0000
0000
,
0000
0000
0000
0000
,
0000
0000
0000
0000
,
1001
0000
0000
0010
,
1001
2000
3100
0020
,
0130
2000
3001
0100
,
0010
2000
3100
0020
,
0031
1000
0001
0000
1000
0000
0000
0000
,
0010
0010
0000
0000
,
0100
0100
0000
0000
,
0010
0010
1000
0001
,
0000
0010
0010
0100
,
1000
1000
0010
0000
,
0001
0001
0010
0000
,
1000
0100
0001
0100
,
1000
0001
1000
0000
0010
0000
0000
0000
,
0110
0000
1001
1000
,
0000
0100
1001
0000
,
1000
0000
1001
0001
,
0000
0100
1001
0000
,
0001
0010
0010
1000
,
0010
0010
0001
0100
,
0010
1000
0100
0010
,
0001
0000
0000
0100
,
0000
0000
0000
1001
,
0001
0020
0100
0000
,
0031
0010
0100
1000
,
0000
0001
0010
0001
,
0100
0100
0000
0001
,
1000
0020
0100
0000
,
1030
0010
0100
1000
,
0000
0100
0010
1000
,
0100
0100
0000
1000
,
0001
0010
0001
0010
,
0001
0010
0001
0010
,
0100
0000
0010
0001
,
0100
0000
1001
0001
,
0000
0010
1001
0000
,
0001
0000
1001
1000
,
0000
0010
1001
2000
,
3100
0000
0110
0010
,
0000
0001
1001
0000
,
1000
0000
0020
0230
,
0300
0000
0001
0001
,
1000
0100
0110
1000
,
0000
1000
1001
0001
,
1000
0010
0110
1000
,
0000
1000
0100
0020
,
0031
0100
0110
0001
,
0000
0001
1001
1000
,
0001
0010
0110
0001
,
0000
0001
1000
1000
,
0000
0000
0000
0000
,
0001
0010
0001
0000
,
0001
0010
0001
1000
,
0010
0100
0001
1000
,
0100
0010
0100
0010
0000
0000
0000
0000
,
0001
0020
0100
0000
,
0031
0010
0100
0001
,
0000
0100
0010
0001
,
0100
0100
0000
0001
,
1000
0010
1000
0010
,
1000
0010
1000
0000
,
0001
0010
0001
0010
,
0001
0000
0100
0010
,
1000
0100
1000
0100
,
1000
0100
1000
0100
,
0010
0000
0001
0100
,
0010
0000
1000
0100
,
0010
0000
1000
1000
,
0000
0010
1001
0002
,
0103
0020
0130
0002
,
1003
0100
0010
0002
,
0103
0020
1030
1000
,
0000
0010
1001
2000
,
3100
0020
0130
2000
,
3001
0100
0010
2000
,
3100
0020
0031
0001
,
0000
0100
0010
1000
,
1000
0002
0000
0000
,
0000
0000
0003
0000
;

//--------------- dance-single - XO- ----------------
#NOTEDATA:;
#STEPSTYPE:dance-single;
#DESCRIPTION:XO-;
#DIFFICULTY:Medium;
#METER:12;
#RADARVALUES:0,0,0,0,0;
#CHARTNAME:;
#CHARTSTYLE:;
#CREDIT:Talkion;
#METERF:10;
#NOTES:
0000
0000
0000
0000
,
0000
0000
0000
0000
,
0000
0000
0000
0000
,
0000
0000
0000
0000
,
1001
0000
0000
1010
,
0011
0000
0000
0000
0020
0000
0000
0130
0000
0000
1000
0000
0020
0000
0000
0130
,
0000
0000
0010
0000
2000
0000
0000
3001
0000
0000
0100
0000
0001
0000
0010
0000
,
0100
0000
0000
0000
0020
0000
0000
0031
0000
0000
0100
0000
0010
0000
1000
0000
,
0001
0010
0001
0010
0100
0000
0000
0000
,
2100
0000
0000
3001
0000
0000
0000
0000
1000
0000
0010
0000
0100
0000
0000
0000
,
0102
0000
0000
1003
0000
0000
0000
0000
0001
0000
0010
0000
0100
0000
0000
0000
,
2100
0000
0000
3001
0000
0000
0000
0000
1000
0000
0010
0000
0200
0000
0000
1300
,
0000
0000
0100
0000
0020
0000
0000
1030
0000
0000
0100
0000
0010
0000
0100
0000
,
0010
0000
0010
0000
0002
0000
0000
0000
1003
0000
0010
0000
0100
0000
0000
0010
,
0000
0010
2000
0000
3001
0010
0000
0010
,
0100
1000
0010
0000
0100
0001
0010
0000
,
0100
1000
0010
1000
0200
0000
0001
0000
,
0310
0000
0001
0100
0010
0000
1000
0000
,
0001
0010
0001
0000
0200
0000
1000
0000
,
0310
0000
1000
0100
0010
0000
0001
0000
,
0102
0000
0010
0000
0103
0000
0010
0100
,
0001
1000
0200
0000
0310
0000
0001
1000
,
0200
0000
0310
0000
1000
0010
0100
0010
,
0002
0000
0000
0100
0000
0000
2003
0000
0000
0100
0000
0000
3001
0000
0100
0000
,
0010
0000
1000
1000
0000
0001
0001
0020
,
0030
0000
0000
1100
,
0101
0000
0100
0010
0100
0001
0000
0001
,
0010
0000
0100
0010
0100
2000
0000
3001
,
0000
0100
0010
0000
1000
0010
0100
0000
,
0001
1000
0100
0010
0000
0001
0001
0000
,
0101
0000
0100
0010
0100
0001
0000
0001
,
0010
0100
0010
0100
1000
0010
0100
2000
,
0000
3100
0010
0000
1000
0010
0100
0000
,
0001
0010
0100
0010
0000
0001
0001
0000
,
1000
0010
0100
0010
1000
0100
0010
0100
,
1000
0010
0100
0010
1000
0001
1000
0100
,
0010
0001
0000
1000
0100
1000
0001
0100
,
0010
0000
0000
1000
0000
0000
1100
0000
0000
0001
0000
0100
,
0010
0000
1000
0001
0000
0000
0020
0000
0000
1000
0000
0000
,
0130
0000
0000
1000
0000
0000
1010
0000
0000
0001
0000
0010
,
0100
0000
1000
0001
0000
0000
0200
0000
0000
1000
0000
0000
,
0310
0000
0000
1000
0000
0000
1100
0000
0000
0001
0000
0100
,
0010
0000
0000
1000
0000
0100
0010
0000
0000
0001
0000
0000
,
1000
0000
0010
0100
0000
0000
0001
0100
0001
1000
0100
1000
,
0001
0000
0100
0100
,
0001
0000
1000
0100
0000
0000
0110
0000
0000
0001
0000
1000
,
0100
1000
1010
0001
,
1000
0000
0001
0100
0000
0000
0110
0000
0000
1000
0000
0001
,
0100
0001
0011
0010
,
0001
0000
1000
0010
0000
0000
0110
0000
0000
0001
0000
1000
,
0010
1000
1100
0001
,
1000
0000
0001
0010
0000
0000
0110
0000
0000
1000
0000
0001
,
0010
0001
0100
0200
,
0300
0000
0000
0000
0000
0000
0000
0001
,
0010
0001
1000
0000
0020
0000
0030
1000
,
0010
1000
0001
0000
0020
0000
0030
0100
,
0010
0100
1000
0000
0001
0100
0010
0000
,
1000
0001
1000
0001
0000
0100
0100
0001
,
0010
0000
0100
0010
0100
1000
0000
1000
,
0010
0100
0010
0100
0001
0010
0100
0002
,
0000
0103
0010
0000
0001
0010
0100
0000
,
1000
0010
0200
1000
0000
0301
0001
0000
,
1000
0100
0010
0100
1000
0010
0100
0010
,
1000
0100
0010
0100
1000
0010
1000
0000
,
0001
0010
0100
0010
0001
0100
0010
0100
,
0001
0010
0001
0000
1000
0010
0100
0001
,
1000
0100
0010
0100
1000
0010
0100
0010
,
1000
0100
0010
0100
1000
0001
1000
0010
,
0100
0001
0000
1000
0010
1000
0001
0010
,
0100
1000
0000
0001
0010
0001
1000
0010
,
0100
0001
0000
1000
0010
1000
0100
0001
,
0000
0000
0000
0000
0011
0000
0000
0000
1010
0000
0000
0000
0020
0000
0000
0130
,
0000
0000
0001
0000
0020
0000
0000
0130
0000
0000
0010
0000
0002
0000
0000
1003
,
0000
0000
0100
0000
1000
0000
0010
0000
0100
0000
0000
0000
0020
0000
0000
1030
,
0000
0000
0100
0000
0010
0000
0001
0000
1000
0000
0100
0000
1000
0000
0000
0001
,
0000
0000
0100
0000
0010
0000
1000
0000
0100
0000
0000
0000
0020
0000
0000
0130
,
0000
0000
1000
0000
0020
0000
0000
0130
0000
0000
0010
0000
2000
0000
0000
3001
,
0000
0000
0100
0000
0001
0000
0010
0000
0100
0000
0000
0000
0020
0000
0000
0031
,
0000
0000
0100
0000
0010
0000
1000
0000
0100
0000
0010
0000
0100
0000
0000
0100
,
0000
1000
0001
0100
0020
0000
1030
0001
,
1000
0200
0000
0000
,
0000
0000
0300
0000
;

//--------------- dance-single - XO+ ----------------
#NOTEDATA:;
#STEPSTYPE:dance-single;
#DESCRIPTION:XO+;
#DIFFICULTY:Hard;
#METER:14;
#RADARVALUES:0,0,0,0,0;
#CHARTNAME:;
#CHARTSTYLE:;
#CREDIT:Talkion;
#METERF:14;
#NOTES:
0000
0000
0000
0000
,
0000
0000
0000
0000
,
0000
0000
0000
0000
,
0000
0000
0000
0000
,
1000
0000
0000
0100
0000
0010
0000
0002
0000
0000
0100
0000
1003
0000
0000
0000
,
1001
0000
0000
0000
0001
0000
0010
0200
0000
0000
1300
0000
0001
0000
0100
0020
,
0000
0000
0130
0000
0001
0000
1000
0100
0000
0100
0010
0000
0002
0000
0010
0000
,
2003
0000
0000
0000
3001
0000
0100
0020
0000
0000
1030
0000
0001
0000
0010
0000
,
0100
0000
0100
0000
0100
0000
1000
0001
0000
0000
0000
0000
0000
0000
0000
0000
,
0201
0000
0000
0310
0000
0000
1000
0000
0001
0000
0010
0000
0001
0000
0100
0000
,
1200
0000
0000
0310
0000
0000
0001
0000
1000
0000
0010
0000
1000
0000
0100
0000
,
0201
0000
0000
0310
0000
0000
1000
0000
0001
0000
0010
0000
0100
0000
0000
1002
,
0000
0000
0103
0000
0100
0000
0010
0200
0000
0000
1300
0000
0100
0000
1000
0000
,
0100
0000
0001
0000
2000
0000
0100
0000
3001
0000
0010
0000
0200
0000
0000
0302
,
0000
0103
2000
0010
3001
0100
0000
0010
,
1000
0100
0010
0100
1000
0010
0100
0000
,
0001
0000
1000
0100
1000
0000
0001
0000
0201
0000
0000
0000
1000
0000
0000
0000
,
0301
0000
1000
0100
1002
0000
0103
0000
,
0001
0010
0100
0000
1200
0000
0001
0000
,
1300
0000
0001
0100
2001
0000
3100
0000
,
1000
0010
0000
0000
0010
0100
0000
0000
0100
0001
0000
0000
1000
0000
0100
0000
,
0010
0100
0001
0000
2100
0000
3010
0100
,
1000
0000
0102
0000
0013
0100
0001
0100
,
0010
0000
0001
1000
0000
1000
0010
0000
0100
0001
0000
0001
2000
0000
0100
0000
,
3001
0000
0000
0000
0010
0000
0010
0000
0000
0100
1000
0000
1000
0000
0002
0000
,
0003
0000
0000
0000
0000
0000
0101
0100
,
1000
0000
0100
0000
0010
0000
1000
0000
0002
0000
0010
0000
0000
0000
0103
0010
,
0100
0000
1000
0000
0100
0000
0010
0000
1000
0000
0001
0000
0010
0100
0020
0000
,
0000
0031
1000
0100
1000
0010
0100
0001
,
1000
0100
1000
0001
0000
0010
0010
0100
,
0001
0100
0010
0001
2000
0010
0000
3100
,
0001
0000
1000
0000
0010
0000
0001
0000
0100
0000
0010
0000
1000
0001
2000
0000
,
0000
3100
0010
0001
1000
0010
0100
0001
,
1000
0000
0100
0000
1000
0000
0010
0000
0000
0000
0100
0000
0100
0000
0001
1000
,
0001
0010
1000
0010
0001
0100
1000
0100
,
0001
0000
0010
0000
1000
0000
0010
0000
0001
0000
1000
0000
0010
0000
0100
0001
,
0100
0010
0000
1000
0100
0010
0100
1000
,
0010
0000
0000
0100
0010
0100
0002
0000
1003
0100
0000
0100
,
0010
0001
1000
0010
1000
0100
0020
0000
0000
1000
0000
0000
,
0031
0000
0000
1000
0100
1000
0002
0000
0103
0010
1000
0010
,
0100
0001
1000
0100
1000
0010
0200
0000
0000
1000
0000
0000
,
0301
0000
1000
0100
0000
0100
0020
0000
0031
0100
0000
0100
,
0010
0000
0000
1000
0000
1000
0100
0010
0100
1000
0001
0100
,
0010
1000
0001
0010
0000
0010
0001
1000
0010
1000
0001
0010
,
0001
0000
0100
0100
,
0010
0100
0001
1000
0100
1000
0010
0000
0000
1000
0100
1000
,
0001
0000
0000
1000
0100
1000
0010
0000
0000
0100
0010
1000
,
0100
0010
0001
1000
0010
1000
0100
0000
0000
1000
0010
1000
,
0001
0000
0000
1000
0010
1000
0100
0000
0000
0011
0000
0000
,
0010
0100
1000
0001
0100
0001
0010
0000
0000
0001
0100
0001
,
1000
0000
0000
0001
0010
0001
0100
0000
0000
0010
0100
0001
,
0010
0100
1000
0001
0010
0001
0100
0000
0000
0001
0010
0001
,
1000
0000
0000
0001
0010
0001
0100
0000
0000
0200
0000
0000
,
0300
0000
0000
0000
0000
0000
0000
0010
,
0100
0000
0001
0000
0010
0000
0100
0000
1000
0000
0002
0000
0000
0000
0103
0010
,
0100
0001
0010
0100
1000
0002
0000
0103
,
0010
1000
0001
0010
0100
0010
0001
1000
,
0010
0100
0010
0100
0000
0001
0001
0100
,
1000
0100
0010
1000
0002
0010
0000
0103
,
1000
0000
0001
0000
0010
0000
1000
0000
0100
0000
0010
0000
0001
1000
0002
0000
,
0000
0103
0010
1000
0001
0010
0100
1000
,
0001
0000
0100
0000
0010
0000
1010
0000
0000
0000
0011
0000
0010
0000
0001
1000
,
0001
0100
1000
0100
0001
0010
1000
0010
,
0001
0100
1000
0100
0001
0010
0100
0000
,
1000
0100
0001
0100
1000
0010
0001
0010
,
1000
0000
0100
0000
0010
0000
0000
0000
0001
0000
0100
0000
0100
0000
0001
1000
,
0001
0010
1000
0010
0001
0100
1000
0100
,
0001
0000
0010
0000
1000
0000
0010
0000
0001
0000
1000
0000
0010
0000
0100
0001
,
0100
0010
0000
1000
0002
0010
1003
0100
,
0100
0000
0010
0000
0000
0000
0001
0000
2000
0000
0010
0000
3001
0000
0100
0001
,
0100
0010
0000
0001
1000
0100
0001
0020
,
0000
0000
0030
0000
0110
0000
0000
0000
1001
0000
0000
0000
0001
0000
0100
0020
,
0000
0000
1030
0000
0001
0000
0010
0200
0000
0000
0310
0000
0001
0000
1000
0010
,
0000
0010
0100
0000
0002
0000
0100
0000
2003
0000
0000
0000
3001
0000
0010
0200
,
0000
0000
1300
0000
0001
0000
0100
0000
0010
0000
0010
0000
0010
0000
1000
0001
,
0000
0000
0010
0000
0001
0000
0100
0000
1001
0000
0000
0000
1000
0000
0100
0020
,
0000
0000
0031
0000
1000
0000
0010
0200
0000
0000
0310
0000
1000
0000
0001
0010
,
0000
0010
0100
0000
2000
0000
0100
0000
3002
0000
0000
0000
1003
0000
0010
0200
,
0000
0000
0301
0000
1000
0000
0100
0000
0010
0000
0010
0000
0010
0000
0001
1000
,
0000
0010
1000
0100
0020
0000
0031
1000
,
0001
0200
0000
0000
,
0000
0000
0300
0000
;

//--------------- dance-single - FS JU XO ----------------
#NOTEDATA:;
#STEPSTYPE:dance-single;
#DESCRIPTION:FS JU XO;
#DIFFICULTY:Challenge;
#METER:16;
#RADARVALUES:0,0,0,0,0;
#CHARTNAME:;
#CHARTSTYLE:;
#CREDIT:Talkion;
#METERF:16;
#NOTES:
0000
0000
0000
0000
,
0000
0000
0000
0000
,
0000
0000
0000
0000
,
0000
0000
0000
0000
,
0001
1000
0000
0100
0000
0100
0010
0001
0000
0010
0002
0000
0103
0000
0000
0000
,
2001
0000
0000
0000
3100
0010
0100
2000
0000
0000
3010
0000
0100
0010
0100
0002
,
0000
0000
1003
0000
0001
0010
0001
1000
0000
0010
1000
0100
0010
0001
1000
0000
,
0010
0100
0000
0100
0000
0001
0100
0020
0000
0000
1030
0000
0100
0010
0100
1000
,
0001
0000
0001
0000
0001
0000
0100
0010
0100
0000
0001
1000
0001
0000
0010
0200
,
1000
0000
0300
0101
0000
0000
0001
1000
0000
1000
0000
0010
0000
0100
0010
0200
,
0001
0000
0300
1100
0000
0000
1000
0001
0000
0001
0010
0100
1000
0000
0100
0020
,
0001
0000
0030
1010
0000
0000
1000
0000
0001
0100
0000
0100
0000
0010
1000
0100
,
0000
0010
0100
0010
0001
0000
0010
0002
0000
0000
0100
0000
2003
0000
0100
0000
,
3020
0000
0130
0000
0001
1000
0001
1000
0100
0000
0100
0000
1000
0100
1000
0010
,
0000
0100
0010
0100
0001
0000
1000
0100
0010
0000
0010
0000
0000
0000
0001
0100
,
0010
0000
0010
0100
0001
0000
1000
0100
0010
0000
0010
0100
1000
0000
0000
0000
,
1001
0000
0001
0100
0010
0000
1010
0000
0021
0000
0000
0000
1000
0000
0000
0000
,
0031
0000
1000
0010
1002
0000
0013
0000
,
0001
0100
0010
0000
1020
0000
0001
0000
,
1030
0000
0001
0010
2001
0000
3010
0000
,
1000
0100
0000
0000
0100
0010
0000
0000
0010
0001
0000
0000
1000
0000
0010
0000
,
0100
0000
0010
0000
1000
0001
0000
0000
0010
0000
0000
0001
1000
0010
0100
0001
,
1000
0000
0100
0000
0010
0100
0000
0100
0002
0000
0103
0010
0001
1000
0010
0100
,
0001
0000
2000
0100
0000
3002
0010
0000
2003
0010
0000
3001
0100
0010
0100
0001
,
0010
0000
0000
0100
0010
0000
0010
0000
0000
0001
1000
0000
1000
0000
0010
0100
,
0002
0000
0000
0000
0000
0003
1200
1000
,
0320
0000
0031
0000
0100
0000
0010
0000
1000
0000
0001
0010
0100
0000
1000
0100
,
0020
0000
0031
0000
0100
0000
0010
0000
1000
0000
0001
0010
0100
0010
0002
0000
,
0000
0000
0103
0000
0010
0000
1000
0100
1000
0000
0001
0100
0001
0000
0010
0000
,
0100
0000
0010
0000
0001
0000
0101
0000
0000
0000
0100
00M0
0200
0000
1000
0000
,
0320
0000
0031
0000
0100
0000
0010
0000
1000
0000
0001
1000
0001
0010
0100
0000
,
0001
0000
0100
0000
1000
0000
0010
0000
0001
0000
1000
0100
0010
0100
0002
0000
,
0000
0000
0013
0000
0100
0000
1000
0010
1000
0000
0001
0010
0001
0000
0100
0000
,
0010
0000
0100
0000
0001
0000
0011
0000
0000
0000
0010
0M00
0010
0000
1000
0010
,
0200
0301
2010
3001
2100
3001
2010
3001
,
2100
0000
3001
0000
2010
0000
3001
0000
2100
0000
3001
0000
0010
0000
0100
1000
,
0100
0010
0000
0001
0100
0010
0100
0001
,
0010
0000
0000
0100
0010
0001
1001
1000
0010
0200
0000
0301
,
1000
0100
0010
0100
1000
0001
0201
0000
0000
1000
0000
0000
,
0301
0000
0000
0100
0010
1000
1001
0001
0010
0100
0010
0001
,
1000
0010
0100
0010
1000
0001
0021
0000
0000
4000
3000
0000
,
0031
0000
0010
0200
0000
1300
1001
0000
0001
0100
0010
1000
,
0001
0000
0000
0020
0000
0130
1100
1000
0010
0100
0001
1000
,
0100
0010
0001
0200
0000
0310
1010
1000
0001
0010
0100
0010
,
0001
0100
0001
1000
0100
1000
0040
0030
0000
0040
0030
0000
,
0100
000M
0100
0000
1000
0000
0001
0000
0010
0000
0100
0000
1100
0000
0000
0000
0000
0000
0100
00M0
0100
0000
0001
0000
,
1000
0000
0000
0000
0000
0000
0100
00M0
0100
0000
0001
0000
1001
0000
0000
0000
0000
0000
1000
0000
0010
0000
1000
0000
,
0100
00M0
0100
0000
0001
0000
1000
0000
0010
0000
0100
0000
0101
0000
0000
0000
0000
0000
0100
00M0
0100
0000
1000
0000
,
0001
0000
0000
0000
0000
0000
0100
00M0
0100
0000
1000
0000
1001
0000
0000
0000
0000
0000
0001
0000
0100
0000
0001
0000
,
0010
0M00
0010
0000
1000
0000
0001
0000
0100
0000
0010
0000
1010
0000
0000
0000
0000
0000
0010
0M00
0010
0000
0001
0000
,
1000
0000
0000
0000
0000
0000
0010
0M00
0010
0000
0001
0000
1001
0000
0000
0000
0000
0000
1000
0000
0100
0000
1000
0000
,
0010
0M00
0010
0000
0001
0000
1000
0000
0100
0000
0010
0000
0011
0000
0000
0000
0000
0000
0010
0M00
0010
0000
1000
0000
,
0001
0000
0000
0000
0000
0000
0010
0M00
0010
0000
1000
0000
1004
0000
0003
0000
0000
0000
0004
0000
0013
0000
0001
0000
,
1000
0010
0100
0001
0010
0000
0000
0100
,
0020
0000
0031
0000
0100
0000
0010
0000
1000
0000
0002
0000
0000
0000
0013
0100
,
0020
0031
0100
0010
1000
0002
0000
0013
,
1001
0001
0100
0010
1000
0100
1000
0001
,
0101
0000
1010
0000
0011
0000
1100
0000
0000
0000
0100
00M0
0200
0000
0001
0000
,
0320
0000
1030
0000
0100
0000
0010
0000
0001
0000
1000
0001
1000
0010
0100
0000
,
1000
0000
0100
0000
0001
0000
0010
0000
1000
0000
0001
0100
0010
0100
2000
0000
,
0000
0000
3010
0000
0100
0000
0001
0010
0001
0000
1000
0010
1000
0000
0100
0000
,
0010
0000
0100
0000
0001
M000
0011
0000
0000
0000
0010
0M00
0010
0000
1000
0010
,
0200
0301
2010
3001
2100
3001
2010
3001
,
2100
3001
2010
3001
2100
3001
1000
0000
,
0102
1003
0012
1003
0102
1003
0012
1003
,
0102
0000
1003
0000
0001
0000
0010
0100
1000
0000
0100
00M0
0100
0000
0001
0100
,
0020
1030
0102
1003
0012
1003
0102
1003
,
0012
0000
1003
0000
0102
0000
1003
0000
0012
0000
1003
0000
0010
0000
0100
0001
,
0100
0000
0010
0000
0000
0000
1000
0000
0002
0000
0100
0000
0023
0000
0130
1000
,
0100
0000
0010
0000
0000
0000
0001
0000
2000
0000
0100
0000
3020
0000
0130
0001
,
0100
0010
0000
0001
1000
0100
0001
0020
,
0000
0000
0030
0000
0110
0000
0000
0000
2001
0000
0000
0000
3010
0100
0010
2000
,
0000
0000
3100
0000
0010
0100
0010
0002
0000
0000
1003
0000
0001
0100
0001
1000
,
0000
0100
1000
0010
0100
0001
1000
0000
0200
0000
0000
0000
0310
0100
0010
0002
,
0000
0000
1003
0000
0010
0100
0010
1000
0001
0000
0001
0000
0001
0000
0010
0100
,
0000
1000
0010
0100
0001
1000
0100
1000
0020
0000
0000
0000
0130
0010
0100
0002
,
0000
0000
0013
0000
0100
0010
0100
2000
0000
0000
3001
0000
1000
0010
1000
0001
,
0000
0010
0001
0100
0010
1000
0001
0000
0020
0000
0000
0000
0130
0010
0100
2000
,
0000
0000
3010
0000
0100
0010
0100
0001
0010
0000
0010
0000
0010
0000
0001
1000
,
0000
0010
0100
0001
0100
0010
1000
0000
0200
0000
0000
0000
0310
0100
0010
0100
,
0010
0002
0000
0000
,
0000
0000
0003
0000
;
