#TITLE:Virus Funk;
#SUBTITLE:;
#ARTIST:Nhato;
#TITLETRANSLIT:;
#SUBTITLETRANSLIT:;
#ARTISTTRANSLIT:;
#GENRE:;
#CREDIT:;
#MUSIC:virus funk.ogg;
#BANNER:bn.png;
#BACKGROUND:bg.png;
#CDTITLE:cdtitle-sorae.png;
#SAMPLESTART:87.273;
#SAMPLELENGTH:14.545;
#SELECTABLE:YES;
#OFFSET:0.000;
#BPMS:0.000=132.000;
#STOPS:;
#BGCHANGES:;
#FGCHANGES:;

//--------------- dance-single - sorae ----------------
#NOTES:
     dance-single:
     sorae:
     Hard:
     13:
     0,0,0,0,0:
0000
0000
0000
0000
,
1000
0010
0000
0000
1000
0001
0000
0000
,
0011
0000
0000
0000
0110
0000
0000
0021
0000
0000
0000
0000
0000
0000
0000
0000
,
0031
0010
0000
0000
0001
1000
0000
0000
,
1010
0000
0000
0000
0110
0000
0000
1020
0000
0000
0000
0000
0000
0000
0000
0000
,
1030
0100
0000
0000
1000
0001
0000
0000
,
0101
0000
0000
0000
0110
0000
0000
0201
0000
0000
0000
0000
0000
0000
0000
0000
,
0301
0100
0000
0000
0001
1000
0000
0000
,
2001
3000
1002
0003
2001
3000
0010
0000
,
1000
0002
0010
1003
0001
0000
0010
0000
,
0001
2000
0010
3001
1000
0000
0010
0000
,
1000
0002
1000
0013
0000
0002
1000
0013
,
0000
0002
1000
0013
0100
0010
0001
0000
,
1000
0002
0100
1003
0001
0000
0100
0000
,
0001
2000
0100
3001
1000
0000
0100
0000
,
0020
0000
0000
0032
0000
0000
2003
0000
0000
0000
3020
0000
0000
0000
0030
0000
,
1002
0003
2001
3000
1002
0003
2001
3000
,
0001
0010
0001
0010
0100
1000
0100
1000
,
0010
0000
0000
0000
0010
0000
0000
0000
1000
0001
1000
0001
0020
0030
0000
0000
,
1002
0000
0000
0000
0203
0000
0000
0000
0301
0010
0001
0000
1000
0100
1000
0000
,
0001
0000
0000
0100
0010
0000
1000
0000
0010
0100
0000
0000
0002
0000
0000
0000
,
2003
0000
0000
0000
3200
0000
0000
0000
1300
0010
1000
0000
0001
0100
0001
0000
,
1000
0100
1000
0000
0001
0010
0001
0000
0100
0010
0100
0000
0001
0000
0000
0000
,
2001
0000
0000
0000
3200
0000
0000
0000
1300
0010
0100
0000
0001
0100
0010
0000
,
1000
0000
0000
0100
0010
0000
0001
0000
0010
0100
0000
0000
2000
0000
0000
0000
,
3002
0000
0000
0000
0203
0000
0000
0000
0301
0010
0100
0000
1000
0100
0010
0000
,
1002
0003
2001
3000
1002
0003
2001
3000
,
0001
0200
0010
0301
0100
0010
0001
0010
,
1000
0200
0010
1300
0100
0010
1000
0010
,
0001
0200
0001
0310
1000
0200
1000
0310
,
0001
0200
0001
0310
0100
0010
1000
0000
,
0001
0020
0100
0031
0010
0100
0001
0100
,
1000
0020
0100
1030
0010
0100
1000
0100
,
0002
0000
0000
0013
0100
0000
2000
0000
3010
0000
2000
0000
3001
0000
1000
0000
,
2001
3000
1002
0003
2001
3000
1002
0003
,
0010
0000
0000
0000
0010
0000
0100
0000
2000
0000
0000
3020
0000
0000
0130
0000
,
0002
0000
0000
0000
,
2003
0000
0000
0000
0000
0000
0000
0000
0000
0000
3200
0000
0000
0320
0000
0000
,
0032
0000
0000
0000
,
0203
0000
0000
0000
0000
0000
0310
0000
2000
0000
0000
3200
0000
0000
0310
0000
,
0002
0000
0000
0000
,
2003
0000
0000
3020
0000
0130
0001
1000
,
0000
0200
0000
0000
0000
0000
0000
0000
0000
0320
0000
0000
0000
0000
0000
0000
,
0031
1000
0010
0100
0001
1000
0100
0010
,
0002
0000
0000
0103
0010
0000
2000
0000
3100
0000
2000
0000
3002
0000
0000
0000
,
1003
0010
1000
0010
0100
0001
0100
0001
,
1000
0100
1000
0000
0010
0100
0001
0000
1000
0100
0010
0000
0001
0100
0001
0000
,
2000
0000
0100
0000
3002
0000
0100
0000
1003
0001
1000
0001
0020
0030
0000
0000
,
0012
0000
0000
0000
1003
0000
0000
0000
0020
0000
0130
0001
1000
0000
0100
1000
,
0001
0000
0000
0100
0001
0000
1000
0000
0100
1000
0000
0000
0010
0100
0010
0000
,
1000
0000
0001
0000
0010
0100
0010
0000
0001
0000
1000
0000
0010
0000
0100
0000
,
1000
0000
0100
0000
0010
0000
0100
0000
0001
1000
0100
0000
0010
0001
1000
0000
,
2010
0000
0000
0000
3001
0000
0000
0000
0020
0000
0130
1000
0001
0000
0100
0001
,
1000
0000
0100
0010
0000
0100
0000
1000
0001
0000
0100
0010
0100
0000
0001
0000
,
1000
0100
0010
1000
0001
0100
1000
0010
,
1010
0000
0000
0011
0000
0000
0001
0010
0200
0000
1300
0010
0200
0000
0300
0000
,
2001
0000
0000
0000
3200
0000
0000
0000
1300
0010
1000
0000
0001
0100
0001
0000
,
1000
0000
0000
0100
0010
0000
0001
0000
0010
0100
0000
0000
2000
0000
0000
0000
,
3001
0000
0100
0000
0010
0000
0100
0000
0001
0010
0001
0000
1000
0100
1000
0000
,
0001
0100
0001
0000
1000
0010
1000
0000
0100
0010
0100
0000
1000
0000
0000
0000
,
1002
0000
0000
0000
0203
0000
0000
0000
0301
0010
0100
0000
1000
0100
0010
0000
,
0001
0000
0000
0100
0010
0000
1000
0000
0010
0100
0000
0000
0002
0000
0000
0000
,
1003
0000
0100
0000
0010
0000
0100
0000
1000
0010
0100
0000
0001
0100
0010
0000
,
1000
0000
1000
0100
0010
0001
0100
0010
,
1000
0000
0100
0010
0100
0000
1000
0000
0010
0100
0010
0000
1000
0001
1000
0001
,
0020
0000
0030
0000
;

//--------------- dance-single - sorae ----------------
#NOTES:
     dance-single:
     sorae:
     Challenge:
     15:
     0,0,0,0,0:
0000
0000
0000
0000
,
1000
1000
0000
0000
0100
0100
0000
0000
,
0110
0000
0000
0000
1100
0000
0000
0110
0000
0100
1000
0100
1000
0001
0100
0001
,
1000
1000
0000
0000
0010
0010
0000
0000
,
0110
0000
0000
0000
1010
0000
0000
0110
0000
0000
0010
0000
1000
0001
0010
0000
,
0001
0001
0000
0000
0100
0100
0000
0000
,
0110
0000
0000
0000
0101
0000
0000
0110
0000
0100
0001
0100
0001
1000
0100
1000
,
0001
0001
0000
0000
0010
0010
0000
0000
,
1002
0003
2001
3000
1002
0003
0110
0000
,
1000
0200
0010
1300
0001
0000
0010
0000
,
0001
0200
0010
0301
1000
0000
0010
0000
,
1000
0200
1000
0310
0001
0200
0001
0310
,
1000
0200
1000
0310
0010
0010
0001
0000
,
1000
0020
0100
1030
0001
0000
0100
0000
,
0001
0020
0100
0031
1000
0000
0100
0000
,
0020
0000
0000
0031
1000
0000
0020
0000
0130
0000
0020
0000
1030
0000
0001
0000
,
1002
0003
2001
3000
1002
0003
2001
3000
,
0001
0001
0010
0010
0100
0100
1000
1000
,
0020
0000
0000
0000
0100
0000
0000
0000
0130
0001
0100
0001
0020
0030
0000
0000
,
0012
0000
0000
0000
2003
0000
0000
0000
3001
0100
0010
1000
0001
0100
0010
1000
,
0100
0000
0010
0001
0010
0000
0100
0000
1000
0001
1000
0000
0020
0000
0000
0030
,
2010
0000
0000
0000
3002
0000
0000
0000
1003
0100
0010
0001
1000
0100
0010
0001
,
0100
0010
1000
0001
0100
0010
1000
0100
0010
0100
0010
0001
0200
0000
0000
0300
,
0102
0000
0000
0000
2003
0000
0000
0000
3100
0010
1000
0010
0100
0010
0001
1000
,
0010
0000
0100
0001
0100
0000
0010
0000
1000
0001
1000
0000
0200
0000
0000
0300
,
2100
0000
0000
0000
3002
0000
0000
0000
0103
0010
0001
0010
0100
0010
1000
0001
,
2000
3000
1002
0003
2001
3000
1002
0003
,
0011
0000
0001
0020
0100
0000
0032
0000
1003
0000
0010
0100
0010
0000
0002
0000
,
0013
0000
1000
0020
0100
0000
2030
0000
3001
0000
0010
0100
0010
0000
2000
0000
,
3010
0000
0100
2000
0001
0000
3010
0000
0100
0000
0010
2000
0001
0000
3100
0000
,
0010
0000
0100
2000
0001
0000
3010
0000
0010
0000
0010
0000
1000
0000
0000
0000
,
1010
0000
1000
0020
0100
0000
2030
0000
3001
0000
0010
0100
0010
0000
2000
0000
,
3010
0000
0001
0020
0100
0000
0032
0000
1003
0000
0010
0100
0010
0000
0002
0000
,
0013
0000
1000
0001
0010
0000
2000
0000
3002
0000
0103
0010
0100
0000
1000
0000
,
2001
3010
1002
0013
2001
3010
1002
0013
,
0100
0000
0000
0000
0100
0000
1000
0000
0020
0000
0000
0230
0000
0000
0301
0000
,
1002
0010
0010
0013
,
0200
0000
0000
0000
0010
0000
0000
0000
0310
0000
0002
0000
0003
0200
0000
0300
,
2001
0010
0010
3010
,
0200
0000
0000
0000
0310
0000
1000
0000
0200
0000
0300
0020
0000
0030
0001
0000
,
1002
0100
0100
0103
,
0020
0000
0130
0002
0000
0013
0001
1000
,
2001
0000
0000
0000
0100
0000
0000
0000
3100
0020
0000
0000
0031
0000
0000
0000
,
1000
0001
1000
0001
0100
0010
0100
0010
1000
0001
1000
0001
0010
0100
0010
0100
,
1000
0000
0001
0100
0010
0000
1000
0000
0100
0000
0010
0001
2000
0000
0000
0000
,
3001
0001
0100
0100
0010
0010
1000
1000
,
0001
0010
0001
1000
0001
0010
0001
1000
0010
1000
0001
1000
0010
1000
0001
0010
,
0001
0000
1001
0000
1000
0000
0010
0000
0100
0001
0100
0001
0020
0030
0000
0000
,
2001
0000
0000
0000
3200
0000
0000
0000
1300
0000
0010
0100
1000
0100
0001
1000
,
0100
0000
0010
0001
0000
0010
0100
0000
1000
0001
0000
0000
0100
0001
1000
0002
,
0010
0000
1003
0000
0100
1000
0001
2000
0010
0000
3001
0010
0001
0000
0100
0000
,
0010
1000
0001
0000
0010
0001
1000
0000
0010
0100
0010
0100
0001
0010
0100
1000
,
0002
0000
0000
0003
0200
0000
0000
0000
0301
0000
0010
0100
0001
0100
1000
0001
,
0100
0000
0000
0000
0000
0000
0010
0000
0000
1000
0000
0000
0000
0000
0000
0200
0000
0000
0000
0000
0000
0310
0000
0000
0001
0000
0000
0000
0000
0000
1000
0000
0010
0000
1000
0000
0001
0000
0000
0010
0000
0000
0100
0000
0000
0010
0000
0000
,
0001
1000
0010
1000
0001
1000
0010
0100
0020
0000
0031
1000
0100
0010
1000
0001
,
0010
0000
0000
0000
0000
0000
0000
0000
0000
1001
0000
0000
0000
0000
0000
0000
0000
0000
1000
0000
0001
0000
0010
0000
0200
0000
0000
0000
0000
0000
1300
0000
0001
0000
0100
0000
0020
0000
0000
0000
0000
0000
0030
0000
0000
0000
0000
0000
,
2010
0000
0000
0000
3002
0000
0000
0000
1003
0100
0010
0001
1000
0100
0010
0001
,
0100
0000
0001
1000
0100
0000
1000
0000
0010
0100
0001
0000
0020
0000
0000
0030
,
0012
0000
1003
0000
0100
0000
1000
0000
0001
0100
0010
1000
0001
0100
0010
1000
,
0100
0010
0001
1000
0100
0010
0001
0100
0010
0100
0010
1000
0200
0000
0300
0000
,
2100
0000
0000
0000
3002
0000
0000
0000
1003
0010
0001
0010
0100
0010
1000
0001
,
0010
0000
0001
1000
0010
0000
1000
0000
0100
0010
0001
0000
0200
0000
0000
0300
,
0102
0000
1003
0000
0010
0000
1000
0000
0001
0010
1000
0010
0100
0010
0001
1000
,
0001
0000
0000
0000
0001
0100
0001
0010
0001
1000
0100
1000
0010
1000
0001
0010
,
0001
1000
0010
1000
0100
0010
0001
1000
0010
0100
0001
0010
0001
0100
0010
1000
,
0200
0000
0300
0000
;
