#TITLE:Verflucht;
#SUBTITLE:;
#ARTIST:Tyrfing;
#TITLETRANSLIT:;
#SUBTITLETRANSLIT:;
#ARTISTTRANSLIT:;
#GENRE:;
#CREDIT:;
#BANNER:banner.png;
#BACKGROUND:;
#LYRICSPATH:;
#CDTITLE:;
#MUSIC:Verflucht.ogg;
#OFFSET:-0.550000;
#SAMPLESTART:45.599998;
#SAMPLELENGTH:12.000000;
#SELECTABLE:YES;
#BPMS:0.000000=180.000000
,328.000000=90.000000
;
#STOPS:
;
#BGCHANGES:;
#KEYSOUNDS:;
#ATTACKS:;

//---------------dance-single - ----------------
#NOTES:
     dance-single:
     :
     Challenge:
     18:
     1.087823,1.177909,0.121144,0.276900,1.401809,880.000000,866.000000,14.000000,32.000000,0.000000,0.000000,1.087823,1.177909,0.121144,0.276900,1.401809,880.000000,866.000000,14.000000,32.000000,0.000000,0.000000:
// measure 0
0000
0000
0000
0000
,  // measure 1
0000
0000
0000
0000
,  // measure 2
1000
0010
1000
0000
0001
0000
0100
0001
0100
0000
0010
0000
1000
0100
1000
0000
,  // measure 3
0001
0010
0001
0000
0100
0000
0001
0010
0100
0000
1000
0000
0002
0000
0103
0000
,  // measure 4
0001
0100
0001
0000
1000
0000
0100
1000
0100
0000
0010
0000
0001
0100
0001
0000
,  // measure 5
1000
0010
1000
0000
0001
0000
0010
0100
0010
0100
1000
0000
0002
0000
1003
0000
,  // measure 6
0001
0100
0001
0000
0010
0000
0100
1000
0100
0000
0010
0000
0001
0100
0001
0000
,  // measure 7
1000
0100
1000
0000
0010
0000
0100
0001
0010
0000
0100
0000
2000
0000
3010
0000
,  // measure 8
1000
0100
1000
0000
0001
0000
0100
0001
0100
0000
0010
0000
0100
0001
0100
0000
,  // measure 9
0001
0000
0001
0000
1000
0000
1000
0000
0010
0100
0001
1000
0100
0000
0000
0000
,  // measure 10
0010
0000
0001
0100
0010
1000
0000
0010
0100
0000
0010
0001
0000
0010
0100
0000
,  // measure 11
0010
0000
1000
0001
1000
0100
0000
0010
0100
0000
0001
0100
0000
0010
0100
0000
,  // measure 12
1000
0000
0001
0100
0010
0100
0000
1000
0100
0000
0010
0100
0000
0001
0100
0000
,  // measure 13
0010
0000
1000
0100
0010
0100
0000
0001
0100
0000
0010
0100
1000
0100
1000
0000
,  // measure 14
0001
0000
0010
0001
0100
0010
0000
0100
1000
0000
0100
0010
0000
0100
0001
0000
,  // measure 15
1000
0000
0010
1000
0100
1000
0000
0100
0010
0000
0100
0001
0000
0100
0010
0000
,  // measure 16
0100
0000
1000
0010
0100
0010
0000
0001
0010
0000
0100
0010
0000
1000
0010
0000
,  // measure 17
1000
0100
1000
0100
0010
0001
0010
0001
1000
0010
1000
0010
0100
0001
0100
0001
,  // measure 18
0010
0010
0010
0010
0010
0010
0010
0010
,  // measure 19
0200
0310
0010
0010
2002
0000
0000
3003
,  // measure 20
2000
0100
3000
0002
0100
0003
2000
0010
,  // measure 21
3000
0002
0010
0003
0100
0001
1000
1000
,  // measure 22
0100
0100
0100
0100
0100
0100
0100
0100
,  // measure 23
0020
0130
0100
0100
2002
0000
0000
3003
,  // measure 24
2000
0010
3010
0002
0010
0013
2000
0100
,  // measure 25
3100
0002
0100
0103
2002
0000
0000
3003
,  // measure 26
1000
0100
1000
0100
1000
0100
1000
0100
1000
0100
1000
0100
1000
0000
0001
0100
,  // measure 27
0001
0100
0001
0100
0001
0100
0001
0100
0010
0000
0000
0000
1010
0000
1000
0001
,  // measure 28
0010
0001
0010
0001
0010
0001
0010
0001
0010
0001
0010
0001
0010
0000
0001
1000
,  // measure 29
0010
1000
0010
1000
0010
1000
0010
1000
0010
0000
0100
0010
1000
0001
0100
0010
,  // measure 30
1000
0100
1000
0100
1000
0100
1000
0100
1000
0100
1000
0100
0010
0000
0001
0100
,  // measure 31
0001
0100
0001
0100
0001
0100
0001
0100
0001
0000
0000
0000
1001
0000
0001
1000
,  // measure 32
0010
0100
0010
0100
0010
0100
0010
0100
0010
0100
0010
0100
0010
0000
1000
0001
,  // measure 33
0100
0010
1000
0100
0010
0001
0100
0010
1000
0000
0001
2000
0002
0000
3003
0000
,  // measure 34
1000
0010
1000
0010
0100
0000
0001
0010
0001
0100
0010
0000
1000
0000
0100
0000
,  // measure 35
1000
0010
1000
0000
0001
0000
0100
0000
0001
0010
0100
0000
1000
0010
0100
0000
,  // measure 36
0001
1000
0010
1000
0001
0000
0100
0010
1000
0010
0100
0000
0001
0000
1000
0000
,  // measure 37
0100
1000
0010
0000
0100
0001
1000
0000
0001
0100
0001
0100
0010
1000
0010
0000
,  // measure 38
1000
0100
1000
0001
0100
0000
0010
1000
0010
1000
0001
0000
0100
0000
0001
0000
,  // measure 39
0010
0100
0010
0000
0100
0000
1000
0000
0001
0100
0010
0000
1000
0100
0010
0000
,  // measure 40
0001
0100
0001
0100
0010
0000
1000
0001
0100
0001
1000
0000
0100
0000
0010
0000
,  // measure 41
0011
0000
0101
0000
0001
1000
0000
1000
0100
1000
0100
0010
0002
0000
2003
0000
,  // measure 42
3010
0100
0001
1000
0100
1000
0010
0100
0001
0010
0100
1000
0010
0100
0001
1000
,  // measure 43
0100
1000
0001
0100
0010
1000
0100
1000
0001
0010
0100
1000
0001
0100
0010
1000
,  // measure 44
0100
0010
0001
0100
0010
1000
0001
0100
0010
0100
0001
1000
0100
1000
0010
0100
,  // measure 45
0001
0010
0001
0100
0010
1000
0100
1000
0001
0010
0100
1000
0001
0100
0010
1000
,  // measure 46
0100
1000
0001
0100
0010
1000
0010
0100
0001
0010
0100
1000
0010
0100
0001
1000
,  // measure 47
0100
1000
0010
0100
0001
1000
0100
0010
0001
0010
0100
1000
0001
0100
0010
1000
,  // measure 48
0100
1000
0010
0100
0001
0010
0100
0010
0001
1000
0010
0100
0010
1000
0001
0100
,  // measure 49
0010
1000
0010
0100
0001
0010
0100
1000
0001
0100
0010
0100
0001
1000
0100
0010
,  // measure 50
0002
0000
0000
0000
,  // measure 51
0000
0000
0000
0000
,  // measure 52
2003
0000
0000
0000
,  // measure 53
0000
0000
0000
0000
,  // measure 54
3020
0000
0000
0000
,  // measure 55
0000
0000
0000
0000
,  // measure 56
0230
0000
0000
0000
,  // measure 57
0000
0000
0300
0000
2002
0000
0000
3003
,  // measure 58
1000
0010
1000
0010
1000
0010
1000
0010
1000
0010
1000
0010
1000
0000
0100
0010
,  // measure 59
0001
0010
0001
0010
0001
0010
0001
0010
0100
0000
0000
0000
1100
0000
1000
0001
,  // measure 60
0100
0001
0100
0001
0100
0001
0100
0001
0100
0001
0100
0001
0100
0000
0001
1000
,  // measure 61
0100
1000
0100
1000
0100
1000
0100
1000
0100
0000
1000
0100
0010
0001
0100
0010
,  // measure 62
1000
0001
1000
0100
1000
0001
1000
0100
1000
0001
1000
0100
1000
0000
0001
1000
,  // measure 63
0001
0010
0001
1000
0001
0010
0001
1000
0100
0000
0000
0000
1100
0000
1000
0010
,  // measure 64
0100
0010
1000
0010
0100
0010
1000
0010
0100
0010
1000
0010
0100
0000
0001
1000
,  // measure 65
0001
0010
0001
0010
0100
1000
0010
0100
0001
1000
0001
1000
0100
0010
0100
0000
,  // measure 66
0010
0001
0100
0000
0010
0000
1000
0000
1100
0000
0100
1000
0001
0000
0010
0000
,  // measure 67
0100
1000
0001
0000
1000
0000
0100
0000
1000
0010
0000
0100
0001
0000
0010
0000
,  // measure 68
0100
0010
0001
0000
1000
0000
0010
0000
1010
0000
0010
1000
0001
0000
0100
0000
,  // measure 69
0010
0100
0001
0000
0010
0000
0100
0000
1000
0001
0000
0100
0010
0000
1000
0000
,  // measure 70
0001
1000
0010
0000
1000
0000
0100
0000
0110
0000
0100
0010
0001
0000
0100
0000
,  // measure 71
0010
0001
0010
0000
1000
0000
0100
0000
0010
0001
0000
1000
0010
0000
0100
0000
,  // measure 72
0001
0100
0010
0000
1000
0000
0100
0000
1100
0000
0100
1000
0001
0000
0010
0000
,  // measure 73
0100
0001
0100
0000
1000
0000
0001
0000
0010
0100
1000
0010
0200
0000
0302
0000
,  // measure 74
1003
0010
0100
0010
1000
0000
0100
0000
0010
0000
0001
0100
0000
1000
0100
0000
,  // measure 75
0010
0100
0001
1000
0100
0000
0010
0000
0100
0000
0001
0100
0000
0100
1000
0000
,  // measure 76
0010
0100
0001
1000
0100
0000
1000
0000
0001
0000
1000
0010
0000
0001
0010
0000
,  // measure 77
1000
0100
1000
0010
0100
0000
0001
0000
0010
0000
1000
0010
0000
0010
0001
0000
,  // measure 78
0100
0001
0100
0010
0100
0000
0001
1000
0010
0100
0010
0001
0010
0000
0100
0001
,  // measure 79
1000
0010
1000
0100
0010
0000
0001
0100
0010
0100
1000
0100
0010
0000
1000
0000
,  // measure 80
0010
0100
0001
1000
0100
0010
0001
0100
0010
1000
0001
0100
0010
1000
0100
0010
,  // measure 81
0001
0010
0100
1000
0001
0100
1000
0100
0010
1000
0001
0010
1000
0010
0100
1000
,  // measure 82
0002
0000
0003
0000
;

//---------------dance-single - ----------------
#NOTES:
     dance-single:
     :
     Hard:
     16:
     0.928358,1.103167,0.086531,0.216328,0.882620,751.000000,741.000000,10.000000,25.000000,0.000000,0.000000,0.928358,1.103167,0.086531,0.216328,0.882620,751.000000,741.000000,10.000000,25.000000,0.000000,0.000000:
0000
0000
0000
0000
,
0000
0000
0000
0000
,
1000
0000
0001
0000
0100
0000
0010
1000
0010
0000
0100
0000
0001
0000
1000
0000
,
0100
0000
1000
0000
0001
0000
0010
0001
0010
0000
0100
0000
2000
0000
3000
0000
,
0010
0000
0100
0000
0001
0000
1000
0100
1000
0000
0001
0000
0100
0000
0010
0000
,
0100
0000
0001
0000
0010
0000
0100
1000
0100
0000
0010
0000
0002
0000
0003
0000
,
0100
0010
0100
0000
0001
0000
1000
0100
1000
0000
0010
0000
0100
0000
0001
0000
,
1000
0010
1000
0000
0001
0000
0100
0001
0100
0000
0010
0000
0200
0000
0300
0000
,
0001
1000
0001
0000
0100
0000
0010
1000
0010
0000
1000
0000
0100
0000
0010
0000
,
0001
0000
1000
0000
0001
0000
1000
0000
0010
0100
0010
0100
0020
0000
0030
0000
,
1000
0000
0001
0000
1000
0010
0000
1000
0010
0000
0100
0010
0000
1000
0010
0000
,
0100
0000
0001
0000
0010
0001
0000
0010
0001
0000
0100
0001
0000
0010
0001
0000
,
0100
0000
0001
0000
0010
0100
0000
0010
0100
0000
1000
0100
0000
0010
0100
0000
,
1000
0000
0001
0000
0100
0010
0000
0100
0001
0000
1000
0100
0010
0000
0001
0000
,
1000
0000
0010
0000
1000
0001
0000
0100
0001
0000
0010
0001
0000
0100
0001
0000
,
1000
0000
0001
0000
1000
0001
0000
1000
0010
0000
1000
0100
0000
1000
0010
0000
,
0100
0000
0001
0000
1000
0001
0000
0100
0010
0000
0100
0001
0000
1000
0010
0000
,
0100
0000
0001
0000
1000
0001
0000
0100
0010
0000
1000
0010
0000
0100
0001
0000
,
0010
0100
0010
0100
0010
0100
0010
0100
,
0010
0100
0010
0100
2000
0000
3000
0000
,
0010
2000
3000
0001
2000
3000
0010
2000
,
3000
0100
2000
3000
0010
0100
0001
1000
,
0100
0010
0100
0010
0100
0010
0100
0010
,
0100
0010
0100
0010
0002
0000
0003
0000
,
0010
0002
0003
1000
0002
0003
0100
0002
,
0003
0010
0002
0003
2002
0000
3003
0000
,
1000
0100
1000
0000
0100
1000
0100
0000
1000
0100
1000
0000
0010
0000
0100
0001
,
0100
0001
0100
0000
0001
0100
0001
0000
0100
0000
0000
0000
0110
0000
0010
1000
,
0010
1000
0010
0000
1000
0010
1000
0000
0010
1000
0010
0000
1000
0000
0001
0010
,
0001
0010
0001
0000
0010
0001
0010
0000
0001
0000
0100
0001
0100
0001
0100
0000
,
0010
1000
0010
0000
0100
0001
0100
0000
0010
1000
0010
0000
1000
0000
0001
0100
,
0001
0010
0001
0000
1000
0010
1000
0000
0100
0000
0000
0000
1100
0000
1000
0010
,
0100
0010
0100
0000
0001
0010
0001
0000
1000
0010
1000
0000
0010
0000
0100
0001
,
1000
0000
0100
0000
1000
0010
0000
0010
0100
0000
0100
0001
2000
0000
3000
0000
,
0010
0000
0100
0000
0001
0000
1000
0000
0100
0010
0100
0000
1000
0000
0001
0000
,
0010
0000
0100
0000
0010
0000
0001
0000
1000
0010
1000
0010
0100
0001
0100
0000
,
0010
0000
1000
0000
0001
0000
1000
0000
0100
0010
0001
0000
0100
0000
0010
0000
,
1000
0000
0001
0000
1000
0000
0100
0000
0010
0001
0010
0000
0100
1000
0100
0000
,
1000
0000
0001
0000
0100
0000
0010
0000
1000
0010
1000
0000
0001
0000
0100
0000
,
0010
0000
0100
0000
0001
0000
1000
0000
0010
0100
0010
0100
0001
1000
0001
0000
,
0100
0000
0010
0000
1000
0000
0100
0000
0010
0001
0010
0000
0100
0000
1000
0000
,
0001
0000
0000
0000
0000
0000
0000
0000
0000
0000
0000
0000
0000
0000
0000
0000
0000
0000
0000
0000
0000
0000
0000
0000
0001
0000
0000
0000
0000
0000
0000
0000
0000
0000
0000
0000
0000
0000
0000
0000
0000
0000
0000
0000
0000
0000
0000
0000
0100
0000
0000
0000
0000
0000
0000
0000
0000
0000
0000
0000
0010
0000
0000
0000
0000
0000
0000
0000
0000
0000
0000
0000
0000
0000
0000
0000
0000
0000
0000
0000
0000
0000
0000
0000
0010
0000
0000
0000
0000
0000
0000
0000
0000
0000
0000
0000
1000
0000
0000
0000
0000
0000
0000
0000
0000
0000
0000
0000
0000
0000
0000
0000
0000
0000
0000
0000
0000
0000
0000
0000
1000
0000
0000
0000
0000
0000
0000
0000
0000
0000
0000
0000
0001
0000
0000
0000
0000
0000
0000
0000
0000
0000
0000
0000
0020
0000
0000
0000
0000
0000
0000
0000
0000
0000
0000
0000
0000
0000
0000
0000
0000
0000
0000
0000
0000
0000
0000
0000
0230
0300
0000
0000
0000
0000
0000
0000
0000
0000
0000
0000
0000
0000
0000
0000
0000
0000
0000
0000
0000
0000
0000
0000
,
1000
0010
1000
0010
0100
0000
0001
0000
0010
0001
0100
0000
0010
0100
0001
0000
,
0010
0100
0010
0100
1000
0000
0001
0000
1000
0010
1000
0000
0001
0010
0001
0000
,
1000
0100
1000
0100
0010
0000
0001
0000
1000
0010
0100
0000
0010
1000
0100
0000
,
0010
0001
0010
0001
0100
0000
0010
0000
1000
0001
0100
0001
1000
0100
1000
0000
,
0010
0100
0010
0100
0001
0000
1000
0000
0100
0010
0001
0000
0100
0001
0010
0000
,
0100
1000
0100
1000
0010
0000
0100
0000
0001
1000
0001
1000
0100
0010
0100
0000
,
1000
0010
1000
0010
0100
0000
0001
0000
0010
0001
0100
0000
0010
1000
0100
0000
,
1000
0000
0001
0000
0100
0010
0000
0010
1000
0000
1000
0010
0100
0001
1000
0000
,
2001
0000
0000
0000
,
0000
0000
0000
0000
,
0000
0000
0000
0000
,
3000
0000
0000
0000
,
0010
0100
0000
0000
0001
0000
1000
0000
0100
0000
0000
0010
0000
0000
0100
0000
,
0000
1000
0000
0000
0001
0000
0100
0000
0010
0000
0000
0001
0000
0000
0010
0000
,
1000
0010
0000
0000
0100
0000
0001
0000
0010
0000
0000
0100
0000
0000
0010
0000
,
0000
0100
0000
0000
0001
0000
0100
0000
2000
0000
0000
0000
0000
0000
3000
0000
,
0001
0100
0001
0000
0100
0001
0100
0000
0001
0100
0001
0000
1000
0000
0100
1000
,
0100
1000
0100
0000
1000
0100
1000
0000
0010
0000
0000
0000
1010
0000
1000
0001
,
0010
0001
0010
0000
0001
0010
0001
0000
0010
0001
0010
0000
0001
0000
1000
0010
,
1000
0010
1000
0000
0010
1000
0010
0000
1000
0000
0010
0100
0001
1000
0001
0000
,
1000
0100
1000
0000
0100
1000
0100
0000
0010
0001
0010
0000
0001
0000
0010
0001
,
0100
0001
0100
0000
0010
1000
0010
0000
1000
0000
0000
0000
1100
0000
1000
0100
,
0010
0001
0010
0000
0001
0010
0001
0000
0100
0001
0100
0000
0010
0000
1000
0010
,
1000
0100
1000
0100
0010
0001
0010
0001
0200
0000
0000
0000
0000
0000
0300
0000
,
0010
1000
0000
0000
0001
0000
0100
0000
0101
0000
0000
0001
1000
0000
0100
0000
,
0010
0100
1000
0000
0010
0000
0100
0000
0001
0000
1000
0001
0100
0000
0010
0000
,
1000
0100
0000
0000
0010
0000
0001
0000
0101
0000
0000
0100
0001
0000
1000
0000
,
0010
0100
0010
0000
1000
0000
0100
0000
0010
0001
0010
0000
0100
0000
1000
0000
,
0001
1000
0000
0000
0100
0000
1000
0000
1010
0000
0010
0100
0010
0000
1000
0000
,
0001
0100
0000
0000
0010
0000
1000
0000
0100
0000
0010
0001
0100
0000
0010
0000
,
1000
0001
0000
0000
0100
0000
0010
0000
1010
0000
1000
0010
1000
0000
0001
0000
,
0010
0000
0010
0000
0100
0000
0100
0000
1000
0010
0100
0001
0020
0000
0030
0000
,
0001
1000
0001
0000
0100
0000
0010
0000
1000
0000
0100
1000
0100
0000
0010
0000
,
0001
1000
0000
0010
0100
0000
0001
0000
1000
0000
0100
0010
0001
0000
1000
0000
,
0010
1000
0010
0000
0100
0000
0001
0000
1000
0000
0100
1000
0100
0000
0010
0000
,
0001
0100
0000
0010
1000
0000
0100
0000
1000
0000
0010
0100
0002
0000
0003
0000
,
1000
0000
0100
0000
1000
0000
0010
0000
1000
0100
1000
0010
1000
0000
0100
0010
,
0001
0000
0100
0000
0001
0000
0010
0000
0001
0100
0001
0010
0001
0000
0100
0001
,
1000
0100
1000
0100
0010
0100
0010
0000
0001
0100
0001
0100
0010
1000
0010
0000
,
1000
0100
1000
0001
0100
0001
1000
0010
0100
0001
1000
0001
0010
0100
1000
0010
,
0200
0300
0000
0000
;

//---------------dance-single - ----------------
#NOTES:
     dance-single:
     :
     Medium:
     13:
     0.640332,0.674079,0.025959,0.112491,0.199022,518.000000,515.000000,3.000000,13.000000,0.000000,0.000000,0.640332,0.674079,0.025959,0.112491,0.199022,518.000000,515.000000,3.000000,13.000000,0.000000,0.000000:
0000
0000
0000
0000
,
0000
0000
0000
0000
,
1000
1000
0010
0100
0001
0010
0001
0000
,
0010
0010
0001
0100
0010
1000
0001
0000
,
1000
1000
0010
0100
0001
1000
0100
0000
,
1000
1000
0001
0100
0000
0010
1000
0000
,
0001
0001
1000
0100
0010
0001
0100
0000
,
0001
0001
1000
0010
0100
0001
1000
0000
,
0010
0010
1000
0001
0100
0010
1000
0000
,
0100
0100
0010
0010
0001
1000
0100
0000
,
1000
0000
0010
0000
0100
0001
0000
0000
0001
0000
0000
1000
0000
0000
0001
0000
,
1000
0000
0100
0000
1000
0100
0000
0000
0010
0000
0000
0100
0000
0000
0010
0000
,
0001
0000
1000
0000
0010
0100
0000
0000
0001
0000
0000
1000
0000
0000
0001
0000
,
1000
0000
0100
0000
0010
0100
0000
0000
1000
0000
0000
0001
0100
0000
0010
0000
,
1000
0000
0001
0000
0010
0100
0000
0000
0010
0000
0000
1000
0000
0000
0010
0000
,
0001
0000
0100
0000
0010
0100
0000
0000
1000
0000
0000
0100
0000
0000
0001
0000
,
0010
0000
0100
0000
0010
0100
0000
0000
1000
0000
0000
0001
0000
0000
0100
0000
,
0010
0000
0001
0000
0010
0000
1000
0000
0100
0000
0010
0100
0010
0000
0001
0000
,
0100
0100
0100
0000
0010
0010
0010
0000
,
0100
0100
0100
0000
2002
0000
3003
0000
,
1000
0100
0000
0010
0001
0000
1000
0010
,
0000
0100
0001
0000
0010
0100
0010
0000
,
0001
0001
0001
0000
1000
1000
1000
0000
,
0001
0001
0001
0000
0220
0000
0330
0000
,
0010
1000
0000
0001
0100
0000
0001
1000
,
0000
0100
0010
0000
0002
0000
1003
0000
,
1000
0100
0010
0001
1000
0010
0100
0001
,
0010
0100
1000
0010
0100
0000
0001
1000
,
0100
1000
0010
0100
0001
0010
0100
1000
,
0010
0100
0001
1000
0100
0010
0001
1000
,
0010
0100
0001
1000
0100
0010
0001
1000
,
0010
0100
0001
1000
0100
0000
0010
0001
,
1000
0010
0100
0001
0010
0100
1000
0001
,
0100
0000
0100
0000
0010
1000
0000
0001
0100
0000
0010
0000
2000
0000
3000
0000
,
0001
0100
0001
1000
0100
0000
0010
0001
,
1000
0000
0010
1000
0001
0100
0010
0000
,
1000
0100
1000
0001
0100
0000
0010
0100
,
0001
0000
0010
0100
0010
0100
1000
0000
,
0010
1000
0100
0010
0001
0000
0100
0001
,
1000
0000
0010
0100
0001
0100
0010
0000
,
1000
0100
1000
0100
0010
0000
0001
0100
,
0010
0000
0100
0000
0001
1000
0000
1000
0001
0000
0100
0000
0010
0000
0000
0000
,
0010
1000
0100
0010
0100
0001
0100
0010
,
0001
0100
0010
1000
0001
0100
0001
0000
,
1000
0001
0100
0010
0100
1000
0100
0001
,
0010
0100
1000
0010
0100
0001
1000
0000
,
0001
1000
0010
0100
0010
0001
0010
0100
,
0001
0010
1000
0010
0100
1000
0001
0000
,
1000
0100
0001
0100
0010
0001
0100
0010
,
0100
1000
0100
0001
0010
0100
1000
0010
,
0200
0000
0000
0000
,
0000
0000
0000
0000
,
0320
0000
0000
0000
,
0000
0000
0000
0000
,
2030
0000
0000
0000
,
0000
0000
0000
0000
,
3002
0000
0000
0000
,
0000
0003
2002
3003
,
1000
0100
0010
0001
1000
0010
0100
0001
,
0010
0100
1000
0010
0100
0000
0001
1000
,
0010
0100
0001
1000
0100
0010
0001
1000
,
0010
0100
0010
1000
0001
0010
0100
1000
,
0001
0100
0010
0100
0001
0010
0100
1000
,
0001
0100
1000
0100
0010
0000
1000
0010
,
1000
0100
0001
0100
0010
0001
0100
0010
,
1000
0001
0000
1000
0001
0000
1000
0000
0020
0000
0000
0000
0030
0000
0000
0000
,
1000
0001
0000
0000
0100
0000
0010
0000
1000
0000
0000
0100
0000
0000
1000
0000
,
0000
0001
0000
0000
0100
0000
0010
0000
0100
0000
0000
0001
0000
0000
0010
0000
,
0100
1000
0000
0000
0001
0000
1000
0000
0010
0000
0000
0100
0000
0000
0001
0000
,
0000
1000
0000
0000
0100
0000
1000
0000
0010
0000
0100
0001
0000
0000
0010
0000
,
0100
0010
0000
0000
0001
0000
1000
0000
0100
0000
0000
1000
0000
0000
0010
0000
,
0000
0100
0000
0000
0001
0000
0100
0000
0010
0000
0000
1000
0000
0000
0001
0000
,
0010
0100
0000
0000
1000
0000
0001
0000
1000
0000
0000
0010
0000
0000
0100
0000
,
0000
0001
0000
0000
0100
0000
0010
0000
1000
0000
1000
0000
0001
0000
0000
0000
,
1000
0010
0100
0000
0001
0000
1000
0000
0100
0000
0000
0010
0000
0000
0001
0000
,
0000
0100
0000
0000
0010
0000
1000
0000
0001
0000
1000
0010
0000
0000
0100
0000
,
0001
0010
0001
0000
0100
0000
0010
0000
1000
0000
0000
0100
0000
0000
1000
0000
,
0000
0001
0000
0000
0100
0000
0010
0000
0100
0000
0001
0010
0000
0000
0100
0000
,
1000
0100
1000
0100
0010
0001
0100
0010
,
0100
0010
0100
0010
1000
0001
0100
0010
,
1000
0001
0010
1000
0010
0001
0100
0010
,
0100
0000
0001
0000
1000
0000
0100
0000
0010
0001
0010
0001
0010
0000
0100
0000
,
1000
0000
0000
0000
;

//---------------dance-single - ----------------
#NOTES:
     dance-single:
     :
     Easy:
     10:
     0.449963,0.532168,0.043266,0.069225,0.056245,364.000000,359.000000,5.000000,8.000000,0.000000,0.000000,0.449963,0.532168,0.043266,0.069225,0.056245,364.000000,359.000000,5.000000,8.000000,0.000000,0.000000:
0000
0000
0000
0000
,
0000
0000
0000
0000
,
1000
1000
0010
0010
,
0100
0000
0100
0000
0001
0010
0001
0000
,
1000
1000
0010
0010
,
0100
0000
0001
0000
1000
0100
1000
0000
,
0010
0100
0001
1000
,
0100
0000
0010
0000
0001
0100
0001
0000
,
1000
0010
0100
0010
,
1000
0000
0001
0000
1000
0001
1000
0000
,
0010
0000
0000
0000
0100
0000
0000
0000
0001
0000
0000
0001
0000
0000
0001
0000
,
1000
0000
0000
0000
0010
0000
0000
0000
0100
0000
0000
0100
0000
0000
0100
0000
,
0010
0000
0000
0000
1000
0000
0000
0000
0100
0000
0000
0100
0000
0000
0100
0000
,
0010
0000
0000
0000
0001
0000
0000
0000
1000
0000
0000
0001
0000
0000
1000
0000
,
0010
0000
0000
0000
0100
0000
0000
0000
0001
0000
0000
0001
0000
0000
0100
0000
,
0001
0000
0000
0000
0010
0000
0000
0000
0100
0000
0000
0100
0000
0000
1000
0000
,
0010
0000
0000
0000
1000
0000
0000
0000
0001
0000
0000
0001
0000
0000
1000
0000
,
0010
0000
0100
0000
0010
0100
0010
0100
,
0002
0000
0000
0000
,
0000
0003
1001
0000
,
1000
0010
0000
1000
0010
0000
1000
0010
,
0000
1000
0010
0000
0100
0000
0001
0000
,
2000
0000
0000
0000
,
0000
3000
1001
0000
,
0001
0100
0000
0001
0100
0000
0001
0100
,
0000
0001
0100
0000
0220
0000
0330
0000
,
0010
0000
1000
0010
1000
0000
0001
0000
,
0010
0001
0010
0001
0010
0000
0100
0000
,
1000
0000
0100
1000
0100
0000
1000
0000
,
0001
0100
0001
0100
0001
0000
0010
0000
,
0100
0000
1000
0010
1000
0000
0100
0000
,
1000
0010
1000
0010
1000
0000
0001
0000
,
0100
0000
0001
0010
0001
0000
0100
0000
,
0010
0000
1000
0000
0001
1000
0100
0000
,
1000
0000
0100
1000
0100
0000
0010
0000
,
0001
0000
0100
0000
0001
1000
0001
0000
,
0100
0000
0010
1000
0010
0000
0100
0000
,
0001
0000
0010
0000
0100
0010
0100
0000
,
1000
0000
0001
0100
0001
0000
1000
0000
,
0010
0000
1000
0000
0001
1000
0001
0000
,
0100
0000
0010
1000
0010
0000
1000
0000
,
0100
0000
0010
0000
0001
1000
0001
1000
,
0100
0000
1000
0000
0010
0100
0010
0000
,
1000
0000
0001
0000
0010
0100
1000
0000
,
0001
0000
1000
0000
0001
0100
0010
0000
,
1000
0000
0001
0000
0010
0100
1000
0100
,
1000
0000
0001
0000
1000
0010
0100
0000
,
0001
0000
1000
0000
0100
0010
0001
0000
,
0100
0000
0001
0000
1000
0010
0100
0000
,
0001
1000
0001
0000
0100
0010
0100
0000
,
0120
0000
0000
0000
,
0030
0000
0000
0000
,
2000
0000
0000
0000
,
3000
0000
0000
0000
,
0002
0000
0000
0000
,
0003
0000
0000
0000
,
0200
0000
0000
0000
,
0300
0000
0110
0000
,
1000
0000
0100
0000
1000
0100
0010
0000
,
0001
0100
0001
0100
0010
0000
0010
0000
,
1000
0000
0001
0000
0100
0001
0100
0000
,
0010
1000
0010
1000
0100
0000
0010
0001
,
0100
0000
0010
0000
1000
0100
1000
0000
,
0001
0100
0001
0100
0010
0000
1000
0000
,
0100
0000
0010
0000
0001
1000
0001
0000
,
0100
0010
1000
0010
0100
0000
0000
0000
,
0001
0000
1000
0000
0100
0000
1000
0010
,
0000
0100
0001
0000
0010
0000
0100
0000
,
1000
0000
0001
0000
0100
0000
0010
1000
,
0000
0001
0100
0000
0010
0000
1000
0000
,
0100
0000
0010
0000
0001
0000
0100
0001
,
0000
1000
0010
0000
0100
0000
0001
0000
,
1000
0000
0100
0000
0010
0000
0001
0010
,
0100
0010
0100
0000
1000
0010
1000
0000
,
0001
0000
0000
0000
1000
0000
0000
0000
0100
0000
0000
0010
0000
0000
0100
0000
,
0000
1000
0000
0000
0001
0000
0000
0000
0100
0000
0000
0010
0000
0000
0100
0000
,
0001
0000
1000
0000
0100
0000
0000
0000
0010
0000
0000
0100
0000
0000
0010
0000
,
0000
0100
0000
0000
1000
0000
0000
0000
0001
0000
0000
0100
0000
0000
0001
0000
,
1000
0000
0100
0000
1000
0100
1000
0000
,
0001
0000
0100
0000
0001
0100
0001
0000
,
1000
0010
1000
0000
0001
0010
0001
0000
,
1000
0100
0010
0001
0100
0010
0100
0001
,
1000
0000
0000
0000
;
