#TITLE:VJ ARMY;
#SUBTITLE:;
#ARTIST:good-cool;
#TITLETRANSLIT:;
#SUBTITLETRANSLIT:;
#ARTISTTRANSLIT:;
#GENRE:ALL MIX;
#CREDIT:;
#BANNER:VJ ARMY.png;
#BACKGROUND:VJ ARMY-bg.png;
#LYRICSPATH:;
#CDTITLE:cdtitle.png;
#MUSIC:VJ ARMY.ogg;
#OFFSET:-0.020000;
#SAMPLESTART:57.028000;
#SAMPLELENGTH:15.000000;
#SELECTABLE:YES;
#BPMS:0.000000=141.000000
,64.000000=145.000000
,136.000000=160.000000
,208.000000=135.000000
;
#STOPS:
;
#BGCHANGES:0.000=VJ ARMY.avi=1.000=0=0=0=StretchNoLoop==CrossFade_Fastest==,
99999=-nosongbg-=1.000=0=0=0 // don't automatically add -songbackground-
;
#KEYSOUNDS:;
#ATTACKS:;

//---------------dance-single - VJ DAFF_4K----------------
#NOTES:
     dance-single:
     VJ DAFF_4K:
     Beginner:
     3:
     0.138753,0.177848,0.043751,0.000000,0.000000,111.000000,106.000000,5.000000,0.000000,0.000000,0.000000,0.138753,0.177848,0.043751,0.000000,0.000000,111.000000,106.000000,5.000000,0.000000,0.000000,0.000000:
0000
0000
0000
0000
,
0000
0000
0000
0000
,
0000
0000
0000
0000
,
0000
0000
0000
0000
,
0001
0001
0000
0000
,
0000
1000
0000
1000
,
0000
0001
0000
0001
,
0001
0000
0000
0000
,
0100
0100
0000
0000
,
0000
0010
0000
0010
,
0000
1000
0000
0001
,
0000
1000
0000
0100
,
0100
0100
0000
0000
,
0000
0010
0000
0010
,
0000
0001
0000
1000
,
1000
0000
0001
0000
,
1001
0000
0000
0000
,
1000
0000
0100
0000
,
0010
0000
0000
0000
,
0001
0000
0100
0000
,
0010
0000
0000
0000
,
1000
0000
0001
0000
,
0010
0000
0000
0000
,
0001
0000
1000
0000
,
1001
0000
0000
0000
,
0001
0000
1000
0000
,
0010
0000
0000
0000
,
0100
0000
0001
0000
,
1000
0000
0000
0000
,
0100
0000
0010
0000
,
0001
0000
0000
0000
,
0100
0000
0010
0000
,
1000
0000
0000
0000
,
0001
0000
0000
0000
,
1001
0000
0000
0000
,
1000
0000
0100
0000
,
1000
0000
0000
0000
,
0010
0000
0100
0000
,
0001
0000
0000
0000
,
0001
0000
0100
0000
,
0001
0000
0000
0000
,
0010
0000
0100
0000
,
1000
0000
0010
0000
,
1000
0000
0000
0000
,
1000
0000
0100
0000
,
1000
0000
0000
0000
,
0001
0000
0010
0000
,
0001
0000
0000
0000
,
0001
0000
0100
0000
,
0001
0000
0000
0000
,
0010
0000
0000
0000
,
0100
0000
0000
0000
,
1001
0000
0000
0000
,
1000
0000
0010
0000
,
0001
0000
0010
0000
,
1000
0000
0000
0000
,
1001
0000
0000
0000
,
0001
0000
0010
0000
,
1000
0000
0010
0000
,
0001
0000
0000
0000
,
0100
0000
0010
0000
,
1000
0000
0001
0001
,
0001
0000
0010
0000
,
0100
0000
0010
0000
,
0100
0000
0010
0000
,
0001
0000
1000
1000
,
1000
0000
0010
0000
,
0100
0000
0010
0010
;

//---------------dance-single - VJ DAFF_4K----------------
#NOTES:
     dance-single:
     VJ DAFF_4K:
     Easy:
     4:
     0.220005,0.267756,0.043751,0.096252,0.000000,176.000000,171.000000,5.000000,11.000000,0.000000,0.000000,0.220005,0.267756,0.043751,0.096252,0.000000,176.000000,171.000000,5.000000,11.000000,0.000000,0.000000:
0000
0000
0000
0000
,
0000
0000
0000
0000
,
0000
0000
0000
0000
,
0000
0000
0000
0000
,
0010
0010
0000
1000
,
0000
0001
0000
0010
,
0000
0100
0000
1000
,
0020
0100
0100
0130
,
0001
0001
0000
0010
,
0000
0001
1000
0001
,
0000
0100
0000
0010
,
1000
0001
0010
0100
,
1000
1000
0000
0010
,
0000
1000
0001
1000
,
0000
0100
0000
0010
,
0002
1000
1000
1003
,
0001
0000
0100
0000
,
1000
0000
0100
0001
,
1000
0000
0100
0000
,
0001
0000
0100
1000
,
0010
0000
0100
0000
,
0010
0000
1000
0001
,
0010
0000
0100
0000
,
0010
0000
0001
1000
,
0001
0000
0100
0000
,
0020
0000
1000
1030
,
0001
0000
1000
0000
,
0001
0000
0010
0100
,
1000
0000
0100
0000
,
0020
0000
0001
0031
,
1000
0000
0001
0000
,
1000
0000
0010
0100
,
0002
0000
1000
0000
,
1000
0000
1003
0000
,
0001
0000
0100
0000
,
0010
0000
0100
0000
,
0001
0000
1000
0000
,
0001
0001
0010
0100
,
1000
0000
0100
0000
,
0010
0000
0100
0000
,
1000
0000
0001
0000
,
1000
1000
0010
0100
,
0001
0000
0010
0000
,
1000
0000
0010
0000
,
0001
0000
0100
0000
,
0010
0010
1000
0001
,
1000
0000
0010
0000
,
0001
0000
0010
0000
,
1000
0000
0100
0000
,
0010
0010
0001
1000
,
0010
0000
0100
0000
,
0001
1000
0001
0000
,
1001
0000
1000
0000
,
0100
0000
0001
0100
,
1000
0000
0010
0100
,
0220
0330
1000
0001
,
1001
0000
0001
0000
,
0100
0000
1000
0100
,
0001
0000
0010
0100
,
0220
0330
0001
1000
,
0001
0100
1000
0000
,
1000
0100
0001
1000
,
0001
0000
0010
0000
,
0100
0000
1000
0001
,
1000
0100
0001
0000
,
0001
0100
1000
0001
,
1000
0000
0010
0000
,
0100
0001
1000
2002
,
3003
0000
0000
0000
;

//---------------dance-single - VJ DAFF_4K----------------
#NOTES:
     dance-single:
     VJ DAFF_4K:
     Medium:
     7:
     0.311257,0.357009,0.078752,0.376259,0.000000,249.000000,240.000000,9.000000,43.000000,0.000000,0.000000,0.311257,0.357009,0.078752,0.376259,0.000000,249.000000,240.000000,9.000000,43.000000,0.000000,0.000000:
0000
0000
0000
0000
,
0000
0000
0000
0000
,
0000
0000
0000
0000
,
0000
0000
0000
0000
,
1001
1001
0000
1000
,
0001
0100
0000
0010
,
1000
0001
0000
0010
,
0100
0010
0100
1000
0002
0000
1003
0000
,
1001
1001
0000
1000
,
0100
0000
0001
0000
0000
0100
0010
0000
,
0100
0000
1000
0000
0000
0001
1000
0000
,
0010
0000
0100
0010
0100
0000
0001
0000
,
1001
1001
0000
0001
,
0100
0000
1000
0000
0000
0100
0010
0000
,
0100
0000
0001
0000
0000
1000
0001
0000
,
0010
0100
0010
0100
2000
0000
3001
0000
,
2000
3010
0000
1000
,
0002
0000
0013
0000
0001
0000
0100
0001
,
0200
0310
0000
0100
,
0020
0000
1030
0000
0001
1000
0001
1000
,
0002
0013
0000
0001
,
2000
0000
3010
0000
1000
0000
0100
1000
,
0200
0310
0000
0100
,
0020
0000
0031
0000
1000
0001
1000
0001
,
2000
0010
0000
3001
,
1000
0100
1000
0000
0100
0000
0010
0000
,
0002
1000
0000
0103
,
0001
0010
0100
1000
,
0002
0010
0000
1003
,
0001
0100
0001
0000
0100
0000
0010
0000
,
2000
0001
0000
3100
,
1000
0010
0100
0001
,
0020
1000
0000
0100
,
0000
0001
0000
0130
,
2000
0000
3020
0000
,
0230
0000
0301
1000
,
0200
0000
0320
0000
,
0031
1000
0010
0100
,
0002
0000
0023
0000
,
0230
0000
1300
0001
,
0200
0000
0320
0000
,
1030
0001
0010
0100
,
2000
0000
3010
0100
,
0002
0000
0103
0010
,
2000
0000
3100
0001
,
0100
0010
0100
1000
,
0002
0000
0013
0100
,
2000
0000
3100
0010
,
0002
0000
0103
1000
,
0100
0010
0100
0001
,
1000
0100
0001
0100
,
1000
0001
0100
0010
,
2000
0000
3001
1000
,
0001
0000
0100
0000
0010
0100
0010
0000
,
0002
0000
0000
0000
1003
0001
1000
0000
,
0020
0000
0130
0000
0100
0001
1000
0000
,
0002
0000
1003
0001
,
1000
0000
0100
0000
0010
0100
0010
0000
,
2000
0000
0000
0000
3001
1000
0001
0000
,
0020
0000
0130
0000
0100
1000
0001
0000
,
2000
0010
3001
1000
,
0002
0100
1003
0001
,
0010
1000
0010
0001
,
1000
0000
0001
0000
0100
0010
0100
0000
,
0002
0010
1003
0001
,
2000
0100
3001
1000
,
0010
0001
0010
1000
,
0001
1001
0110
2002
,
3003
0000
0000
0000
;

//---------------dance-single - VJ DAFF_4K----------------
#NOTES:
     dance-single:
     VJ DAFF_4K:
     Hard:
     12:
     0.526263,0.505762,0.218755,0.201255,0.100627,421.000000,396.000000,25.000000,23.000000,0.000000,0.000000,0.526263,0.505762,0.218755,0.201255,0.100627,421.000000,396.000000,25.000000,23.000000,0.000000,0.000000:
0000
0000
0000
0000
,
0000
0000
0000
0000
,
0000
0000
0000
0000
,
0000
0000
0000
0000
,
1010
0000
0000
0000
0101
0000
0000
0000
0001
1000
0000
0000
0100
0000
0000
0000
,
1000
0000
0010
0000
0100
0000
0000
0000
0010
1000
0000
0000
0001
0000
0000
0000
,
0001
0000
0010
0000
0100
0000
0000
0000
0010
0001
0000
0000
1000
0000
0001
0000
,
0100
1000
0100
0001
1000
0100
0010
0001
,
0101
0000
0000
0000
1010
0000
0000
0000
1000
0001
0000
0000
0010
0000
0000
0000
,
0001
0000
0010
0000
0100
0000
0000
0000
1000
0010
0000
0000
0100
0000
0001
0000
,
1000
0000
0100
0000
0010
0000
0000
0000
0001
1000
0000
0000
0001
0000
0000
0000
,
1000
0000
0010
0000
0100
0010
0000
0100
0000
0001
0010
0000
0100
0000
1000
0000
,
1100
0000
0000
0000
0011
0000
0000
0000
0001
1000
0000
0000
0010
0000
0000
0000
,
1000
0000
0010
0000
0100
0000
0000
0000
0001
0010
0000
0000
0100
0000
1000
0000
,
0001
0000
0100
0000
0010
0000
0000
0000
1000
0001
0000
0000
1000
0000
0100
0000
,
0001
0100
1000
0100
0010
0001
0100
0010
,
1000
0000
0100
0000
0001
0000
0000
0000
0100
0000
0000
0010
0100
0000
0000
0000
,
1000
0001
0100
0000
0010
1000
0001
1000
,
0100
0000
0010
0000
0001
0000
0000
0000
1000
0000
0000
0010
0100
0000
0000
0000
,
0001
0000
1000
0000
0100
0000
0000
0000
0010
0100
0010
0000
0001
0000
1000
0000
,
0001
0000
0100
0000
1000
0000
0000
0000
0100
0000
0000
0010
0100
0000
0000
0000
,
0001
1000
0100
0000
0010
0001
1000
0001
,
0100
0000
0010
0000
1000
0000
0000
0000
0001
0000
0000
0010
0100
0000
0000
0000
,
1000
0000
0001
0000
0100
0000
0000
0000
0010
0100
0010
0000
1000
0000
0001
0000
,
2000
0100
0001
3010
,
1000
0100
0010
0100
1000
0100
0010
0001
,
0200
1000
0010
0301
,
0100
0010
1000
0100
0001
0100
1000
0000
,
1002
0100
1000
0013
,
0001
0100
0010
0100
0001
0100
0010
1000
,
0200
0001
0010
1300
,
0100
0010
0001
0100
1000
0100
0001
0000
,
2001
0100
0001
0010
,
3002
0100
1000
0010
,
1003
0001
0000
0001
0100
0010
0000
0010
,
1000
0001
0000
0001
0010
0000
0100
0010
,
0001
1000
0000
1000
0010
0100
0000
0100
,
0001
1000
0001
1000
0100
0010
0001
1000
,
0001
1000
0000
1000
0100
0010
0000
0010
,
0001
1000
0000
1000
0010
0000
0100
0010
,
1000
0001
0000
0001
0010
0100
0000
0100
,
1000
0001
1000
0001
0100
0010
1000
0001
,
0020
0100
0001
0130
,
1000
0001
0100
0000
0010
1000
0100
0010
,
0002
1000
0100
0013
,
0001
1000
0010
1000
0001
0010
0100
1000
,
0020
0100
1000
0130
,
0001
1000
0100
0000
0010
0001
0100
0010
,
2000
0001
0100
3010
,
1000
0001
0010
0001
1000
0010
0100
0001
,
1000
0100
0010
0000
0100
0010
0001
1000
,
0001
0100
0010
0000
0100
0010
1000
0000
,
1002
0000
0013
0000
0001
0100
1000
0000
,
0100
0001
1000
0001
0010
0100
0110
0000
,
2001
0000
0000
0000
3010
0000
0000
0000
0100
0001
0100
0000
0001
0000
0000
0000
,
2001
0000
3100
0001
1000
0010
0001
0000
,
2001
0000
3010
0000
1000
0100
0001
0000
,
0100
1000
0001
1000
0010
0100
0110
0000
,
1002
0000
0000
0000
0013
0000
0000
0000
0100
1000
0100
0000
2000
0000
0000
0000
,
3002
0000
0103
0010
0110
0000
1001
0000
,
1200
0000
0301
0100
1000
0100
0010
0000
,
0021
0000
1030
0010
0001
0010
0100
1000
,
0010
0000
0110
0000
0100
0001
1000
0000
,
0001
0000
0000
0010
0000
0000
0100
0000
0010
0000
0000
0000
0100
0000
0000
1000
0000
0000
1001
0000
0000
0000
0000
0000
,
0201
0000
1300
0100
0001
0100
0010
0000
,
1020
0000
0031
0010
1000
0010
0100
0001
,
0010
0000
0110
0000
0100
1000
0001
0000
,
1000
0000
0000
0001
0000
0000
0100
0000
0010
0000
0000
0000
0010
0000
1000
0000
0000
0000
2002
0000
0000
0000
0000
0000
,
3003
0000
0000
0000
;

//---------------dance-single - VJ DAFF_4K----------------
#NOTES:
     dance-single:
     VJ DAFF_4K:
     Challenge:
     14:
     0.682516,0.684266,0.105003,0.262506,0.446261,546.000000,534.000000,12.000000,30.000000,0.000000,0.000000,0.682516,0.684266,0.105003,0.262506,0.446261,546.000000,534.000000,12.000000,30.000000,0.000000,0.000000:
// measure 0
0000
0000
0000
0000
,  // measure 1
0000
0000
0000
0000
,  // measure 2
0000
0000
0000
0000
,  // measure 3
0000
0000
0000
0000
,  // measure 4
0011
0000
0000
0000
1100
0000
0000
0000
1000
0010
0000
0010
0100
0000
0000
0000
,  // measure 5
0001
0000
1000
0000
0100
0000
0000
0000
0010
0001
0000
1000
0001
0000
0000
0000
,  // measure 6
1000
0000
0001
0000
0100
0000
0000
0000
0010
1000
0000
0001
1000
0000
0001
0000
,  // measure 7
0010
0000
1000
0000
0010
0000
0001
0000
1000
0001
1000
0001
1000
0001
1000
0000
,  // measure 8
1010
0000
0000
0000
0101
0000
0000
0000
0001
1000
0000
1000
0100
0000
0000
0000
,  // measure 9
0010
0000
0001
0000
1000
0000
0001
0000
0100
0010
0000
0010
1000
0000
0000
0000
,  // measure 10
0100
0000
0001
0000
0100
0000
1000
0000
0010
0100
0000
0100
0001
0000
0000
0000
,  // measure 11
1000
0000
0001
0000
0010
0100
0000
0100
0000
1000
0010
0000
0100
0000
0001
0000
,  // measure 12
0011
0000
0000
0000
1100
0000
0000
0000
1000
0001
0000
0001
0100
0000
0000
0000
,  // measure 13
0010
0000
1000
0000
0001
0000
1000
0000
0100
0010
0000
0010
0001
0000
0000
0000
,  // measure 14
0100
0000
1000
0000
0100
0000
0001
0000
0010
0100
0000
0100
1000
0000
0010
0000
,  // measure 15
0100
0000
0001
0000
0010
0000
0100
0000
1000
0001
1000
0001
1000
0001
1000
0001
,  // measure 16
1000
0000
0001
0100
0001
0000
0000
0000
1000
0000
0000
0001
0010
0000
0001
0000
,  // measure 17
0100
0000
0010
1000
0010
0000
0000
0000
1000
0000
0100
0000
0001
0000
0100
0000
,  // measure 18
0010
0000
0001
1000
0001
0000
0000
0000
0100
0000
0000
0010
1000
0000
0001
0000
,  // measure 19
1000
0000
0100
0010
0100
0000
0000
0000
1000
0001
1000
0000
0010
0000
0100
0000
,  // measure 20
0001
0000
1000
0100
1000
0000
0000
0000
0001
0000
0000
1000
0010
0000
1000
0000
,  // measure 21
0100
0000
0010
0001
0010
0000
0000
0000
0001
0000
0100
0000
1000
0000
0100
0000
,  // measure 22
0010
0000
1000
0001
1000
0000
0000
0000
0100
0000
0000
0010
0001
0000
1000
0000
,  // measure 23
0001
0000
0100
0010
0100
0000
0000
0000
0001
1000
0001
0000
0010
0000
0100
0000
,  // measure 24
1000
0000
0010
1000
0001
0000
0000
0000
1000
0100
0000
0100
0010
0000
0001
0000
,  // measure 25
0100
0000
0010
0100
0001
0000
0000
0000
0010
0000
1000
0000
0010
0000
0001
0000
,  // measure 26
0100
0000
0010
1000
0001
0000
0000
0000
1000
0001
0000
0001
0010
0000
0100
0000
,  // measure 27
0010
0000
0001
1000
0010
0000
0000
0000
0100
0010
0100
0000
0001
0000
1000
0000
,  // measure 28
0001
0000
0010
0001
1000
0000
0000
0000
0001
0100
0000
0100
0010
0000
1000
0000
,  // measure 29
0100
0000
0010
0100
1000
0000
0000
0000
0010
0000
0001
0000
0010
0000
1000
0000
,  // measure 30
0100
0000
0010
0001
1000
0000
0000
0000
0001
1000
0000
1000
0010
0000
0100
0000
,  // measure 31
0010
0000
1000
0001
0010
0000
0000
0000
0100
0010
0100
0000
1000
0000
0001
0000
,  // measure 32
0200
0000
1000
0000
0010
0000
0301
1000
,  // measure 33
0100
0000
0010
0000
0001
0000
1000
0000
0010
0100
0010
0100
0001
1000
0001
1000
,  // measure 34
0001
0020
0100
0000
0031
0010
0100
1000
,  // measure 35
0010
0000
0200
0000
0001
0000
0000
0000
0310
0100
0010
0000
1000
0000
0001
0000
,  // measure 36
0010
0200
1000
0000
0310
0001
1000
0010
,  // measure 37
0100
0000
0001
1000
0000
1000
0100
0000
0010
0000
0100
0000
0010
0000
0001
0000
,  // measure 38
1000
0020
0100
0000
1030
0010
0100
0001
,  // measure 39
0010
0000
0200
0000
1000
0000
0000
0000
0310
0100
0010
0000
0001
0000
1000
0000
,  // measure 40
0010
0200
0001
0000
0310
1000
0001
0010
,  // measure 41
0100
0000
1000
0001
0000
0001
0100
0000
0010
1000
0010
0000
1000
0000
0001
0000
,  // measure 42
1000
0100
0020
0000
1030
0001
0100
1000
,  // measure 43
0001
0000
0100
0000
0020
0000
0000
0000
1030
0001
1000
0000
0001
0000
0010
0000
,  // measure 44
0100
0010
0002
0000
0103
1000
0001
0010
,  // measure 45
1000
0000
0100
0000
0010
0000
0001
1000
0000
1000
0010
0000
0100
0010
0100
0000
,  // measure 46
0001
0100
0020
0000
0031
1000
0100
0001
,  // measure 47
1000
0000
0100
0000
0020
0000
0000
0000
0031
1000
0001
0000
1000
0000
0010
0000
,  // measure 48
0100
0010
2000
0000
3100
0001
1000
0010
,  // measure 49
0001
0000
0100
0000
0010
0100
0010
0000
1000
0000
0001
0000
0010
0100
0000
0010
,  // measure 50
0001
1000
0020
0000
0130
0001
1000
0100
,  // measure 51
0010
0000
0001
1000
0000
0001
1000
0000
0001
0000
0100
0000
1000
0000
0100
0000
,  // measure 52
0001
0000
0000
1000
0000
0000
0100
0000
0010
0000
0000
0010
0100
0000
0000
0001
0000
0000
1000
0000
0000
0010
0000
0000
,  // measure 53
0001
0000
0000
1000
0000
0000
0010
0000
0100
0010
0000
0000
2000
0000
0000
0100
0000
0000
3001
0000
1000
0100
0000
0000
,  // measure 54
0010
0000
0001
0000
0100
0000
1000
0000
0100
0010
0100
0000
0002
0000
1000
0000
,  // measure 55
0013
0000
0001
0100
0000
0000
0010
0000
0000
1000
0000
0000
0001
0000
0000
0011
0000
0000
1001
0000
0000
0000
0000
0000
,  // measure 56
1000
0000
0000
0001
0000
0000
0100
0000
0010
0000
0000
0010
0100
0000
0000
1000
0000
0000
0001
0000
0000
0010
0000
0000
,  // measure 57
1000
0000
0000
0001
0000
0000
0010
0000
0100
0010
0000
0000
0002
0000
0000
0100
0000
0000
1003
0000
0001
0100
0000
0000
,  // measure 58
0010
0000
1000
0000
0100
0000
0001
0000
0100
0010
0100
0000
2000
0000
0001
0000
,  // measure 59
3010
0000
1000
0100
0000
0000
0010
0000
0000
0001
0000
0000
1000
0000
0000
1010
0000
0000
1001
0000
0000
0000
0000
0000
,  // measure 60
0001
1000
0200
0010
2300
0001
3010
0100
,  // measure 61
0001
0000
1000
0001
0000
0000
0020
0000
0000
0100
0000
0000
0032
0000
0000
1000
0000
0000
0103
0000
0000
0010
0000
0000
,  // measure 62
1000
0000
0000
0100
0000
0000
0001
0000
0000
0100
0000
0000
1000
0000
0001
1000
0000
0000
0010
0000
0100
0010
0000
0000
,  // measure 63
0100
0000
0000
0001
0000
0000
0010
0000
0200
0000
0000
0000
1300
0000
0000
0110
0000
0000
1001
0000
0000
0000
0000
0000
,  // measure 64
1000
0001
0200
0010
0302
1000
0013
0100
,  // measure 65
1000
0000
0001
1000
0000
0000
0020
0000
0000
0100
0000
0000
2030
0000
0000
0001
0000
0000
3100
0000
0000
0010
0000
0000
,  // measure 66
0001
0000
0000
0100
0000
0000
1000
0000
0000
0100
0000
0000
0001
0000
1000
0001
0000
0000
0010
0000
0100
0010
0000
0000
,  // measure 67
0100
0000
0000
1000
0000
0000
0010
0000
0200
0000
0000
0000
0301
0000
2000
0000
0000
0000
3200
0000
0000
0000
0000
0000
,  // measure 68
0300
0000
0000
0000
;
