#TITLE:ウサテイ20XX;
#SUBTITLE:;
#ARTIST:ビートまりお(COOL&CREATE);
#TITLETRANSLIT:Usatei 20XX;
#SUBTITLETRANSLIT:;
#ARTISTTRANSLIT:beatMARIO(COOL&CREATE);
#GENRE:TOUHOU;
#CREDIT:;
#MUSIC:Usatei 20XX.ogg;
#BANNER:Usatei 20XX.png;
#BACKGROUND:Usatei 20XX-bg.png;
#CDTITLE:cdtitle.png;
#SAMPLESTART:41.998;
#SAMPLELENGTH:15.000;
#SELECTABLE:YES;
#OFFSET:0.002;
#BPMS:0.000=190.000
,196.000=95.000
,228.000=190.000
;
#STOPS:67.000=0.316
,287.875=1.263
;
#BGCHANGES:0.000=Usatei 20XX.avi=1.000=1=0=0=StretchNoLoop==CrossFade==;
#FGCHANGES:;

//--------------- dance-single - KAYSTAR ----------------
#NOTES:
     dance-single:
     KAYSTAR:
     Beginner:
     4:
     0,0,0,0,0:
0000
0000
0000
0000
,
0000
0000
0000
0000
,
0000
0000
0000
0000
,
0000
0000
0000
0000
,
0000
0000
0000
0000
,
0000
2002
0000
0000
,
0000
3003
0000
0000
,
0000
0001
0000
0000
,
0000
1000
0000
0000
,
0000
0100
0000
0100
,
0000
0100
0000
0010
,
0010
0010
0000
0001
,
0000
0001
0000
1000
,
1000
1000
0000
0010
,
0000
0010
0000
0100
,
0100
0100
0000
0001
,
0000
1000
0000
1001
,
0000
0000
0000
0000
,
0000
0000
0001
0001
,
0000
0000
0000
0000
,
0000
0000
1000
1000
,
0000
0000
0000
0000
,
0000
0000
0100
0100
,
0000
0000
0000
0000
,
0000
0000
0010
0010
,
0010
0000
0001
0000
,
0100
0000
0000
0000
,
0010
0000
1000
0000
,
0100
0000
0000
0000
,
1000
0000
0001
0000
,
0100
0000
0000
0000
,
0001
0000
1000
0000
,
0100
0000
0010
0000
,
0001
0000
1000
0000
,
0010
0000
0100
0000
,
0001
0000
0001
0000
,
0010
0010
0010
0000
,
0100
0000
0100
0000
,
1000
0000
0001
0000
,
0100
0000
0100
0000
,
0010
0010
0010
0000
,
1000
0000
1000
0000
,
0100
0000
0010
0000
,
0001
0000
0001
0000
,
0100
0100
0100
0000
,
0010
0000
1000
0000
,
0001
0000
0001
0000
,
0010
0000
0100
0000
,
1000
1000
1000
0000
,
2002
0000
0000
0000
,
3003
0000
0000
0000
,
0220
0000
0000
0000
,
0330
0000
0000
0000
,
0001
0001
0001
0000
,
1000
1000
1000
0000
,
0001
0001
0001
0000
,
1000
1000
1000
0000
,
0001
0000
0010
0000
,
0100
0000
0000
0000
,
1000
0000
1000
0000
,
1000
0000
0000
0000
,
1000
0000
0010
0000
,
0100
0000
0000
0000
,
0001
0000
0001
0000
,
0001
0000
0000
0000
,
1000
0000
0100
0000
,
0010
0000
0001
0001
,
0001
0000
0100
0000
,
0010
0000
1000
1000
,
1000
0000
0001
0000
,
0010
0000
0100
0100
,
0100
0000
1000
0000
,
1000
0000
0010
0000
,
0100
0000
0001
0001
,
0001
0000
0010
0000
,
0100
0000
1000
1000
,
1000
0000
0001
0000
,
0100
0000
0010
0010
,
0010
0000
1000
0000
,
0100
0100
0000
1001
;

//--------------- dance-single - KAYSTAR ----------------
#NOTES:
     dance-single:
     KAYSTAR:
     Easy:
     9:
     0,0,0,0,0:
0000
0000
0000
0000
,
0000
0000
0000
0000
,
0000
0000
0000
0000
,
0000
0000
0000
0000
,
0000
0000
0000
0000
,
0000
2002
0000
0000
,
0000
3003
0000
0000
,
0000
2000
3000
0002
,
0003
1000
0010
0100
,
0001
1000
1000
0100
,
0100
0000
0010
0000
0001
0000
0010
0001
,
0010
0001
0001
1000
,
1000
0010
0100
0002
,
1003
0001
0001
0010
,
0010
0000
0100
0000
1000
0000
0100
1000
,
0100
1000
1000
0001
,
0001
0100
0010
2002
,
3003
0000
1000
0000
,
0100
0000
0010
0010
,
0010
0000
0001
0000
,
0100
0000
0010
0010
,
0010
0000
1000
0000
,
0200
0000
0301
1000
,
0200
0000
1300
0001
,
0100
0000
0020
0000
,
1030
1000
0001
0001
,
0010
0100
1000
0000
,
0001
0001
1000
1000
,
0010
0100
0001
0000
,
0010
0010
0100
0100
,
1000
0001
0100
0000
,
0010
0010
0100
0100
,
0001
1000
0100
0010
,
0001
0000
1000
0000
0010
0000
0100
0001
,
0100
0010
1000
1000
,
0001
0010
0100
0000
,
1001
1001
1001
0000
,
1000
0000
0001
0000
0010
0000
0100
1000
,
0100
0010
0001
0001
,
1000
0010
0100
0000
,
1001
1001
1001
0000
,
0001
0000
1000
0000
0100
0000
0010
0100
,
0010
0001
1000
0010
,
0100
0000
0001
0000
1000
0001
1000
0000
,
1001
1001
1001
0000
,
0001
0000
1000
0000
0010
0000
0100
0010
,
0100
0001
1000
0100
,
0010
0000
0001
0000
1000
0001
1000
0000
,
1001
1001
1001
0000
,
0220
0000
0000
0000
,
0330
0000
0000
0000
,
2002
0000
0000
0000
,
3003
0000
0000
0000
,
1000
1000
1000
0000
0001
0001
0001
0000
,
0100
0100
0010
0010
,
1000
1000
1000
0000
0001
0001
0001
0000
,
0010
0010
0100
0100
,
2000
0000
3000
0000
,
0002
0000
0003
0000
,
0100
0100
0100
0000
,
0010
0010
0010
0000
,
1000
0000
1001
0000
,
0001
0000
1001
0000
,
1000
0100
0010
0000
,
0001
0100
0010
0000
,
1000
1000
0001
0001
,
0010
0000
0100
0000
1000
0001
1000
0000
,
0010
0010
0100
0100
,
0001
1000
1001
0110
,
1001
0001
1000
1000
,
0100
0000
0010
0000
0001
1000
0001
0000
,
0100
0100
0010
0010
,
2000
3100
0010
0001
,
0100
0001
0100
0000
0010
1000
0010
0000
,
1000
0100
0010
0001
,
1000
0001
1000
0001
1000
0001
1000
0000
,
0001
0100
0010
1000
,
0100
1000
0100
0000
0010
0001
0010
0000
,
0002
0003
2000
3000
,
0010
0100
0010
0100
0010
0000
0110
0000
;

//--------------- dance-single - KAYSTAR ----------------
#NOTES:
     dance-single:
     KAYSTAR:
     Medium:
     12:
     0,0,0,0,0:
0000
0000
0000
0000
,
0000
0000
0000
0000
,
0000
0000
0000
0000
,
0000
0000
0000
0000
,
0000
0000
0000
0101
,
1010
2002
0000
0000
,
0000
0000
0000
3003
,
0000
0002
0000
0023
,
0000
0130
1000
0001
,
1001
0000
1000
0000
0001
0100
0010
0000
,
1000
0001
0010
0000
0100
1000
0100
0010
,
0001
0000
1000
0000
0010
0100
0001
0000
,
0010
0100
1000
0001
1000
0001
0100
0000
,
0110
0000
1001
0000
1000
0100
0010
0000
,
0001
1000
0010
0000
0100
0001
0100
0010
,
1000
0000
0001
0000
0010
0100
1000
0000
,
0010
0100
0001
1000
0001
1000
0200
0000
,
0310
0100
1000
0001
,
0100
0010
2000
3200
,
0310
0100
1000
0010
,
0100
0001
0020
0032
,
0013
0100
1000
0001
,
0100
0020
0000
0030
,
0020
0000
0030
1000
,
0001
0010
0200
0000
,
1300
0001
1000
0000
0001
0100
0001
0000
,
0010
0100
2200
3300
,
0001
1000
0001
0000
1000
0010
1000
0000
,
0100
0010
0022
0033
,
1000
0010
0100
0000
0010
0100
0001
0000
,
1000
0100
0220
0330
,
0002
0203
0320
1030
,
1100
0110
0011
1001
,
1000
0010
1000
0001
0100
0001
1000
0000
,
1200
0301
0201
1300
,
0100
0010
0001
1000
0100
1000
0001
0000
,
0101
0101
1010
1010
,
0001
0010
0001
1000
0100
1000
0001
0000
,
0201
1300
1200
0301
,
0100
0010
1000
0001
0100
0001
1000
0000
,
1100
1100
0011
0011
,
1000
0001
0100
0001
1000
0100
0010
0000
,
1020
0130
0021
0130
,
0100
1000
0001
1000
0010
0100
0001
0000
,
0011
0110
1100
1001
,
0001
1000
0100
1000
0001
0100
0010
0000
,
0021
0130
1020
0130
,
0100
0001
1000
0001
0010
0100
1000
0000
,
1010
0101
0011
1100
,
2002
0000
0000
0000
0000
0000
0000
0000
0000
0000
0000
0000
3003
0000
0000
0001
,
1000
0000
0000
0000
0000
0000
1100
0011
,
2002
0000
0000
0000
0000
0000
0000
0000
0000
0000
0000
0000
3003
0000
0000
1000
,
0002
0000
0203
0000
0320
1000
2030
0001
,
3001
1000
0100
0000
1000
0001
0100
0000
,
0010
0010
0010
0000
0100
0100
0100
0000
,
0001
0010
0100
0000
1000
0010
0100
0000
,
0001
0001
0001
0000
1000
1000
1000
0000
,
1002
0013
0001
0010
,
0100
1000
0100
1000
,
0001
0101
0001
0101
,
1000
1010
1000
1010
,
0001
1000
0001
0000
1000
0001
1000
0000
,
0100
0010
0100
0000
0010
0100
0010
0000
,
0001
0000
1000
0010
0100
0010
1000
0000
,
0001
0000
0010
0100
1000
0100
0010
0000
,
1001
0000
0001
0100
0010
0000
1000
0100
,
0001
0000
0100
0010
0001
1000
0001
0000
,
1000
0000
0010
0100
0001
0000
0010
0100
,
1000
0001
1000
0001
0100
0000
0110
0000
,
1001
0000
1000
0100
0010
0000
0001
0100
,
1000
0000
0100
0010
1000
0001
1000
0000
,
0001
0000
0010
0100
1000
0000
0020
0000
,
0130
0001
1000
0001
1000
0100
0010
0100
,
0010
0001
1000
0010
0100
0001
0020
0000
,
0130
1000
0100
1000
0001
0100
0001
0100
,
0010
0000
0001
0010
0100
0010
1000
0000
,
0100
0010
0001
1000
0001
1000
0010
0100
,
0010
0100
0001
0010
0100
1000
0020
0000
,
0130
0001
0100
0001
1000
0100
1000
0100
,
0010
1000
0001
0100
1000
0000
1001
0000
;

//--------------- dance-single - KAYSTAR ----------------
#NOTES:
     dance-single:
     KAYSTAR:
     Hard:
     15:
     0,0,0,0,0:
0000
0000
0000
0000
,
0000
0000
0000
0000
,
0000
0000
0000
0000
,
0000
0000
0000
0000
,
0000
0000
0000
0101
,
0110
2020
0000
0000
,
0000
0000
0000
3030
,
0000
2200
3300
0022
,
0033
1001
0110
1001
,
0110
0000
0001
0100
0001
0100
1000
0100
,
1000
0100
0010
1000
0001
0010
0100
1000
,
0020
0000
1030
0100
1000
0100
0001
0100
,
0001
0100
0010
0001
1000
0010
0100
0000
,
1001
0000
0001
0010
0001
0010
1000
0010
,
1000
0010
0100
1000
0001
0100
0010
1000
,
0200
0000
1300
0010
1000
0010
0001
0010
,
0001
0010
0100
0001
1000
0100
0020
0000
,
0031
0001
1000
1000
,
0010
0000
0000
0000
0100
0000
0000
0000
0001
0000
1000
0000
0001
1000
0001
1000
,
0001
0010
0100
0100
,
1000
0000
0001
0000
0100
0000
0000
0000
0010
0100
0010
0000
0100
0010
0100
0000
,
0001
0010
0100
1000
,
1020
0000
0031
0000
,
1200
0000
0301
1000
,
0100
0001
0201
0000
,
1300
0001
0010
0010
0001
1000
0010
0010
,
0100
0000
0001
0000
0010
0000
0100
0000
1000
0000
0001
1000
0001
0000
0000
0000
,
0100
0010
1000
1000
0100
0010
0001
0001
,
0100
0010
1000
0001
0020
0100
0130
0000
,
1000
0001
0100
0100
0001
1000
0100
0100
,
1000
0000
0001
0000
0100
0000
0010
0000
1000
0000
0001
1000
0001
0000
0000
0000
,
0010
0100
1000
1000
0010
0100
0001
0001
,
0010
0110
1001
0110
,
1000
0010
1000
0000
0001
0000
0100
0010
0100
0000
0001
0000
1000
0000
0100
0000
,
0010
0001
0001
0100
0100
0010
0010
1000
,
0001
0010
0001
0000
1000
0000
0100
0010
0100
0000
1000
0000
0001
0000
0100
0000
,
0010
1010
1001
0011
,
0001
0100
0001
0000
1000
0000
0010
0100
0010
0000
1000
0000
0001
0000
0010
0000
,
0100
1000
1000
0010
0010
0100
0100
0001
,
1000
0100
1000
0000
0001
0000
0010
0100
0010
0000
0001
0000
1000
0000
0010
0000
,
0100
0101
1001
1100
,
1000
0010
1000
0000
0001
0000
0100
0010
0100
0000
0001
0000
1000
0000
0100
0000
,
0010
1000
0010
0001
0100
0010
0001
0010
,
0100
0010
0100
0000
0001
0000
1000
0100
0010
0000
0001
0000
0100
0000
0010
0000
,
1000
1100
0110
0011
,
0001
0100
0001
0000
1000
0000
0010
0100
0010
0000
1000
0000
0001
0000
0010
0000
,
0100
0001
0100
1000
0010
0100
1000
0100
,
0010
0100
0010
0000
1000
0000
0001
0010
0100
0000
1000
0000
0010
0000
0100
0000
,
0001
0011
0110
1100
,
2002
0000
0000
0000
0000
0000
0000
0000
0000
0000
0000
0000
0003
0000
0000
0001
,
3001
0000
0000
0000
0000
0000
1010
0101
,
2002
0000
0000
3003
,
2200
3300
0022
0033
1001
0110
1001
0110
,
1000
0010
0100
0010
0100
0001
0000
0000
1000
0100
0010
0100
0010
0001
0000
0000
,
1010
0110
0101
0000
1100
0110
0011
0000
,
1000
0010
0100
0010
1000
0001
0000
0000
0001
0010
0100
0010
0001
1000
0000
0000
,
1010
1001
0101
0000
0011
1001
1100
0000
,
0002
0103
0010
0100
0010
0100
0010
1000
,
0001
0010
0100
0010
0100
0010
0100
1000
,
0001
0101
0110
1010
,
1000
1100
0110
0011
,
0001
0100
0101
0000
1000
0010
1010
0000
,
1000
0100
1100
0000
0001
0010
0011
0000
,
1001
0000
0010
0100
0010
0100
1001
0000
,
0110
0000
0001
1000
0001
1000
0110
0000
,
0001
0100
1000
0100
0001
0100
1000
0100
,
0010
1000
0001
0010
0100
1000
0020
0000
,
0130
0001
1000
0100
1000
0001
0100
0001
,
0010
0000
0100
0000
1000
0000
0001
0000
0100
0001
0100
0000
0010
1000
0010
0000
,
1000
0100
0001
0100
1000
0100
0001
0100
,
0010
0001
1000
0010
0100
0001
0020
0000
,
0130
1000
0001
0010
0001
1000
0010
0100
,
0002
1003
0100
0001
0100
1000
0010
0001
,
0010
0000
0100
0000
0001
0000
1000
0000
0100
0000
0010
0000
0001
1000
0001
0000
,
1000
0001
0100
1000
0100
0001
0010
1000
,
0010
0000
0100
0000
1000
0000
0001
0000
0100
0001
0100
0000
0010
1000
0010
0000
,
1000
0100
0010
1000
0001
0100
0010
0001
,
1000
0000
0010
0000
0100
0000
0001
0000
0010
0000
0100
0000
1000
0001
1000
0000
,
0001
0100
0010
0001
1000
0100
0010
1000
,
0001
0000
0010
0001
0010
0000
0100
1000
0100
0000
0000
0000
1001
0000
0000
0000
;

//--------------- dance-single - KAYSTAR ----------------
#NOTES:
     dance-single:
     KAYSTAR:
     Challenge:
     18:
     0,0,0,0,0:
0000
0000
0000
0000
,
0000
0000
0000
0000
,
0000
0000
0000
0000
,
0000
0000
0000
0000
,
0000
0000
0000
1010
,
0110
0202
0000
0000
,
0000
0000
0000
0303
,
0000
0001
0011
0000
0100
1000
1010
0000
,
0100
0001
0011
0000
1100
0000
1010
0000
,
0101
0000
0000
0000
1000
0000
0100
1000
0100
0000
0010
0001
0010
0000
0100
1000
,
0100
0000
0010
0001
0010
0000
0100
1000
0001
0000
0100
0000
0010
0000
1000
0000
,
1100
0000
0000
0000
1000
0000
0010
1000
0010
0000
0100
0001
0100
0000
0010
1000
,
0010
0000
0100
0001
1000
0000
0100
0000
0001
0000
0100
0000
1000
0000
0010
0100
,
0001
0000
0010
0100
1000
0000
0001
0100
0001
0000
1000
0010
1000
0000
0001
0010
,
0001
0000
1000
0100
1000
0000
0001
0100
0010
0000
1000
0000
0100
0000
0010
0000
,
0011
0000
0000
0000
1000
0000
0100
1000
0001
0000
0100
0010
0100
0000
0001
1000
,
0100
0010
0001
0100
1000
0100
0002
0000
,
1003
0000
0000
0000
0000
0000
0000
0000
0000
0000
0000
0000
0000
0000
0000
0000
0000
0000
0000
0000
0000
0000
0000
0000
0000
0000
0000
0000
0000
0000
0000
0000
0000
0000
0000
0000
0000
0000
0000
0000
0000
0000
0000
0100
0000
0000
0000
0000
0000
0000
0000
0000
0000
0000
0000
0000
0000
0000
0010
0000
0000
0000
0000
0000
0000
0000
0000
0000
0000
0000
0000
0000
0000
0000
0100
0000
0000
0000
0000
0000
0000
0000
0000
0000
0000
0000
0000
0000
0000
0000
0000
0000
0000
0000
0000
0000
0000
0000
0000
0000
0000
0000
0000
0000
0000
0000
0000
0000
0000
0000
0000
0000
0000
0000
0000
1000
0000
0000
0000
0000
0000
0000
0000
0000
0000
0000
0000
0000
0000
0000
0000
0000
0000
0000
0000
0000
0000
0000
0000
0000
0000
0000
0000
0000
0010
0000
0000
0000
0000
0000
0000
0000
0000
0000
0000
0000
0000
0000
0000
0000
0000
0000
0000
0000
0000
0000
0000
0000
0000
0100
0000
0000
0000
0000
0000
0000
0000
0000
0000
0000
0000
0000
0000
0000
0000
0000
0000
0000
0000
0000
0000
0000
,
0000
0000
0000
0000
0000
0000
0000
0000
0000
0000
1000
0000
0000
0000
0000
0000
0000
0000
0000
0000
0000
0000
0000
0000
0000
0000
0100
0000
0000
0000
0000
0000
0000
0000
0000
0000
0000
0000
0000
0000
0000
0010
0000
0000
0000
0000
0000
0000
0000
0000
0000
0000
0000
0000
0000
0000
0000
0000
0000
0000
0000
0000
0000
0000
0000
0000
0000
0000
0000
0000
0000
0000
0000
0000
0000
0000
0000
0000
0000
0000
0000
0000
1010
0000
0000
0000
0000
0000
0000
0000
0000
0000
0000
0000
0000
0000
0000
0000
0000
0000
0000
0000
0000
0000
0000
0000
0000
0000
0000
0000
0000
0000
0000
0000
0000
0000
0000
0000
0000
0000
1000
0000
0000
0000
0000
0000
0000
0000
0000
0000
0000
0000
0000
0000
0000
0000
0000
0100
0000
0000
0000
0000
0000
0000
0000
0000
0000
0000
0000
0000
0000
0000
0000
0000
0000
0000
0000
0000
0000
0000
0000
0000
0000
0000
0000
0000
0000
0000
0010
0000
0000
0000
0000
0000
0000
0000
0000
0000
0000
0000
0000
0000
0000
0001
0000
0000
0000
0000
0000
0000
0000
0000
,
0000
0000
0000
0000
0000
0000
0000
0000
0000
0000
0000
0000
0000
0000
0000
0000
0000
0000
1000
0000
0000
0000
0000
0000
0000
0000
0000
0000
0000
0000
0000
0000
0000
0000
0000
0000
0000
0000
0000
0010
0000
0000
0000
0000
0000
0000
0000
0000
0000
0000
0000
0000
0100
0000
0000
0000
0000
0000
0000
0000
0000
0000
0000
0000
0000
0000
0000
0000
0000
0000
0010
0000
0000
0000
0000
0000
0000
0000
0000
0000
0000
0000
0000
0000
0000
0000
0000
0000
1000
0000
0000
0000
0000
0000
0000
0000
0000
0000
0000
0000
0000
0000
0000
0000
0000
0000
0000
0000
0000
0000
0000
0000
0000
0000
0100
0000
0000
0000
0000
0000
0000
0000
0000
0000
0000
0000
0000
0000
0000
0000
0010
0000
0000
0000
0000
0000
0000
0000
0000
0000
0000
0000
0000
0000
0001
0000
0000
0000
0000
0000
0000
0000
0000
0000
0000
0000
0000
0000
0000
0000
0000
0000
0000
0000
1000
0000
0000
0000
0000
0000
0000
0000
0000
0000
0000
0000
0000
0000
0000
0000
0000
0000
0000
0000
0000
0000
0000
0000
0000
0000
0000
0000
,
0000
0000
0000
0000
0000
0000
0001
0000
0000
0000
0000
0000
0000
0010
0000
0000
0000
0000
0000
0000
0000
0000
0000
0000
0000
0000
0000
0000
0000
0000
0100
0000
0000
0000
0000
0000
0000
0000
0000
0000
0000
0000
0000
0000
0001
0000
0000
0000
0000
0000
0000
0000
0000
0000
0000
0000
0000
0100
0000
0000
0000
0000
0000
0000
0000
0000
0000
0000
0010
0000
0000
0000
0000
0000
0000
0000
0000
0001
0000
0000
0000
0000
0000
0000
0000
0000
0000
0000
0000
0000
0000
0011
0000
0000
0000
0000
,
0000
0000
0000
0000
0000
0000
0000
0000
0000
0000
0000
0000
0000
0000
0000
0000
0000
0000
0000
0000
0000
0010
0000
0000
0000
0000
0000
0000
0000
0000
0000
0000
0000
0000
0000
0000
0000
0000
0000
0000
0001
0000
0000
0000
0000
0000
0000
0000
0000
0000
0000
0000
0000
0000
0000
0000
0000
0000
0000
0000
0000
0000
0000
0000
1000
0000
0000
0000
0000
0000
0000
0000
0000
0000
0000
0000
0000
0000
0000
0000
0000
0000
1000
0000
0000
0000
0000
0000
0000
0000
0000
0000
0000
0000
0000
0000
0000
0000
0000
0000
0001
0000
0000
0000
0000
0000
0000
0000
0000
0000
0000
0000
0000
0000
0000
0000
0001
0000
0000
0000
0000
0000
0000
0000
0000
0000
0000
0000
0000
0000
0000
0000
0000
0000
0000
1001
0000
0000
0000
0000
0000
0000
0000
0000
0000
0000
0000
0000
0000
0000
0000
0000
0000
0000
0000
0000
0000
0000
0000
0000
0000
0000
0000
0000
0000
0000
0000
0000
0000
0000
0000
0000
0000
0000
0000
0000
0000
0000
0000
0000
0000
0000
0000
0000
1000
0000
0000
0000
0000
0000
0000
0000
,
0000
0001
0000
0000
0200
0000
0000
0000
0000
0000
0000
0000
0000
0000
0000
0000
1300
0000
0000
0000
0100
0000
0010
0000
0000
0000
1000
0000
0000
0000
0000
0000
,
1200
0000
0000
0000
0000
0000
0000
0301
0000
0100
0010
0000
0000
0001
1000
0001
,
1000
0001
0000
1000
0010
0100
0000
0000
0020
0000
0000
0000
0000
0000
0031
0000
,
1000
0100
0010
0010
1000
0100
0010
0010
,
0001
0000
0100
0010
1000
0000
0100
0000
0001
0000
0000
0000
0101
0000
0000
0000
,
0001
0100
0010
0010
0001
0100
0010
0010
,
1000
0000
0100
0010
0001
0000
0100
0000
1000
0000
0000
0000
1100
0000
0000
0000
,
1000
0000
0100
0010
0100
0000
0001
0000
1000
0000
0100
0010
0100
0000
0001
0000
,
1000
0010
0001
0100
0010
0000
1001
0000
,
0001
0010
0100
0000
1000
0000
0001
0000
0100
0010
1000
0000
0001
0000
0010
0000
,
0100
1000
0100
1000
0010
1000
0010
1000
0001
0100
0001
0100
0001
0010
0001
0010
,
0200
0000
0000
0000
1300
0000
0001
0100
0010
0000
1000
0000
0100
0000
0010
0000
,
0001
0101
0100
0110
0010
1010
1000
0001
,
0020
0000
0000
0000
0031
0000
1000
0010
0100
0000
0001
0000
1000
0000
0100
1000
,
0100
0000
0010
0100
0010
0000
0001
0010
0001
0000
1000
0010
0100
0000
0001
0000
,
0020
0000
0000
0000
0031
0000
1000
0010
0100
0000
0001
0000
0010
0000
0100
0000
,
1000
1010
0010
0110
0100
0101
0001
1000
,
0200
0000
0000
0000
1300
0000
0001
0100
0010
0000
1000
0000
0001
0000
0010
0001
,
0010
0000
0100
0010
0100
0000
1000
0100
1000
0000
0001
0000
0200
0000
0000
0000
,
0310
1000
0001
0000
0010
0000
0100
1000
0001
0000
0100
0000
0010
0000
1000
0000
,
0001
0011
1000
1100
0001
0101
1000
1010
,
0010
1000
0001
0000
0010
0000
0100
1000
0001
0000
0100
0000
0010
0000
1000
0100
,
0010
0000
0001
0100
0010
0000
1000
0100
0010
0000
0001
0100
0010
0000
1000
0000
,
0100
0000
0110
0000
0010
0000
0100
1000
0001
0000
0100
0000
0010
0000
1000
0000
,
0001
0011
1000
1100
0001
0101
1000
1010
,
0010
0100
0001
1000
0001
0000
0010
0100
0010
0001
1000
0000
0001
0000
0100
0000
,
0010
1000
0010
1000
0100
1000
0100
1000
0001
0010
0001
0010
0001
0100
0001
0100
,
0020
0000
0000
0000
0000
0000
0000
0000
0000
0000
0000
0000
0000
0000
0000
0130
,
1001
0000
0000
0000
0000
0000
0011
0110
,
2200
0000
0000
0000
0000
0000
0000
0000
0000
0000
0000
0000
3300
0000
0000
1000
,
1010
0000
0100
0001
0011
0000
0100
1000
1010
0000
0101
0000
0011
0000
1100
0000
,
1000
0010
0100
1000
0100
0001
0000
0000
0001
0010
0100
0001
0100
1000
0000
0000
,
1010
0101
1001
0000
0011
1100
1001
0000
,
0001
0100
0010
0001
0010
1000
0000
0000
1000
0100
0010
1000
0010
0001
0000
0000
,
0101
0110
1010
0000
0011
0110
1100
0000
,
2000
3100
0001
0100
1000
0100
0001
0100
,
0010
0001
0100
1000
0100
0001
0100
0010
,
1010
1100
0011
0101
,
1010
1100
0011
0101
,
1000
0000
0001
0000
0010
0100
1000
0000
0010
0000
0100
0000
0001
0010
0100
0000
,
1100
0000
1000
0000
0010
0100
0001
0000
0010
0000
0100
0000
1000
0010
0100
0000
,
0102
0000
0000
0000
1003
0100
1000
0000
0100
0010
0100
0000
0010
0001
0010
0000
,
0001
1000
0001
1000
0010
0100
0001
1000
0100
0010
0001
1000
0010
0100
0010
0100
,
0001
0000
1000
0100
0010
0000
0001
0010
0100
0000
1000
0100
0010
0000
0001
0010
,
0100
0000
0010
0001
1000
0000
0010
0000
0100
0000
0001
0000
0011
0000
0000
0000
,
1001
0000
1000
0010
0100
0000
0001
0100
0010
0000
1000
0010
0100
0000
0001
0100
,
0010
0000
1000
0000
0100
0000
0001
0000
0101
0000
0000
0100
0010
0000
0001
1000
,
0001
0000
1000
0010
0100
0000
0001
1000
0100
0000
0010
0001
1000
0000
0010
0100
,
0001
0000
1000
0100
0010
0000
0001
0000
0100
0000
0010
0000
1010
0000
0000
0000
,
1001
0000
1000
0001
0010
0000
0100
1000
0001
0000
0100
0010
1000
0000
0002
0000
,
1003
0000
0001
0010
0100
0000
1000
0001
0100
0000
0010
0100
1000
0000
0100
0010
,
1000
0000
0001
0010
0100
0000
1000
0000
0010
0000
0100
0000
0110
0000
0001
0000
,
1001
0000
1000
0001
0010
0000
0100
1000
0001
0000
0100
0010
1000
0000
0001
0010
,
0100
1000
0001
1000
0100
0010
0001
1000
0010
0100
0010
1000
0001
0010
0100
1000
,
0001
0000
1000
0010
0100
0000
0001
1000
0100
0000
0010
0100
0001
0000
0100
0010
,
0001
0000
1000
0010
0100
0000
0001
0000
0010
0000
0100
0000
0110
0000
1000
0000
,
1001
0000
0000
0000
0001
0100
0001
0100
0010
0000
0000
0000
1000
0100
1000
0100
,
0010
0001
1000
0010
0100
0001
0010
0100
1000
0000
0000
0000
1001
0000
0000
0000
;

//--------------- dance-double - KAYSTAR ----------------
#NOTES:
     dance-double:
     KAYSTAR:
     Easy:
     9:
     0,0,0,0,0:
00000000
00000000
00000000
00000000
,
00000000
00000000
00000000
00000000
,
00000000
00000000
00000000
00000000
,
00000000
00000000
00000000
00000000
,
00000000
00000000
00000000
00000000
,
00000000
00000000
00000000
00000000
,
00000000
00000000
00000000
00000000
,
00000000
00000000
00000000
00000000
,
00000000
00000000
00000000
00000000
,
00000000
10000000
10000000
01000000
,
01000000
00000000
00100000
00000000
00100000
00000000
00001000
00010000
,
00001000
00010000
00000100
00001000
,
00000100
00000010
00000000
00000002
,
00001003
00000001
00000001
00000100
,
00000100
00000000
00000010
00000000
00000010
00000000
00010000
00001000
,
00010000
00001000
01000000
00010000
,
01000000
00100000
20000000
30010000
,
00000000
00000000
10000000
00000000
,
01000000
00000000
00100000
00100000
,
00100000
00000000
00010000
00000000
,
01000000
00000000
00001000
00001000
,
00001000
00000000
00010000
00000000
,
00000020
00000000
00000030
00000000
,
00000020
00000000
00000030
00000000
,
00001000
00000100
00000020
00000000
,
00000031
00000001
00001000
00001000
,
00000001
00000100
00000010
00000000
,
00010000
00010000
00001000
00001000
,
01000000
00010000
10000000
00000000
,
10000000
10000000
00010000
00010000
,
10000000
01000000
00100000
00000000
,
00002000
00000000
00023000
00000000
,
00032000
00010000
00023000
00001000
,
00031000
00010000
00000100
00001000
,
00000001
00000000
00000100
00000001
00000100
00000000
00000010
00000000
,
00001000
00000100
00010000
00000000
,
00011000
00011000
00011000
00000000
,
00010000
00001000
01000000
00010000
,
10000000
00000000
01000000
10000000
01000000
00000000
00100000
00000000
,
00010000
01000000
00001000
00000000
,
00011000
00011000
00011000
00000000
,
00001000
00010000
00000010
00000100
,
00000001
00000000
00000010
00000001
00000010
00000000
00000100
00000000
,
00001000
00000001
00000100
00001000
,
00011000
00011000
00011000
00000000
,
00010000
00001000
00100000
01000000
,
10000000
00000000
00100000
10000000
00100000
00000000
01000000
00000000
,
00010000
10000000
01000000
00010000
,
00011000
00011000
00011000
00000000
,
00022000
00000000
00000000
00000000
,
00033000
00000000
00000000
00000000
,
00022000
00000000
00000000
00000000
,
00033000
00000000
00000000
00000000
,
00001000
00000010
00000001
00000000
,
00000100
00000000
00001000
00000000
00010000
00001000
00011000
00000000
,
00010000
00100000
10000000
00000000
,
01000000
00000000
00010000
00000000
00001000
00010000
00011000
00000000
,
00002000
00000000
00013000
00000000
,
00000100
00000010
00000001
00000000
,
00000100
00000100
00000100
00000000
,
00001000
00001000
00001000
00000000
,
00020000
00000000
00031000
00000000
,
01000000
00100000
10000000
00000000
,
01000000
00010000
00001000
00000000
,
00010000
00001000
00000010
00000000
,
00000001
00000001
00000100
00000100
,
00000010
00000000
00010000
00000000
00001000
00010000
00001000
00000000
,
00010000
00010000
00001000
01000000
,
00100000
01100000
10010000
01100000
,
10000000
10000000
01000000
01000000
,
00100000
00000000
00001000
00000000
00010000
00001000
00010000
00000000
,
00001000
00001000
00010000
00000200
,
00001300
00000001
00000100
00000010
,
00010000
00000010
00010000
00000000
00001000
00010000
00001000
00000000
,
01000000
00100000
10000000
00010000
,
00001000
00000001
00001000
00010000
,
10000000
00100000
01000000
00001000
,
00100000
00001000
00100000
00000000
00001000
00010000
00001000
00000000
,
00010000
00000100
00000010
00000001
,
00000100
00001000
00010000
00011000
;

//--------------- dance-double - KAYSTAR ----------------
#NOTES:
     dance-double:
     KAYSTAR:
     Medium:
     12:
     0,0,0,0,0:
00000000
00000000
00000000
00000000
,
00000000
00000000
00000000
00000000
,
00000000
00000000
00000000
00000000
,
00000000
00000000
00000000
00000000
,
00000000
00000000
00000000
00001000
,
00010000
00022000
00000000
00000000
,
00000000
00000000
00000000
00033000
,
00000000
00001000
00010000
00000000
00000000
00000000
00100000
00000000
,
00000000
20000000
32000000
03200000
,
00310000
00000000
10000000
00000000
00100000
01000000
00100000
00000000
,
10000000
00010000
00100000
00000000
01000000
00100000
01000000
00000000
,
00010000
00000000
00001000
00000000
00100000
00001000
00010000
00000000
,
00001000
00010000
00000100
00000000
00001000
00000000
00000010
00000000
,
00000100
00000000
00000001
00000000
00000010
00000100
00000010
00000000
,
00000001
00001000
00000010
00000000
00000100
00000010
00000100
00000000
,
00001000
00000000
00010000
00000000
00000010
00010000
00001000
00000000
,
00010000
00001000
01000000
00000000
00010000
00000000
20020000
00000000
,
30030000
10000000
00100000
01000000
,
00010000
00100000
00002000
00023000
,
00030100
00000010
00000001
00001000
,
00000010
00000100
00002000
00023000
,
00031000
00100000
01000000
10000000
,
00200000
00000000
00310000
00001000
,
00000200
00000000
00000301
00000010
,
00000100
00010000
00022000
00003000
,
00031000
01000000
00010000
00000000
00100000
00010000
00100000
00000000
,
01000000
00010000
00022000
00033000
,
00010000
00000100
00001000
00000000
00000010
00001000
00000010
00000000
,
00000100
00001000
00022000
00033000
,
00010000
00001000
01000000
00000000
00010000
00100000
01000000
00000000
,
10000000
00010000
20020000
30030000
,
10000000
00100000
01000000
00000000
00010000
00100000
00001000
00000000
,
00010000
00000100
00001000
00000000
00000100
00000010
00000001
00000000
,
00001000
00000010
00001000
00000001
00000100
00000001
00001000
00000000
,
00001200
00010300
00021000
00030100
,
00001000
00000001
00000100
00000000
00001000
00010000
00001000
00000000
,
00020000
00230000
01300000
10010000
,
00010000
00100000
00010000
10000000
01000000
10000000
00010000
00000000
,
02010000
03001000
00012000
01003000
,
00010000
10000000
01000000
00000000
00010000
00001000
00010000
00000000
,
00002000
00003020
00000130
00001001
,
00001000
00000010
00010000
00001000
00010000
00000100
00001000
00000000
,
00001200
00010300
00021000
00030010
,
00000100
00000001
00001000
00000000
00000100
00000010
00001000
00000000
,
00020000
02030000
03100000
10010000
,
00010000
00100000
00001000
00010000
00001000
01000000
00010000
00000000
,
02010000
03001000
00012000
00103000
,
01000000
10000000
00010000
00000000
01000000
00100000
00010000
00000000
,
00001000
00000100
00001000
00000100
00000010
00000100
00000001
00000000
,
00002002
00000000
00000000
00000000
00000000
00000000
00000000
00000000
00000000
00000000
00000000
00000000
00003003
00000000
00000000
00001000
,
00000001
00000000
00000000
00000000
00000000
00000000
00001000
00000010
,
00020000
00000000
00000000
00000000
00000000
00000000
00000000
00000000
00000000
00000000
00000000
00000000
00130000
00000000
00000000
10000000
,
00020000
00000000
00230000
00000000
02300000
10000000
23000000
00010000
,
30010000
01000000
00100000
00000000
10000000
01000000
00100000
00000000
,
01000000
00010000
00001000
00000000
00010000
00001000
00000010
00000000
,
00000100
00001000
00000001
00000000
00000100
00000001
00001000
00000000
,
00000010
00000100
00001000
00000000
00010000
00100000
02000000
00000000
,
03010000
10000000
00010000
10000000
,
01000000
00100000
00001000
00010000
,
00000100
00001000
00000001
00001000
,
00000001
00000100
00000010
00010000
,
00021000
00030100
00012000
00103000
,
00021000
00030010
00012000
01003000
,
00010000
00000000
10000000
01000000
00100000
00010000
00100000
00000000
,
00001000
00000000
00010000
00000100
00001000
00000100
00000010
00000000
,
00000001
00000000
00000010
00000100
00001000
00000000
00000001
00000100
,
00000010
00000000
00000001
00000010
00001000
00000000
00000100
00000000
,
00010000
00000000
00001000
00010000
01000000
00000000
00010000
00001000
,
00000100
00001000
00010000
00100000
,
10000000
00000000
01000000
00100000
00010000
00000000
10000000
00100000
,
01000000
00000000
10000000
01000000
00010000
00000000
00100000
00000000
,
01000000
00000000
00010000
00001000
00000010
00000000
00002000
00000000
,
00013000
00000010
00001000
00000010
00010000
00000010
00001000
00000010
,
00000100
00000001
00001000
00000100
00000020
00000000
00000031
00000000
,
00001000
00000010
00000100
00000001
00000010
00000100
00001000
00000000
,
00000002
00000203
00002300
00013000
,
00001000
00100000
00010000
00100000
00001000
00100000
00010000
00100000
,
01000000
10000000
00010000
01000000
00200000
00000000
10300000
00000000
,
10010000
01000000
10010000
00100000
,
01000000
00010000
01000000
00010000
00001000
00000000
00011000
00000000
;

//--------------- dance-double - KAYSTAR ----------------
#NOTES:
     dance-double:
     KAYSTAR:
     Hard:
     15:
     0,0,0,0,0:
00000000
00000000
00000000
00000000
,
00000000
00000000
00000000
00000000
,
00000000
00000000
00000000
00000000
,
00000000
00000000
00000000
00000000
,
00000000
00000000
00000000
11000000
,
01100000
00220000
00000000
00000000
,
00000000
00000000
00000000
00330000
,
00000000
00022000
00033000
00022000
,
00033000
00002000
00003020
00000032
,
00000203
00000000
00001300
00010000
00001000
00010000
00100000
00010000
,
00100000
10000000
01000000
10000000
01000000
00100000
00001000
00010000
,
00000100
00000000
00010000
00001000
00000100
00001000
00010000
00000010
,
00001000
00000010
00010000
00001000
00000010
00001000
00020000
00000000
,
00031000
00000000
00010000
00001000
00010000
00001000
00000100
00001000
,
00000100
00000001
00000010
00000001
00000010
00000100
00010000
00001000
,
00100000
00000000
00001000
00010000
00100000
00010000
00001000
01000000
,
00010000
01000000
00001000
00010000
01000000
10000000
00020000
00000000
,
10030000
00100000
01000000
00010000
,
10000000
00000000
00000000
00000000
01000000
00000000
00000000
00000000
00100000
00000000
00001000
00000000
00010000
00001000
00010000
00001000
,
00010000
00000100
00000010
00000001
,
00001000
00000000
00000010
00000000
00010000
00000000
00000000
00000000
00001000
00010000
00001000
00000000
00010000
00001000
00010000
00000000
,
00001000
01000000
00100000
10000000
,
02000000
00000000
03010000
00001000
,
00000200
00000000
00000301
00000010
,
00000100
00000000
00010000
00000000
00022000
00000000
00000000
00033000
,
00010000
00000010
00001000
00001000
00000100
00010000
00001000
00001000
,
00100000
01000000
00010000
01000000
00100000
00000000
00110000
00000000
,
00001000
00100000
00010000
00010000
01000000
00001000
00010000
00010000
,
00000010
00000100
00001000
00000100
00000020
00000000
00010030
00000000
,
00001000
00010000
00000100
00000100
00001000
00000001
00000100
00000100
,
00000010
00001000
00000100
00000010
00001000
00000000
00011000
00000000
,
00010000
00001000
00100000
00100000
00010000
10000000
00100000
00100000
,
01000000
01010000
00011000
00001010
,
00000001
00000000
00001000
00000000
00000100
00000000
00000010
00000001
00000010
00000000
00000100
00000000
00001000
00000000
00000010
00000000
,
00010000
00001000
00000100
00001000
00010000
00001000
00000100
00001000
,
00020000
00000000
00000000
00000000
00130000
00000000
01000000
00010000
01000000
00000000
00100000
00000000
10000000
00000000
00010000
00000000
,
00100000
00110000
01100000
11000000
,
10000000
00000000
00010000
00000000
01000000
00000000
00100000
10000000
00100000
00000000
01000000
00000000
00010000
00000000
00100000
00000000
,
00001000
00010000
01000000
00010000
00001000
00010000
01000000
00010000
,
00002000
00000000
00000000
00000000
00003010
00000000
00000100
00001000
00000100
00000000
00000010
00000000
00000001
00000000
00001000
00000000
,
00000010
00001010
00000110
00000101
,
00000001
00000000
00001000
00000000
00000100
00000000
00010000
00001000
00010000
00000000
00000010
00000000
00000100
00000000
00001000
00000000
,
00010000
00100000
00010000
00001000
00000010
00001000
00010000
01000000
,
10000000
00000000
00010000
00000000
00100000
00000000
00001000
00010000
00001000
00000000
01000000
00000000
00100000
00000000
10000000
00000000
,
00010000
10010000
01100000
10010000
,
10000000
00000000
00010000
00000000
00100000
00000000
00001000
00010000
00001000
00000000
01000000
00000000
00100000
00000000
00010000
00000000
,
00001000
00000100
00001000
00010000
01000000
00010000
00001000
00000010
,
00000001
00000000
00001000
00000000
00000100
00000000
00010000
00001000
00010000
00000000
00000010
00000000
00000100
00000000
00000001
00000000
,
00001000
00001100
00011000
00110000
,
20020000
00000000
00000000
00000000
00000000
00000000
00000000
00000000
00000000
00000000
00000000
00000000
30000000
00000000
00000000
00001000
,
00031000
00000000
00000000
00000000
00000000
00000000
00000101
00001001
,
00002020
00000000
00000000
00003030
,
00022000
00033000
00022000
00033000
00020000
00230000
20300000
32000000
,
03100000
00010000
00100000
00010000
10000000
00100000
00000000
00000000
01000000
00001000
01000000
00001000
00010000
00000010
00000000
00000000
,
00001010
00000101
00001001
00000000
00000011
00001100
00001001
00000000
,
00000010
00001000
00000010
00001000
00000001
00000010
00000000
00000000
00000100
00010000
00000100
00010000
00001000
00100000
00000000
00000000
,
00110000
11000000
10010000
00000000
10100000
01010000
10010000
00000000
,
00020000
10030000
01000000
00100000
00010000
00100000
00001000
00010000
,
00000100
00001000
00000100
00000010
00000001
00000010
00000100
00001000
,
00000002
00000203
00000320
00002030
,
00023000
02030000
03200000
10300000
,
00010000
10000000
02000000
00000000
13000000
00010000
02000000
00000000
,
03001000
00010000
00000020
00000000
00001030
00000001
00000020
00000000
,
00000130
00000000
00010000
00001000
00000100
00001000
00010000
00000000
,
00011000
00000000
00001000
00010000
01000000
00010000
00002000
00000000
,
00013000
00000010
00001000
00000010
00010000
00001000
00000010
00001000
,
00010000
00000010
00001000
00000001
00000010
00000100
00020000
00000000
,
00031000
01000000
00010000
01000000
00001000
00010000
01000000
00010000
,
00001000
00000000
00100000
00000000
00010000
00000000
10000000
00000000
00100000
10000000
00100000
00000000
01000000
00010000
01000000
00000000
,
00001000
00010000
00000100
00010000
00001000
00000100
00001000
00010000
,
00000100
00000010
00000001
00001000
00000010
00000100
00002000
00000000
,
00013000
00001000
00100000
00001000
00010000
00100000
00010000
00001000
,
20000000
31000000
00100000
00010000
00001000
00000100
00000010
00000001
,
00000100
00000000
00000010
00000000
00001000
00000000
00000100
00000000
00000001
00000000
00000100
00000000
00000010
00000001
00000010
00000000
,
00000001
00000100
00000010
00001000
00010000
01000000
00100000
10000000
,
00010000
00000000
00100000
00000000
00001000
00000000
00010000
00000000
00000010
00001000
00000010
00000000
00000100
00000001
00000100
00000000
,
00000001
00000010
00000100
00001000
00010000
00100000
01000000
10000000
,
00100000
00000000
01000000
00000000
00010000
00000000
00100000
00000000
10000000
00000000
00100000
00000000
01000000
10000000
01000000
00000000
,
20000000
00000000
31000000
00100000
00020000
00000000
01030000
00001000
,
00010000
00000000
00000010
00001000
00000010
00000000
00000100
00000001
00000100
00000000
00000000
00000000
00001001
00000000
00000000
00000000
;

//--------------- dance-double - KAYSTAR ----------------
#NOTES:
     dance-double:
     KAYSTAR:
     Challenge:
     18:
     0,0,0,0,0:
00000000
00000000
00000000
00000000
,
00000000
00000000
00000000
00000000
,
00000000
00000000
00000000
00000000
,
00000000
00000000
00000000
00000000
,
00000000
00000000
00000000
00110000
,
00011000
00002200
00000000
00000000
,
00000000
00000000
00000000
00003300
,
00000000
00000001
00000101
00000000
00000010
00001000
00001100
00000000
,
00000010
00000001
00000101
00000000
00000110
00000000
00001010
00000000
,
00011000
00000000
00000000
00000000
00010000
00000000
00001000
00010000
00001000
00000000
01000000
00010000
01000000
00000000
00100000
10000000
,
00100000
00000000
10000000
00010000
10000000
00000000
00010000
00100000
01000000
00000000
00010000
00000000
00001000
00000000
00010000
00000000
,
00021000
00000000
00000000
00000000
00031000
00000000
00010000
00001000
00010000
00000000
00000100
00001000
00000100
00000000
00000010
00000001
,
00000010
00000000
00000001
00001000
00000001
00000000
00001000
00000010
00000100
00000000
00001000
00000000
00010000
00000000
00001000
00000000
,
00000020
00000000
00000000
00000000
00000031
00000000
00001000
00000001
00001000
00000000
00000010
00001000
00000010
00000000
00000100
00000001
,
00000100
00000000
00000001
00001000
00000001
00000000
00001000
00000100
00000010
00000000
00001000
00000000
00010000
00000000
00001000
00000000
,
00012000
00000000
00000000
00000000
00013000
00000000
00001000
00010000
00001000
00000000
00100000
00010000
00100000
00000000
01000000
10000000
,
01000000
00000000
10000000
00010000
01000000
00000000
00100000
10000000
00010000
00000000
00100000
00000000
02100000
00000000
00000000
00000000
,
13000000
00000000
00000000
00000000
00000000
00000000
00000000
00000000
00000000
00000000
00000000
00000000
00000000
00000000
00000000
00000000
00000000
00000000
00000000
00000000
00000000
00000000
00000000
00000000
00000000
00000000
00000000
00000000
00000000
00000000
00000000
00000000
00000000
00000000
00000000
00000000
00000000
00000000
00000000
00000000
00000000
00000000
00000000
00010000
00000000
00000000
00000000
00000000
00000000
00000000
00000000
00000000
00000000
00000000
00000000
00000000
00000000
00000000
10000000
00000000
00000000
00000000
00000000
00000000
00000000
00000000
00000000
00000000
00000000
00000000
00000000
00000000
00000000
00000000
00010000
00000000
00000000
00000000
00000000
00000000
00000000
00000000
00000000
00000000
00000000
00000000
00000000
00000000
00000000
00000000
00000000
00000000
00000000
00000000
00000000
00000000
00000000
00000000
00000000
00000000
00000000
00000000
00000000
00000000
00000000
00000000
00000000
00000000
00000000
00000000
00000000
00000000
00000000
00000000
00000000
01000000
00000000
00000000
00000000
00000000
00000000
00000000
00000000
00000000
00000000
00000000
00000000
00000000
00000000
00000000
00000000
00000000
00000000
00000000
00000000
00000000
00000000
00000000
00000000
00000000
00000000
00000000
00000000
00000000
00100000
00000000
00000000
00000000
00000000
00000000
00000000
00000000
00000000
00000000
00000000
00000000
00000000
00000000
00000000
00000000
00000000
00000000
00000000
00000000
00000000
00000000
00000000
00000000
00000000
10000000
00000000
00000000
00000000
00000000
00000000
00000000
00000000
00000000
00000000
00000000
00000000
00000000
00000000
00000000
00000000
00000000
00000000
00000000
00000000
00000000
00000000
00000000
,
00000000
00000000
00000000
00000000
00000000
00000000
00000000
00000000
00000000
00000000
00010000
00000000
00000000
00000000
00000000
00000000
00000000
00000000
00000000
00000000
00000000
00000000
00000000
00000000
00000000
00000000
00100000
00000000
00000000
00000000
00000000
00000000
00000000
00000000
00000000
00000000
00000000
00000000
00000000
00000000
00000000
01000000
00000000
00000000
00000000
00000000
00000000
00000000
00000000
00000000
00000000
00000000
00000000
00000000
00000000
00000000
00000000
00000000
00000000
00000000
00000000
00000000
00000000
00000000
00000000
00000000
00000000
00000000
00000000
00000000
00000000
00000000
00000000
00000000
00000000
00000000
00000000
00000000
00000000
00000000
00000000
00000000
00010000
00000000
00000000
00000000
00000000
00000000
00000000
00000000
00000000
00000000
00000000
00000000
00000000
00000000
00000000
00000000
00000000
00000000
00000000
00000000
00000000
00000000
00000000
00000000
00000000
00000000
00000000
00000000
00000000
00000000
00000000
00000000
00000000
00000000
00000000
00000000
00000000
00000000
00001000
00000000
00000000
00000000
00000000
00000000
00000000
00000000
00000000
00000000
00000000
00000000
00000000
00000000
00000000
00000000
00000000
00100000
00000000
00000000
00000000
00000000
00000000
00000000
00000000
00000000
00000000
00000000
00000000
00000000
00000000
00000000
00000000
00000000
00000000
00000000
00000000
00000000
00000000
00000000
00000000
00000000
00000000
00000000
00000000
00000000
00000000
00000000
00100000
00000000
00000000
00000000
00000000
00000000
00000000
00000000
00000000
00000000
00000000
00000000
00000000
00000000
00000000
00001000
00000000
00000000
00000000
00000000
00000000
00000000
00000000
00000000
,
00000000
00000000
00000000
00000000
00000000
00000000
00000000
00000000
00000000
00000000
00000000
00000000
00000000
00000000
00000000
00000000
00000000
00000000
00010000
00000000
00000000
00000000
00000000
00000000
00000000
00000000
00000000
00000000
00000000
00000000
00000000
00000000
00000000
00000000
00000000
00000000
00000000
00000000
00000000
00000100
00000000
00000000
00000000
00000000
00000000
00000000
00000000
00000000
00000000
00000000
00000000
00000000
00001000
00000000
00000000
00000000
00000000
00000000
00000000
00000000
00000000
00000000
00000000
00000000
00000000
00000000
00000000
00000000
00000000
00000000
00000100
00000000
00000000
00000000
00000000
00000000
00000000
00000000
00000000
00000000
00000000
00000000
00000000
00000000
00000000
00000000
00000000
00000000
00010000
00000000
00000000
00000000
00000000
00000000
00000000
00000000
00000000
00000000
00000000
00000000
00000000
00000000
00000000
00000000
00000000
00000000
00000000
00000000
00000000
00000000
00000000
00000000
00000000
00000000
00001000
00000000
00000000
00000000
00000000
00000000
00000000
00000000
00000000
00000000
00000000
00000000
00000000
00000000
00000000
00000000
00000100
00000000
00000000
00000000
00000000
00000000
00000000
00000000
00000000
00000000
00000000
00000000
00000000
00000000
00000010
00000000
00000000
00000000
00000000
00000000
00000000
00000000
00000000
00000000
00000000
00000000
00000000
00000000
00000000
00000000
00000000
00000000
00000000
00000000
00001000
00000000
00000000
00000000
00000000
00000000
00000000
00000000
00000000
00000000
00000000
00000000
00000000
00000000
00000000
00000000
00000000
00000000
00000000
00000000
00000000
00000000
00000000
00000000
00000000
00000000
00000000
00000000
,
00000000
00000000
00000000
00000000
00000000
00000000
00000001
00000000
00000000
00000000
00000000
00000000
00000000
00000010
00000000
00000000
00000000
00000000
00000000
00000000
00000000
00000000
00000000
00000000
00000000
00000000
00000000
00000000
00000000
00000000
00001000
00000000
00000000
00000000
00000000
00000000
00000000
00000000
00000000
00000000
00000000
00000000
00000000
00000000
00010000
00000000
00000000
00000000
00000000
00000000
00000000
00000000
00000000
00000000
00000000
00000000
00000000
00001000
00000000
00000000
00000000
00000000
00000000
00000000
00000000
00000000
00000000
00000000
00000100
00000000
00000000
00000000
00000000
00000000
00000000
00000000
00000000
00000001
00000000
00000000
00000000
00000000
00000000
00000000
00000000
00000000
00000000
00000000
00000000
00000000
00000000
00000010
00000000
00000000
00000000
00000000
,
00000000
00000000
00000000
00000000
00000000
00000000
00000000
00000000
00000000
00000000
00000000
00000000
00000000
00000000
00000000
00000000
00000000
00000000
00000000
00000000
00000000
00000100
00000000
00000000
00000000
00000000
00000000
00000000
00000000
00000000
00000000
00000000
00000000
00000000
00000000
00000000
00000000
00000000
00000000
00000000
00010000
00000000
00000000
00000000
00000000
00000000
00000000
00000000
00000000
00000000
00000000
00000000
00000000
00000000
00000000
00000000
00000000
00000000
00000000
00000000
00000000
00000000
00000000
00000000
00001000
00000000
00000000
00000000
00000000
00000000
00000000
00000000
00000000
00000000
00000000
00000000
00000000
00000000
00000000
00000000
00000000
00000000
00001000
00000000
00000000
00000000
00000000
00000000
00000000
00000000
00000000
00000000
00000000
00000000
00000000
00000000
00000000
00000000
00000000
00000000
00010000
00000000
00000000
00000000
00000000
00000000
00000000
00000000
00000000
00000000
00000000
00000000
00000000
00000000
00000000
00000000
00010000
00000000
00000000
00000000
00000000
00000000
00000000
00000000
00000000
00000000
00000000
00000000
00000000
00000000
00000000
00000000
00000000
00000000
00000000
00011000
00000000
00000000
00000000
00000000
00000000
00000000
00000000
00000000
00000000
00000000
00000000
00000000
00000000
00000000
00000000
00000000
00000000
00000000
00000000
00000000
00000000
00000000
00000000
00000000
00000000
00000000
00000000
00000000
00000000
00000000
00000000
00000000
00000000
00000000
00000000
00000000
00000000
00000000
00000000
00000000
00000000
00000000
00000000
00000000
00000000
00000000
00000000
00000000
01000000
00000000
00000000
00000000
00000000
00000000
00000000
00000000
,
00000000
00100000
00000000
00000000
20000000
00000000
00000000
00000000
00000000
00000000
00000000
00000000
00000000
00000000
00000000
00000000
31000000
00000000
00000000
00000000
00010000
00000000
00001000
00000000
00000000
00000000
00000010
00000000
00000000
00000000
00000000
00000000
,
00000002
00000000
00000000
00000000
00000000
00000000
00000000
00000103
00000000
00001000
00010000
00000000
00000000
00100000
01000000
00010000
,
10000000
00010000
00000000
00100000
01000000
00010000
00000000
00000000
00002000
00000000
00000000
00000000
00000000
00000000
00013000
00000000
,
00001000
00000000
00100000
00010000
00100000
00000000
00001000
00000000
00010000
00000000
00000010
00001000
00000010
00000000
00010000
00000000
,
00001000
00100000
01000000
10000000
00100000
00000000
01100000
00000000
,
00001000
00000000
01000000
00010000
01000000
00000000
00001000
00000000
00010000
00000000
00000100
00001000
00000100
00000000
00010000
00000000
,
00001000
00000010
00000001
00000100
00000010
00000000
00000110
00000000
,
00000100
00000000
00001000
00010000
00001000
00000000
00100000
00000000
01000000
00000000
00010000
00001000
00010000
00000000
00000010
00000000
,
00000100
00000001
00000010
00000100
00010000
00000000
00011000
00000000
,
00100000
01000000
10000000
00000000
00010000
00000000
01000000
00000000
00001000
00010000
00000010
00000000
00001000
00000000
00000001
00000000
,
00000010
00000100
00000010
00000100
00001000
00000001
00001000
00000001
00000100
00000010
00000100
00000010
00001000
00000001
00000010
00000100
,
00002000
00000000
00000000
00000000
00003001
00000000
00001000
00000010
00000100
00000000
00000001
00000000
00000010
00000000
00001000
00000000
,
00010000
00000000
00000010
00001000
00000010
00000000
00001000
00010000
00001000
00000000
00010000
01000000
00010000
00000000
10000000
00000000
,
02000000
00000000
00000000
00000000
03100000
00000000
00010000
10000000
00100000
00000000
01000000
00000000
00001000
00010000
00001000
00000000
,
00020000
01000000
02030000
10000000
23000000
00010000
30010000
00000000
,
10200000
00000000
00000000
00000000
01300000
00000000
00010000
00100000
01000000
00000000
10000000
00000000
00100000
00000000
00010000
00000000
,
00001000
00000000
00100000
00010000
00100000
00000000
00010000
00001000
00010000
00000000
00001000
00000100
00001000
00000000
00000001
00000000
,
00000200
00000000
00000000
00000000
00000310
00000000
00001000
00000001
00000010
00000000
00000100
00000000
00010000
00001000
00010000
00000000
,
00002000
00000100
00003200
00000001
00000302
00001000
00001003
00000000
,
00000001
00000010
00000100
00000000
00001000
00000000
00000001
00000100
00000010
00000000
00001000
00000000
00000100
00000000
00010000
00000000
,
00001000
00000000
00000010
00000100
00001000
00000000
00000001
00000100
00000010
00000000
00000100
00001000
00010000
00000000
00001000
00000000
,
00100000
00000000
01000000
00000000
10000000
00000000
00010000
01000000
00100000
00000000
10000000
00000000
00010000
00100000
01000000
00000000
,
00020000
00000000
00001000
00000000
00032000
00000000
00010000
00000000
00013000
00000000
00100000
01000000
00010000
00000000
10010000
00000000
,
10000000
00100000
01000000
00000000
00010000
00000000
10000000
01000000
00100000
00000000
00010000
00000000
01000000
00000000
00001000
00000000
,
00010000
00000000
00100000
01000000
00010000
00000000
10000000
01000000
00100000
00000000
01000000
00010000
00001000
00000000
00010000
00000000
,
00000100
00001000
00000100
00000010
00000001
00000000
00001000
00000010
00000100
00000001
00000100
00000000
00000010
00000000
00001000
00000000
,
00001001
00000000
00000001
00000010
00000100
00001000
00000001
00001000
00000001
00000100
00000010
00000100
00000010
00001000
00000001
00000010
,
00000200
00000000
00000000
00000000
00000000
00000000
00000000
00000000
00000000
00000000
00000000
00000000
00000000
00000000
00000000
00010300
,
00011000
00000000
00000000
00000000
00000000
00000000
00001010
00011000
,
02020000
00000000
00000000
00000000
00000000
00000000
00000000
00000000
00000000
00000000
00000000
00000000
03030000
00000000
00000000
10000000
,
11000000
00000000
00100000
00010000
01010000
00000000
00100000
10000000
11000000
00000000
00110000
00000000
01010000
00000000
10100000
00000000
,
10000000
01000000
10000000
01000000
00100000
00010000
00000000
00000000
00001000
00000100
00001000
00000100
00000010
00000001
00000000
00000000
,
00000011
00000110
00001100
00000000
00110000
01100000
11000000
00000000
,
10000000
00100000
10000000
00100000
01000000
00010000
00000000
00000000
00001000
00000010
00001000
00000010
00000100
00000001
00000000
00000000
,
00000101
00000110
00001010
00000000
01010000
01100000
10100000
00000000
,
00020000
01030000
00100000
10000000
00010000
00100000
01000000
00010000
,
00001000
00000010
00000100
00001000
00000001
00000100
00000010
00001000
,
00001100
00000011
00000101
00001010
,
01010000
10100000
11000000
00110000
,
00010000
00000000
10000000
00000000
00100000
01000000
00100000
00000000
10000000
00000000
00010000
00000000
00100000
01000000
00100000
00000000
,
00010000
00000000
00001000
00000000
00000100
00000010
00000100
00000000
00001000
00000000
00000001
00000000
00000100
00000010
00000100
00000000
,
00002000
00000000
00013000
00100000
10000000
01000000
00020000
00000000
,
00031000
00000010
00000100
00000010
00000100
00001000
00000001
00001000
00000001
00000100
00000010
00001000
00000001
00001000
00000100
00000010
,
00000001
00000000
00001000
00000010
00000100
00000000
00000010
00000100
00000001
00000000
00001000
00000100
00000010
00000000
00000100
00000010
,
00000001
00000000
00001000
00000010
00000100
00000000
00001000
00000000
00011000
00000000
00010000
00000000
00210000
00000000
00000000
00000000
,
10300000
00000000
00010000
00100000
01000000
00000000
00100000
01000000
10000000
00000000
00010000
01000000
00100000
00000000
01000000
00100000
,
10000000
00000000
00010000
00100000
01000000
00000000
00010000
00000000
00001000
00000000
00010000
00000000
00200000
00000000
00000000
00000000
,
10300000
00000000
00010000
00100000
01000000
00000000
00100000
01000000
10000000
00000000
00010000
01000000
00100000
00000000
01000000
00100000
,
10000000
00000000
00010000
00100000
01000000
00000000
00010000
00000000
00011000
00000000
00001000
00000000
00001020
00000000
00000000
00000000
,
00000031
00000000
00001000
00000010
00000100
00000000
00000010
00000100
00000001
00000000
00001000
00000100
00000010
00000000
00000001
00000000
,
20000000
00000000
30010000
01000000
00100000
00000000
10000000
01000000
00100000
00000000
01000000
00010000
00001000
00000000
00010000
00001000
,
00000010
00000000
00000100
00001000
00000001
00000000
00000100
00000000
00000010
00000000
00001000
00000000
00001100
00000000
00000001
00000000
,
00000011
00000000
00001000
00000100
00000010
00000000
00000001
00000100
00000010
00000000
00000100
00001000
00010000
00000000
00001000
00010000
,
00100000
00000000
01000000
00100000
01000000
00010000
10000000
01000000
00100000
00010000
10000000
00010000
00100000
01000000
10000000
00010000
,
10000000
00000000
00010000
00100000
01000000
00000000
10000000
00100000
01000000
00000000
00100000
00010000
00001000
00000000
00010000
00001000
,
00000100
00000000
00000010
00001000
00000001
00000000
00000010
00000000
00000100
00000000
00001000
00000000
00001010
00000000
00000001
00000000
,
00000101
00000000
00001000
00000010
00000100
00000000
00000001
00000010
00000100
00000000
00000010
00001000
00010000
00000000
00001000
00010000
,
01000000
00100000
00010000
10000000
00010000
10000000
00100000
01000000
00010000
00000000
00000000
00000000
10010000
00000000
00000000
00000000
;
