#TITLE:Up On The Floor;
#SUBTITLE:(Mosso From Ibiza);
#ARTIST:Regina;
#TITLETRANSLIT:;
#SUBTITLETRANSLIT:;
#ARTISTTRANSLIT:;
#GENRE:;
#CREDIT:;
#MUSIC:Up On The Floor (Mosso From Ibiza).ogg;
#BANNER:Up On The Floor (Mosso From Ibiza).png;
#BACKGROUND:Up On The Floor (Mosso From Ibiza)-bg.png;
#CDTITLE:;
#SAMPLESTART:45.453;
#SAMPLELENGTH:14.545;
#SELECTABLE:YES;
#OFFSET:1.820;
#BPMS:0.000=132.000;
#STOPS:;
#BGCHANGES:;
#FGCHANGES:;

//--------------- dance-single - OrangeRight ----------------
#NOTES:
     dance-single:
     OrangeRight:
     Beginner:
     2:
     0,0,0,0,0:
0000
0000
0000
0000
,
0000
0000
0000
0000
,
0000
0000
0000
0000
,
0000
0000
0000
0000
,
0000
0000
0000
0000
,
0010
0000
0000
0000
,
0000
0000
0010
0000
,
1000
0000
0000
0000
,
0000
0000
0000
0000
,
0100
0000
0000
0000
,
0000
0000
0100
0000
,
0010
0000
0000
0000
,
0001
0000
0000
0000
,
1000
0000
0000
0000
,
0001
0000
0000
0000
,
1000
0000
0001
0000
,
0001
0000
1000
0000
,
1001
0000
0000
0000
,
1000
0000
0100
0000
,
1000
0000
0000
0000
,
0001
0000
0100
0000
,
0001
0000
0000
0000
,
1000
0000
0010
0000
,
1000
0000
0000
0000
,
0001
0000
0010
0000
,
0100
0000
0000
0000
,
1000
0000
1000
0000
,
0001
0000
0100
0000
,
0001
0000
0001
0000
,
1000
0000
0000
0000
,
0001
0000
0001
0000
,
0010
0000
0100
0000
,
1000
0000
1000
0000
,
0010
0000
0000
0000
,
1000
0000
1000
0000
,
0001
0000
0010
0000
,
0001
0000
0001
0000
,
0100
0000
0000
0000
,
0010
0000
0010
0000
,
1000
0000
0100
0000
,
0010
0000
0010
0000
,
0001
0000
1000
0000
,
1001
0000
0000
0000
,
1000
0000
0000
0000
,
0001
0000
0000
0000
,
1000
0000
0000
0000
,
1001
0000
0000
0000
,
0001
0000
0000
0000
,
1000
0000
0000
0000
,
0001
0000
0000
0000
,
1000
0000
0010
0000
,
1000
0000
1000
0000
,
0001
0000
0010
0000
,
0001
0000
0001
0000
,
1001
0000
0000
1001
;

//--------------- dance-single - OrangeRight ----------------
#NOTES:
     dance-single:
     OrangeRight:
     Easy:
     5:
     0,0,0,0,0:
0000
0000
0000
0000
,
0000
0000
0000
0000
,
0000
0000
0000
0000
,
0000
0000
0000
0000
,
0000
0000
0000
0000
,
1000
0000
1000
0000
,
1000
0001
1000
0000
,
0100
0000
0100
0000
,
0100
0000
0010
0000
,
0001
0000
0001
0000
,
0001
1000
0001
0000
,
0100
0000
0010
0000
,
1001
0000
0000
0000
,
1000
0000
0000
1000
,
0001
0000
0000
0001
,
1000
1000
0001
0001
,
1000
0001
1000
0001
,
1001
0000
0000
0000
,
1000
0010
1000
1000
,
0001
0000
1001
0000
,
0001
0010
0001
0001
,
1000
0000
0001
0001
,
1000
0100
1000
1000
,
0010
0000
0110
0000
,
0100
0001
0100
0100
,
0001
0000
1000
0001
,
1000
0100
0100
1000
,
0001
0100
0001
0000
,
0001
0010
0010
0001
,
1000
1000
0001
0001
,
1000
0010
0010
1000
,
0001
0010
0001
0000
,
0001
0100
0100
0001
,
1000
1000
0001
0001
,
0100
0010
0010
0100
,
0001
1000
0001
0000
,
0010
0100
0100
0010
,
0001
0100
0010
1000
,
0001
1000
1000
0001
,
0100
0000
0010
1000
,
0001
1000
1000
0001
,
1000
0100
0010
0001
,
1000
1000
0000
1000
,
0001
0001
0000
0001
,
0100
0000
0100
0000
,
0010
1000
0001
0000
,
0001
0001
0000
0001
,
1000
1000
0000
1000
,
0100
0010
0001
1000
,
1001
0000
0000
0000
,
1000
1000
1000
1000
,
0001
0100
0010
1000
,
0001
0001
0001
0001
,
1000
0100
0010
0001
,
1000
0001
1000
1001
;

//--------------- dance-single - OrangeRight ----------------
#NOTES:
     dance-single:
     OrangeRight:
     Medium:
     8:
     0,0,0,0,0:
0000
0000
0000
0000
,
0000
0000
0000
0000
,
0000
0000
0000
0000
,
0000
0000
0000
0000
,
0000
0000
0000
0000
,
1000
1000
1000
1000
,
0001
0001
0100
0100
,
0001
0001
0001
0001
,
1000
1000
0100
0100
,
0010
0010
0010
0010
,
0001
0001
0100
0100
,
0010
0010
0010
0010
,
1000
0001
1000
0001
,
1001
0000
0000
0000
0000
0000
0000
1000
,
1100
0000
0000
0000
0000
0000
0000
0001
,
0011
0000
0000
0000
0000
0000
0000
0001
,
1000
0001
0100
0010
1000
0001
0010
0100
,
0100
0000
0000
0000
,
1000
0010
0100
0001
,
1000
0100
1000
0000
1000
0001
0100
0000
,
0001
0010
0100
1000
,
0001
0100
0001
0000
1000
0100
1000
0100
,
1000
0001
0100
0010
,
1000
0010
1000
0000
1000
0001
0010
0000
,
0001
1000
0010
0100
,
0001
0010
0100
0000
1000
0001
1000
0001
,
1000
0000
0100
1000
0100
0000
0010
0000
,
0001
0100
0001
1000
0001
0000
1000
0000
,
0010
0000
0100
0000
0001
1000
0000
1001
,
0000
0001
0000
0100
0010
0000
1000
0000
,
0001
0010
1000
0010
,
0001
0100
0001
1000
0100
0000
0010
0000
,
0001
0000
0100
0000
0010
1000
0000
1001
,
0000
1000
0000
0001
0100
0000
0010
0000
,
1000
0000
0100
0000
0010
0001
0100
0000
,
0010
1000
0100
1000
0010
0000
0100
0000
,
0001
0000
1000
0000
0100
0010
0000
0110
,
0000
0100
0000
1000
0010
0000
0100
0000
,
0001
0000
0010
0000
0100
1000
0010
0000
,
0100
0001
0010
0001
1000
0000
0100
0000
,
1000
0000
0010
0000
0100
0001
0000
1001
,
0000
0000
0001
0000
0000
0001
0000
0000
1000
0000
0000
1000
0000
0000
0001
0000
,
1000
0000
1000
0000
1000
0000
0001
0100
,
0001
0000
0001
0000
0001
0000
1000
0010
,
1000
0000
1000
0000
1000
0000
0100
0010
,
0001
0100
0010
1000
,
0001
0000
0001
0000
0001
0000
0010
0001
,
1000
0000
1000
0000
1000
0000
0100
1000
,
0001
0100
0010
1000
,
0001
0000
0000
0001
0000
0000
1000
0000
0000
1000
0000
0000
0000
0000
0000
0000
,
1000
0000
0000
0010
0000
0000
1000
0000
0000
0010
0000
0000
1000
0000
0000
0000
,
0001
0010
0100
0010
0001
1000
0001
0000
,
0001
0000
0000
0100
0000
0000
0001
0000
0000
0100
0000
0000
0001
0000
0000
0000
,
1000
0100
0010
0100
1000
0001
0100
0010
,
1000
0000
0000
0100
0000
0000
0001
0000
0000
0100
0000
0000
1001
0000
0000
0000
;

//--------------- dance-single - OrangeRIght ----------------
#NOTES:
     dance-single:
     OrangeRIght:
     Hard:
     12:
     0,0,0,0,0:
0000
0000
0000
0000
,
0000
0000
0000
0000
,
0000
0000
0000
0000
,
0000
0000
0000
0000
,
0000
0000
0000
0000
,
1001
1000
0001
1000
,
0010
0100
0101
0010
,
0011
0001
0010
0001
,
1000
0001
0100
0001
,
1001
0001
1000
0001
,
0010
0100
1100
0010
,
1010
1000
0001
0010
,
0100
1000
0001
1000
,
1001
0000
0001
0000
0001
0000
0001
1000
,
1001
0000
1000
0000
1000
0000
1000
0001
,
1001
0001
0100
0010
,
1000
0000
0100
0000
0010
0000
0001
0000
0100
0000
0010
0000
1000
0000
0001
1000
,
0001
0000
0000
0000
,
1000
0000
0000
1000
0010
0000
0000
0010
0100
0000
0000
0100
0001
0000
0000
0001
,
1000
0000
0000
1000
0100
0000
0000
0100
0001
0000
0100
0000
1000
0000
0000
0000
,
0001
0000
0000
0001
0010
0000
0000
0010
0100
0000
0000
0100
1000
0000
0000
1000
,
0001
0000
0000
0001
0010
0000
0000
0010
1000
0000
0010
0000
0001
0000
0100
0000
,
0010
0000
0000
0010
1000
0000
0000
1000
0100
0000
0000
0100
0001
0000
0000
0001
,
0100
0000
0000
0100
1000
0000
0000
1000
0010
0000
0100
0000
0001
0000
0000
0000
,
1000
0000
0000
1000
0010
0000
0000
0010
0001
0000
0000
0001
1000
0000
0000
1000
,
0100
0000
0000
0100
0001
0000
0000
0001
0010
0000
0100
0000
1000
0000
0001
0000
,
1000
0010
0100
0001
0010
0001
1000
0100
,
0010
0010
0001
1000
0001
0000
1000
0010
,
1010
0000
1001
0000
0001
0011
0000
0110
,
0000
0000
0100
0000
1000
0001
0000
0000
0100
0000
0000
0010
0000
0000
1000
0000
,
0001
1000
0100
0001
0100
1000
0001
0100
,
0010
1000
1000
0100
1000
0001
0010
0001
,
0011
0000
1001
0000
1000
1010
0000
0110
,
0000
0000
0100
0000
0001
0010
0000
0000
0010
0000
0000
0001
0000
0000
1000
0000
,
1010
0000
0101
0000
0001
0010
1000
0000
,
1000
0010
0001
1000
0010
0100
0001
1000
,
1001
0000
0101
0000
0001
0011
0000
1100
,
0000
0000
0100
0000
1000
0010
0000
0000
0100
0000
0000
0001
0000
0000
0010
0000
,
0011
0000
1100
0000
1000
0010
0001
0000
,
0001
0010
0100
0001
1000
0100
0010
1000
,
1010
0000
0011
0000
0001
0101
0000
1000
,
1100
0000
0000
1010
0000
0000
0101
0000
0000
0011
0000
0000
1001
0000
0001
0000
,
1000
0000
0100
1000
0000
0100
1000
0000
0000
0001
0000
0000
0100
0000
0010
0000
,
1000
0000
0001
0100
0000
0001
0100
0000
0000
0010
0000
0000
1000
0000
0001
0000
,
0010
0000
0000
0100
0000
0000
1000
0000
0000
0010
0000
0000
0100
0000
0001
0000
,
1000
0000
0000
0100
0000
0000
0001
0000
0000
0100
0000
0000
1000
0000
0000
0000
,
0001
0000
0100
0001
0000
0100
0001
0000
1000
0100
0000
0000
0100
0000
0010
0000
,
0001
0000
1000
0100
0000
1000
0100
0000
0010
0001
0000
0000
0001
0000
1000
0000
,
0001
0000
0000
0001
0100
0000
0010
0000
1000
0100
0000
0000
1000
0000
0001
0000
,
0010
0000
0000
1000
0000
0000
0010
0000
0000
0001
0000
0000
1000
0000
0001
0000
,
1000
0000
0000
1100
0000
0000
0001
0000
0000
0101
0000
0000
1001
0000
0000
0000
,
1000
0000
0001
0000
0100
0000
0000
0001
0000
0001
0000
0001
0010
0000
0000
0000
,
0001
0000
0000
0011
0000
0000
1000
0000
0000
1010
0000
0000
0110
0000
0000
0000
,
0100
0000
0001
0000
0010
0000
0000
0100
0000
0100
0000
0100
1000
0000
0001
0000
,
0101
0000
0000
0011
0000
0000
1100
0000
0000
1010
0000
0000
0110
0000
0000
0000
;

//--------------- dance-double - OrangeRight ----------------
#NOTES:
     dance-double:
     OrangeRight:
     Easy:
     4:
     0,0,0,0,0:
00000000
00000000
00000000
00000000
,
00000000
00000000
00000000
00000000
,
00000000
00000000
00000000
00000000
,
00000000
00000000
00000000
00000000
,
00000000
00000000
00000000
00000000
,
00010000
00000000
00001000
00000000
,
00100000
00000000
00010000
00000000
,
01000000
00000000
00001000
00000000
,
00010000
00000000
00010000
00000000
,
00001000
00000000
00010000
00000000
,
00000010
00000000
00001000
00000000
,
00000100
00000000
00000010
00000000
,
00000001
00000000
00000001
00000000
,
00001001
00000000
00000000
00000000
,
00000110
00000000
00000000
00000000
,
00001001
00000000
00000000
00000000
,
00001000
00000010
00010000
00001000
,
00011000
00000000
00000000
00000000
,
00001000
00001000
00001000
00000000
,
00100000
00010000
00100000
00000000
,
00010000
00010000
00010000
00000000
,
01000000
00010000
01000000
00000000
,
00001000
00001000
00001000
00000000
,
00010000
00001000
00010000
00000000
,
00000100
00000100
00000100
00000000
,
00001000
00000010
00001000
00000000
,
00000010
00000010
00010000
00000000
,
00001000
00001000
00010000
00000000
,
00001000
00100000
00001000
00100000
,
00010000
00000000
01000000
00000000
,
00100000
00100000
10000000
00000000
,
00010000
00010000
00100000
00000000
,
00001000
00010000
00001000
00010000
,
00000100
00000000
00010000
00000000
,
00001000
00001000
00010000
00001000
,
00100000
00010000
00100000
00000000
,
00010000
00010000
01000000
00001000
,
00010000
00000000
00001000
00000000
,
00010000
00010000
00001000
00010000
,
00000010
00001000
00000010
00000000
,
00001000
00001000
00000100
00010000
,
00001000
00010000
00001000
00010000
,
00001000
00001000
00000000
00000000
,
00010000
00010000
00000000
00000000
,
00000010
00000010
00000000
00000000
,
00001000
00001000
00000000
00000000
,
00000001
00000001
00000000
00000001
,
00000100
00000100
00000000
00000000
,
00000010
00000010
00000000
00000010
,
00001000
00000001
00001000
00000000
,
00000100
00000100
00000100
00000000
,
00001000
00000100
00010000
00000000
,
00001000
00001000
00001000
00000000
,
00100000
00010000
01000000
00000000
,
00010000
10000000
00010000
10010000
;

//--------------- dance-double - OrangeRight ----------------
#NOTES:
     dance-double:
     OrangeRight:
     Medium:
     9:
     0,0,0,0,0:
00000000
00000000
00000000
00000000
,
00000000
00000000
00000000
00000000
,
00000000
00000000
00000000
00000000
,
00000000
00000000
00000000
00000000
,
00000000
00000000
00000000
00000000
,
00010000
00010000
00010000
00010000
,
00001000
00001000
00100000
00100000
,
00010000
00010000
00010000
00010000
,
01000000
01000000
01000000
01000000
,
00001000
00001000
00001000
00001000
,
00010000
00010000
00000010
00000010
,
00001000
00001000
00001000
00001000
,
00000001
00001000
00000001
00001000
,
00001001
00000000
00000000
00000000
00000000
00000000
00000000
00001000
,
00001100
00000000
00000000
00000000
00000000
00000000
00000000
00000100
,
00010100
00000000
00010000
00000000
00001000
00000000
00100000
00010000
,
01000000
00010000
01000000
00010000
00100000
00001000
00100000
00001000
,
00001000
00000000
00000000
00000000
,
00010000
00001000
00100000
00010000
,
01000000
00010000
01000000
00000000
00010000
01000000
00010000
00000000
,
00100000
00001000
00010000
00000100
,
00001000
00000010
00001000
00000000
00000100
00001000
00000100
00000000
,
00001000
00000100
00010000
00001000
,
00100000
00010000
00100000
00000000
00010000
00100000
00010000
00000000
,
01000000
00010000
00100000
01000000
,
10000000
00010000
10000000
00000000
00010000
10000000
00010000
00000000
,
10000000
00100000
01000000
00000000
00010000
00000000
00100000
00010000
,
00100000
00000000
00010000
00000000
01000000
00000000
00001000
00100000
,
00001000
00000000
00010000
00000000
00001000
00010000
00000000
00011000
,
00000000
00010000
00000000
00010000
00001000
00000000
00010000
00000000
,
00000010
00000000
00001000
00000000
00000100
00001000
00000100
00000000
,
00010000
00001000
00010000
00000000
00001000
00000000
00100000
00010000
,
10000000
00000000
00100000
00000000
01000000
00010000
00000000
10010000
,
00000000
10000000
00000000
10000000
00010000
00000000
01000000
00000000
,
00100000
00000000
10000000
00000000
01000000
00100000
01000000
00000000
,
10000000
00010000
10000000
00000000
00100000
00000000
01000000
00000000
,
00010000
00000000
00100000
00000000
00001000
00010000
00000000
00011000
,
00000000
00010000
00000000
00010000
00001000
00000000
00010000
00000000
,
00000100
00000000
00001000
00000000
00000010
00000100
00000010
00000000
,
00001000
00000001
00001000
00000000
00000100
00000000
00000010
00000000
,
00000001
00000000
00000100
00000000
00000010
00001000
00000000
00001001
,
00000000
00000000
00001000
00000000
00000000
00001000
00000000
00000000
00000010
00000000
00000000
00000010
00000000
00000000
00010000
00000000
,
00011000
00000000
00011000
00000000
00001000
00000000
00100000
00010000
,
00100000
00000000
00010000
00000000
00100000
00000000
00010000
01000000
,
00010000
00000000
01000000
00000000
00001000
00000000
01000000
00001000
,
00010000
00000100
00001000
00000010
,
00000100
00000000
00000100
00000000
00000100
00000000
00000100
00000010
,
00001000
00000000
00001000
00000000
00001000
00000000
00001000
00000100
,
00010000
00000000
00010000
00000000
00010000
00000000
00010000
00001000
,
00100000
00000000
00000000
00010000
00000000
00000000
01000000
00000000
00000000
00100000
00000000
00000000
10000000
00000000
00000000
00000000
,
00010000
00000000
00000000
00010000
00000000
00000000
10000000
00000000
00000000
10000000
00000000
00000000
10010000
00000000
00000000
00000000
,
00010000
00100000
00010000
00100000
00001000
00010000
00001000
00000000
,
00010000
00000000
00000000
00010000
00000000
00000000
00001000
00000000
00000000
00001000
00000000
00000000
00011000
00000000
00000000
00000000
,
00001000
00010000
00001000
00010000
00000100
00001000
00000100
00000000
,
00001000
00000000
00000000
00000010
00000000
00000000
00000001
00000000
00000000
00000010
00000000
00000000
00001001
00000000
00000000
00000000
;

//--------------- dance-double - OrangeRight ----------------
#NOTES:
     dance-double:
     OrangeRight:
     Hard:
     12:
     0,0,0,0,0:
00000000
00000000
00000000
00000000
,
00000000
00000000
00000000
00000000
,
00000000
00000000
00000000
00000000
,
00000000
00000000
00000000
00000000
,
00000000
00000000
00000000
00000000
,
10000000
10000000
10000000
10000000
,
00010000
00010000
01000000
01000000
,
00001000
00001000
00001000
00001000
,
00010000
00010000
00000100
00000100
,
00001000
00001000
00001000
00001000
,
00000010
00000010
00000100
00000100
,
00000001
00000001
00000001
00000001
,
00001000
00000001
00001000
00000001
,
00001001
00000000
00001000
00000000
00000100
00000000
00010000
00001000
,
00011000
00000000
00001000
00000000
00100000
00000000
00010000
10000000
,
10010000
00000000
00010000
00000000
00100000
00000000
00001000
00010000
,
00000100
00000000
00001000
00000000
00000010
00000000
00000001
00000000
00000010
00000000
00001000
00000000
00000100
00000000
00010000
00001000
,
00010000
00000000
00000000
00000000
,
00001000
00000000
00000000
00001000
00100000
00000000
00000000
00100000
00010000
00000000
00000000
00010000
01000000
00000000
00000000
01000000
,
00001000
00000000
00000000
00001000
00010000
00000000
00000000
00010000
01000000
00000000
00010000
00000000
00001000
00000000
00000000
00000000
,
00010000
00000000
00000000
00010000
00000010
00000000
00000000
00000010
00001000
00000000
00000000
00001000
00000100
00000000
00000000
00000100
,
00010000
00000000
00000000
00010000
00001000
00000000
00000000
00001000
00000100
00000000
00001000
00000000
00010000
00000000
00001000
00000000
,
00100000
00000000
00000000
00100000
00001000
00000000
00000000
00001000
00010000
00000000
00000000
00010000
00000100
00000000
00000000
00000100
,
00001000
00000000
00000000
00001000
00000010
00000000
00000000
00000010
00000001
00000000
00000010
00000000
00001000
00000000
00000000
00000000
,
00000010
00000000
00000000
00000010
00010000
00000000
00000000
00010000
00001000
00000000
00000000
00001000
01000000
00000000
00000000
01000000
,
00010000
00000000
00000000
00010000
00100000
00000000
00000000
00100000
10000000
00000000
00100000
00000000
00010000
00000000
01000000
00000000
,
00010000
00000000
00000000
00100000
00000000
00000000
00001000
00000000
00000000
00010000
00000000
00000000
00000100
00000000
00001000
00000000
,
00000010
00000100
00000001
00000100
00000010
00000000
00001000
00000100
,
00001100
00000000
00010100
00000000
00010000
00011000
00000000
00101000
,
00000000
00000000
00001000
00000000
00000000
00100000
00000000
00000000
00001000
00000000
00000000
00010000
00000000
00000000
00000100
00000000
,
00001000
00000000
00000000
00000010
00000000
00000000
00010000
00000000
00000000
00001000
00000000
00000000
00100000
00000000
00010000
00000000
,
01000000
00100000
10000000
01000000
10000000
00000000
00100000
01000000
,
01100000
00000000
01010000
00000000
00010000
00110000
00000000
00101000
,
00000000
00000000
00100000
00000000
00000000
00001000
00000000
00000000
00010000
00000000
00000000
00000100
00000000
00000000
00010000
00000000
,
00011000
00000000
00010100
00000000
00000100
00001000
00010000
00000000
,
00010000
00001000
00000100
00010000
00001000
01000000
00010000
00100000
,
00110000
00000000
00101000
00000000
00001000
00011000
00000000
00010100
,
00000000
00000000
00000100
00000000
00000000
00001000
00000000
00000000
00000010
00000000
00000000
00000001
00000000
00000000
00000010
00000000
,
00001010
00000000
00001100
00000000
00001000
00000100
00000001
00000000
,
00000001
00000100
00001000
00000010
00010000
00000000
00001000
00010000
,
00011000
00000000
00101000
00000000
00100000
00110000
00000000
00010000
,
01010000
00000000
00000000
00110000
00000000
00000000
11000000
00000000
00000000
10100000
00000000
00000000
10010000
00000000
00000000
00000000
,
00010000
00000000
00100000
00010000
00000000
00100000
00010000
00000000
01000000
00001000
00000000
00000000
00010000
00000000
00000100
00000000
,
00001000
00000000
00000010
00001000
00000000
00000010
00001000
00000000
00000000
00000100
00000000
00000000
00010000
00000000
00001000
00000000
,
00100000
00000000
00000000
00010000
00000000
00000000
01000000
00000000
00000000
10000000
00000000
00000000
01000000
00000000
00010000
00000000
,
00100000
00000000
00000000
00001000
00000000
00000000
00010000
00000000
00000000
00100000
00000000
00000000
00010000
00000000
00000000
00000000
,
00001000
00000000
00100000
00001000
00000000
00100000
00001000
00000000
00010000
00000100
00000000
00000000
00001000
00000000
00000010
00000000
,
00010000
00000000
00000010
00010000
00000000
00000010
00010000
00000000
00001000
01000000
00000000
00000000
00010000
00000000
00100000
00000000
,
10000000
00000000
00000000
00100000
00000000
00000000
00010000
00000000
00000000
01000000
00000000
00000000
00001000
00000000
00010000
00000000
,
00000100
00000000
00000000
00001000
00000000
00000000
00000010
00000000
00000000
00000001
00000000
00000000
00000010
00000000
00001000
00000000
,
00000100
00000000
00000000
00000100
00010000
00000000
00000000
00010000
00001000
00000000
00000000
00001000
00100000
00000000
00000000
00100000
,
00010000
00000000
01000000
00000000
00100000
00000000
00000000
01000000
00000000
01000000
00000000
01000000
00010000
00000000
00000000
00000000
,
00100000
00000000
00000000
00100000
00001000
00000000
00000000
00001000
00010000
00000000
00000000
00010000
00000100
00000000
00000000
00000100
,
00001000
00000000
00000010
00000000
00000100
00000000
00000000
00000010
00000000
00000010
00000000
00000010
00001000
00000000
00000100
00000000
,
00010100
00000000
00000000
00010010
00000000
00000000
00101000
00000000
00000000
01001000
00000000
00000000
00011000
00000000
00000000
00000000
;
