#VERSION:0.83;
#TITLE:Ultimate power;
#SUBTITLE:;
#ARTIST:Vaccines;
#TITLETRANSLIT:;
#SUBTITLETRANSLIT:;
#ARTISTTRANSLIT:;
#GENRE:PUNK ROCK;
#ORIGIN:drummania / GUITARFREAKS 2ndMIX;
#TAGS:;
#CREDIT:;
#BANNER:Ultimate power.png;
#BACKGROUND:Ultimate power-bg.png;
#PREVIEWVID:;
#JACKET:Ultimate power-jacket.png;
#CDIMAGE:;
#DISCIMAGE:;
#LYRICSPATH:;
#CDTITLE:cdtitle.png;
#MUSIC:Ultimate power.ogg;
#OFFSET:-0.491000;
#SAMPLESTART:40.956001;
#SAMPLELENGTH:16.743999;
#SELECTABLE:YES;
#BPMS:0.000000=172.000000
;
#STOPS:;
#DELAYS:;
#WARPS:;
#TIMESIGNATURES:0.000000=4=4
;
#TICKCOUNTS:0.000000=4
;
#COMBOS:0.000000=1
;
#SPEEDS:0.000000=1.000000=0.000000=0
;
#SCROLLS:0.000000=1.000000
;
#FAKES:;
#LABELS:0.000000=Song Start
;
#BGCHANGES:-2.000=Ultimate power.avi=1.000=0=0=1=====,
99999=-nosongbg-=1.000=0=0=0 // don't automatically add -songbackground-
;
#KEYSOUNDS:;
#ATTACKS:
;

//---------------dance-single - ----------------
#NOTEDATA:;
#CHARTNAME:;
#CHARTHASH:2147483647;
#STEPSTYPE:dance-single;
#BANNER:;
#DESCRIPTION:;
#CHARTSTYLE:;
#DIFFICULTY:Easy;
#METER:6;
#METERF:0.000000;
#LASTSECONDHINT:77.235184;
#RADARVALUES:0.276437,0.316751,0.195810,0.000000,0.000000,168.000000,151.000000,17.000000,0.000000,0.000000,0.000000,0.000000,0.000000,0.000000,0.276437,0.316751,0.195810,0.000000,0.000000,168.000000,151.000000,17.000000,0.000000,0.000000,0.000000,0.000000,0.000000,0.000000;
#CREDIT:-YOSEFU-;
#NOTES:
// measure 0
0000
0000
0000
0000
,  // measure 1
0000
0000
0000
0000
,  // measure 2
0000
0000
0000
0000
,  // measure 3
0000
0000
0000
0000
,  // measure 4
1000
0000
0000
0000
,  // measure 5
0001
0000
0000
0000
,  // measure 6
1000
0000
0000
0000
,  // measure 7
0100
0000
0000
0000
,  // measure 8
1000
0000
0000
0000
,  // measure 9
0010
0000
0000
0000
,  // measure 10
0100
0000
0000
0000
,  // measure 11
0001
1000
0001
1000
,  // measure 12
0001
1000
0010
0100
,  // measure 13
0001
1000
0000
0001
,  // measure 14
1000
0100
0000
0010
,  // measure 15
0001
0100
0000
0010
,  // measure 16
1000
0100
0010
0001
,  // measure 17
1000
0001
0000
0100
,  // measure 18
0010
1000
0000
0100
,  // measure 19
0010
0001
0000
0100
,  // measure 20
0010
1000
0001
0100
,  // measure 21
0001
0010
0100
0000
,  // measure 22
1000
0001
0100
0000
,  // measure 23
0001
0010
1000
0010
,  // measure 24
0100
1000
0001
0000
,  // measure 25
0100
0010
1000
0000
,  // measure 26
0001
0010
0100
0000
,  // measure 27
1000
0010
0100
0001
,  // measure 28
0010
1000
0010
0001
,  // measure 29
0100
0010
1000
0100
,  // measure 30
0001
0100
1000
0000
,  // measure 31
0001
0010
0100
1000
,  // measure 32
0010
0100
0000
1001
,  // measure 33
0001
0010
0100
0001
,  // measure 34
0100
0010
0001
1000
,  // measure 35
0100
0001
0100
1000
,  // measure 36
0010
0000
0000
0110
,  // measure 37
0000
0101
0000
1010
,  // measure 38
0000
0101
0000
1100
,  // measure 39
0000
1000
0010
1000
,  // measure 40
0010
1000
0010
0100
,  // measure 41
0101
0001
1000
0100
,  // measure 42
0001
0100
1000
0000
,  // measure 43
0010
0100
0001
0010
,  // measure 44
1000
0010
0001
0000
,  // measure 45
1000
0010
0100
0001
,  // measure 46
0010
1000
0010
0100
,  // measure 47
1000
0010
0100
0001
,  // measure 48
0010
0000
0000
0110
,  // measure 49
0000
1100
0000
0011
,  // measure 50
0000
1100
0000
1010
,  // measure 51
0000
0101
0000
1001
,  // measure 52
0000
1100
0000
0011
,  // measure 53
0000
1000
0100
1000
,  // measure 54
0100
0010
0001
0100
,  // measure 55
0110
0000
0000
0000
;

//---------------dance-single - ----------------
#NOTEDATA:;
#CHARTNAME:;
#CHARTHASH:1023832802;
#STEPSTYPE:dance-single;
#BANNER:;
#DESCRIPTION:;
#CHARTSTYLE:;
#DIFFICULTY:Medium;
#METER:9;
#METERF:0.000000;
#LASTSECONDHINT:77.235184;
#RADARVALUES:0.381747,0.538477,0.575911,0.000000,0.000000,232.000000,182.000000,50.000000,0.000000,0.000000,0.000000,0.000000,0.000000,0.000000,0.381747,0.538477,0.575911,0.000000,0.000000,232.000000,182.000000,50.000000,0.000000,0.000000,0.000000,0.000000,0.000000,0.000000;
#CREDIT:-YOSEFU-;
#NOTES:
0000
0000
0000
0000
,
0000
0000
0000
0000
,
0000
0000
0000
0000
,
0000
0000
0000
0000
,
1000
0000
0000
0000
0000
0001
0100
0010
,
0000
0000
0000
0000
,
1000
0000
0000
0000
0000
0100
0010
0001
,
0000
0000
0000
0000
,
1000
0000
0000
0000
0000
0001
0100
1000
,
0000
0000
0000
0000
,
0100
0000
0000
0000
0000
0001
1000
0100
,
0000
1100
0011
1100
,
0011
1100
0011
0101
,
1001
0000
1000
0000
0001
0000
0100
0001
,
0000
1000
0001
1000
,
0010
0000
0100
0000
0010
0000
0100
0001
,
0000
0010
0000
0000
0100
0000
1100
0000
,
0001
0000
1000
0000
0010
0000
0100
0001
,
0000
1000
0100
0010
,
0100
0000
1000
0000
0001
0000
0100
0010
,
0000
0110
0000
0000
0101
0000
1001
0000
,
1000
0000
0100
0000
0010
0000
0000
0001
,
1000
0001
0101
0000
,
0100
0000
0010
0000
1000
0000
0000
0001
,
0100
0001
0011
0000
,
1000
0000
0010
0000
0100
0000
0000
0001
,
1000
0100
0110
0001
,
1000
0000
0010
0000
0100
0000
0000
0001
,
1000
0100
0001
0100
,
1000
0000
0001
0000
0100
0000
0000
1000
,
0000
0100
0000
0001
0000
0000
0110
0000
,
1000
0000
0001
0000
0010
0000
0000
1000
,
0010
0001
0100
1010
,
1000
0001
0010
1000
,
0010
0100
0010
0000
0001
0000
1001
0000
,
1000
0100
0001
0100
,
0010
0000
0001
0101
,
0001
0101
0000
1100
,
0000
0101
0000
1001
,
0000
0101
1010
0101
,
1010
0101
1010
1001
,
0011
0000
0010
0000
0100
0000
0000
1000
,
0000
0001
0100
0001
0000
0000
0101
0000
,
1000
0100
0001
0100
,
1000
0001
1000
0000
0100
0000
1001
0000
,
0101
0100
0010
0001
,
0010
0100
0010
0000
1000
0000
1001
0000
,
0001
0010
0100
1000
,
0001
0000
1000
1100
,
0001
0101
0000
1100
,
1000
0000
0001
0000
0100
0010
0100
0000
,
0001
1001
0000
1100
,
0000
0101
0000
0011
,
0000
1100
0011
1100
,
0011
1100
0011
0101
,
1010
0000
0000
0000
;

//---------------dance-single - ----------------
#NOTEDATA:;
#CHARTNAME:;
#CHARTHASH:1761913538;
#STEPSTYPE:dance-single;
#BANNER:;
#DESCRIPTION:;
#CHARTSTYLE:Pad Singles;
#DIFFICULTY:Hard;
#METER:12;
#METERF:0.000000;
#LASTSECONDHINT:77.235184;
#RADARVALUES:0.519965,0.538477,0.310992,0.000000,0.000000,316.000000,289.000000,27.000000,0.000000,0.000000,0.000000,0.000000,0.000000,0.000000,0.519965,0.538477,0.310992,0.000000,0.000000,316.000000,289.000000,27.000000,0.000000,0.000000,0.000000,0.000000,0.000000,0.000000;
#CREDIT:-YOSEFU-;
#NOTES:
0000
0000
0000
0000
,
0000
0000
0000
0000
,
0000
0000
0000
0000
,
0000
0000
0000
0000
,
0001
0000
0000
0000
0000
0001
1000
0010
,
0000
0100
0100
0100
,
0001
0000
0000
0000
0000
0001
0010
0100
,
0000
1000
1000
1000
,
0001
0000
0000
0000
0000
0001
0100
0010
,
0000
1000
1000
1000
,
0100
0000
0000
0000
0000
0100
0010
0001
,
1000
0101
1010
0101
,
1010
0000
0101
0000
0001
0100
0010
1000
,
0001
0000
1000
0000
0100
0010
0100
1000
,
0001
0000
0100
0000
0010
0100
0010
0000
,
1000
0000
0100
0000
0010
0001
1000
0010
,
0100
0010
0000
0100
0001
1000
0100
1000
,
0001
0000
0100
0000
0010
1000
0100
0001
,
0100
0000
1000
0000
0001
0100
0010
0000
,
0100
0000
0001
0000
0010
0100
1000
0010
,
0100
0001
0000
1000
0001
0010
0100
0010
,
0001
1000
0010
0100
0001
0000
0000
1000
,
0001
0001
0000
0000
0010
0100
0000
0000
,
1000
0010
0100
1000
0000
0100
0001
1000
,
0100
0100
0000
0000
0011
0000
0001
0000
,
0100
0010
1000
0001
0010
0000
0000
0100
,
1000
1000
0001
0100
0010
1000
0001
0010
,
0100
0010
0001
1000
0010
0000
0100
0001
,
0010
0100
0001
0100
1000
0001
0100
0010
,
1000
0000
1010
0000
0001
0100
0000
0010
,
0001
0010
1000
0010
0000
0000
1001
0000
,
1000
0010
0100
0001
0000
0010
0000
1000
,
0010
0100
1000
0000
0001
0000
0011
0000
,
1100
0000
1000
0010
0000
0100
0010
0100
,
1000
0100
0001
0010
0000
0000
0100
1000
,
0001
1000
0001
0100
0000
0010
0000
0000
,
1000
0100
1000
0100
0010
0100
1000
0000
,
0001
0001
0100
0001
0000
1000
1000
0100
,
0000
1000
1000
1000
0001
0100
0001
0000
,
0010
1100
0011
1100
,
1010
0000
0101
0000
0001
0010
0100
0000
,
1100
0000
1000
0001
0000
0100
0000
0010
,
0001
0010
1000
0100
0010
0000
0011
0000
,
0001
0100
0010
0100
0000
0001
0010
0100
,
0001
0100
1000
0001
0100
0000
0110
0000
,
1010
0000
1000
0001
0000
0010
0100
0001
,
0100
0010
0100
1000
0001
0000
0100
0001
,
0010
0100
1000
0001
0100
0010
1000
0100
,
0010
0000
0001
0100
0010
1000
0001
0010
,
0100
0100
1000
0100
0000
1000
1000
0001
,
0000
0100
0100
0100
0001
0100
0001
0100
,
0010
0010
1000
0010
0000
0100
0100
0001
,
0000
0010
0010
0010
0100
0010
0100
0010
,
0001
0101
1010
1100
,
0101
0011
1100
1010
,
1001
0000
0000
0000
;

//---------------dance-double - ----------------
#NOTEDATA:;
#CHARTNAME:;
#CHARTHASH:300880892;
#STEPSTYPE:dance-double;
#BANNER:;
#DESCRIPTION:;
#CHARTSTYLE:;
#DIFFICULTY:Easy;
#METER:7;
#METERF:0.000000;
#LASTSECONDHINT:77.235184;
#RADARVALUES:0.261628,0.316751,0.138219,0.000000,0.000000,159.000000,147.000000,12.000000,0.000000,0.000000,0.000000,0.000000,0.000000,0.000000,0.261628,0.316751,0.138219,0.000000,0.000000,159.000000,147.000000,12.000000,0.000000,0.000000,0.000000,0.000000,0.000000,0.000000;
#CREDIT:-YOSEFU-;
#NOTES:
00000000
00000000
00000000
00000000
,
00000000
00000000
00000000
00000000
,
00000000
00000000
00000000
00000000
,
00000000
00000000
00000000
00000000
,
10000000
00000000
00000000
00000000
,
00010000
00000000
00000000
00000000
,
01000000
00000000
00000000
00000000
,
00001000
00000000
00000000
00000000
,
00010000
00000000
00000000
00000000
,
00000010
00000000
00000000
00000000
,
00001000
00000000
00000000
00000000
,
00000100
00000010
00000001
00000010
,
00000001
00000010
00000100
00001000
,
00000100
00010000
00000000
00001000
,
01000000
00100000
00000000
10000000
,
01000000
00100000
00000000
00001000
,
00010000
00000010
00000100
00000001
,
00001000
00000100
00000000
00010000
,
00001000
00100000
00000000
00001000
,
01000000
00100000
00000000
10000000
,
00010000
00100000
01000000
10000000
,
00010000
00010000
00000000
00000000
,
01000000
01000000
00000000
00000000
,
00001000
00001000
00000000
00000000
,
00010000
00010000
00000000
00000000
,
00000100
00000100
00000000
00000000
,
00001000
00001000
00000000
00000000
,
00000010
00000010
00000100
00000100
,
00000001
00000001
00000010
00000010
,
00000100
00001000
00000010
00001000
,
00000100
00000010
00000001
00000000
,
00000100
00001000
00010000
00100000
,
01000000
00001000
00000000
10000000
,
01000000
00100000
10000000
00100000
,
00010000
01000000
00001000
00000000
,
00010000
00100000
01000000
00010000
,
10000000
01000000
00100000
00010000
,
00000000
01010000
00000000
10100000
,
00000000
01010000
00000000
00011000
,
00000000
00010000
00000010
00010000
,
00000010
00010000
00000010
00001000
,
00000001
00000010
00000100
00001000
,
00000001
00000100
00001000
00000000
,
00010000
00100000
01000000
00001000
,
00010000
00100000
01000000
00010000
,
00100000
01000000
10000000
00010000
,
01000000
10000000
01000000
00001000
,
00010000
00100000
00010000
00001000
,
00000010
00000001
00000100
00000000
,
00000000
00000110
00000000
00001010
,
00000000
00010100
00000000
00011000
,
00000000
00110000
00000000
01100000
,
00000000
10010000
00000000
01010000
,
00000000
01000000
00001000
01000000
,
00001000
01000000
00001000
00010000
,
00000100
00000000
00000000
00000000
;

//---------------dance-double - ----------------
#NOTEDATA:;
#CHARTNAME:;
#CHARTHASH:2147483647;
#STEPSTYPE:dance-double;
#BANNER:;
#DESCRIPTION:;
#CHARTSTYLE:;
#DIFFICULTY:Medium;
#METER:10;
#METERF:0.000000;
#LASTSECONDHINT:77.235184;
#RADARVALUES:0.370228,0.538477,0.287955,0.000000,0.000000,225.000000,200.000000,25.000000,0.000000,0.000000,0.000000,0.000000,0.000000,0.000000,0.370228,0.538477,0.287955,0.000000,0.000000,225.000000,200.000000,25.000000,0.000000,0.000000,0.000000,0.000000,0.000000,0.000000;
#CREDIT:-YOSEFU-;
#NOTES:
00000000
00000000
00000000
00000000
,
00000000
00000000
00000000
00000000
,
00000000
00000000
00000000
00000000
,
00000000
00000000
00000000
00000000
,
00001000
00000000
00000000
00000000
00000000
00000000
00010000
00001000
,
00000000
00000000
00000000
00000000
,
00100000
00000000
00000000
00000000
00000000
00000000
00010000
01000000
,
00000000
00000000
00000000
00000000
,
00100000
00000000
00000000
00000000
00000000
00000000
10000000
01000000
,
00000000
00000000
00000000
00000000
,
00100000
00000000
00000000
00000000
00000000
00000000
00001000
00010000
,
00000000
00011000
00001100
00011000
,
00001100
00011000
00001100
00000110
,
00000011
00000000
00000001
00000000
00000100
00000000
00000010
00001000
,
00000000
00000100
00010000
00001000
,
00100000
00000000
00001000
00000000
01000000
00000000
00010000
10000000
,
00000000
01000000
00000000
00000000
00100000
01000000
00100000
00000000
,
00010000
00000000
00100000
00000000
00001000
00000000
00010000
00000100
,
00000000
00001000
00000001
00000100
,
00000010
00000000
00001000
00000000
00000100
00000000
00010000
00001000
,
00000000
00100000
00000000
00000000
00010000
10000000
00010000
00000000
,
10000000
10000000
00000000
00000000
00000000
00000000
00000000
01000000
,
00100000
00100000
00000000
00000000
00000000
00000000
00000000
00000000
,
00001000
00001000
00000000
00000000
00000000
00000000
00000000
00010000
,
00000100
00000100
00000000
00000000
00000000
00000000
00000000
00000000
,
00001000
00001000
00000000
00000000
00000000
00000000
00000000
00000010
,
00000100
00000100
00000000
00000000
00000000
00000000
00000000
00000000
,
00000001
00000001
00000000
00000000
00000000
00000000
00000000
00000000
,
00000010
00000010
00000100
00000000
00001000
00001000
00000001
00000000
,
00000100
00000000
00001000
00000000
00010000
00000000
00001000
00010000
,
00000000
00001000
00000000
01000000
00000000
00000000
00100000
00000000
,
10000000
01000000
00100000
00010000
,
00100000
00001000
00010000
00000000
00000000
00000000
00001000
00000000
,
00010000
00000000
00000100
00000000
00001000
00000000
00000010
00000100
,
00000000
00000001
00000000
00001000
00000100
00000000
00000010
00000000
,
00000001
00000100
00001000
00010000
,
00100000
00000000
01000000
00000000
00010000
00010000
10000000
00000000
,
01000000
01000000
00100000
00000000
00000000
00010000
10000000
00000000
,
00000000
00010000
00010000
01000000
00000000
00001000
00100000
00000000
,
00001000
00011000
01100000
11000000
,
01100000
00110000
00011000
00010010
,
00001001
00000000
00000001
00000000
00000100
00001000
00000000
00010000
,
00000000
00100000
00010000
00001000
00000000
00000000
00010000
00000000
,
00001000
00001000
00010000
00000000
00000100
00000000
00001000
00000000
,
00000010
00000010
00000100
00000000
00000001
00000000
00001001
00000000
,
00001000
00000100
00000010
00000001
,
00000100
00001000
00000000
00010000
00000000
00100000
01000000
00000000
,
00010000
00010000
10000000
00000000
01000000
01000000
00100000
00000000
,
00001000
00000000
00010000
00000000
00000010
00000010
00001000
00001000
,
00000001
00000001
00000100
00000000
00000000
00000010
00001000
00000000
,
00000000
00000100
00000100
00001000
00000100
00000000
00010000
00000000
,
00001000
00001000
00100000
00001000
00000000
00010000
00010000
00001000
,
00000000
01000000
01000000
01000000
00010000
01000000
00010000
00000000
,
01000000
10100000
01010000
00011000
,
00001010
00000101
00001010
00011000
,
00101000
00000000
00000000
00000000
;

//---------------dance-double - ----------------
#NOTEDATA:;
#CHARTNAME:;
#CHARTHASH:2147483647;
#STEPSTYPE:dance-double;
#BANNER:;
#DESCRIPTION:;
#CHARTSTYLE:;
#DIFFICULTY:Hard;
#METER:12;
#METERF:0.000000;
#LASTSECONDHINT:77.235184;
#RADARVALUES:0.480474,0.538477,0.322510,0.000000,0.000000,292.000000,264.000000,28.000000,0.000000,0.000000,0.000000,0.000000,0.000000,0.000000,0.480474,0.538477,0.322510,0.000000,0.000000,292.000000,264.000000,28.000000,0.000000,0.000000,0.000000,0.000000,0.000000,0.000000;
#CREDIT:-YOSEFU-;
#NOTES:
00000000
00000000
00000000
00000000
,
00000000
00000000
00000000
00000000
,
00000000
00000000
00000000
00000000
,
00000000
00000000
00000000
00000000
,
00010000
00000000
00000000
00000000
00000000
00001000
00010000
00000100
,
00000000
00000000
00000000
00001000
,
00000010
00000000
00000000
00000000
00000000
00000100
00000001
00000010
,
00000000
00000000
00000000
00000100
,
00010000
00000000
00000000
00000000
00000000
00001000
00010000
00100000
,
00000000
00000000
00000000
01000000
,
00010000
00000000
00000000
00000000
00000000
10000000
01000000
00100000
,
00000000
00110000
00011000
00110000
,
00011000
00000000
00110000
00000000
10000000
00100000
01000000
00010000
,
00100000
00000000
00001000
00000000
00010000
00000100
00010000
00000000
,
00001000
00000000
00010000
00000000
00000010
00001000
00000010
00000000
,
00000100
00000000
00000001
00000000
00000010
00000100
00000010
00000000
,
00000001
00000000
00000100
00000000
00000010
00001000
00000010
00001000
,
00000100
00000000
00010000
00000000
00001000
01000000
00010000
00000000
,
00100000
00000000
01000000
00000000
10000000
00010000
01000000
00000000
,
00001000
00000000
00010000
00000000
00000100
00001000
00000010
00000000
,
00000100
00000001
00000000
00000010
00000100
00000000
00011000
00000000
,
00100000
00100000
00001000
00000000
10000000
00000000
00010000
01000000
,
00100000
00100000
00000000
00000000
10000000
00100000
00000000
00000000
,
01000000
01000000
00001000
00000000
00010000
00000000
00000100
00001000
,
00000010
00000010
00000000
00000000
00000101
00000000
00001001
00000000
,
00001000
00001000
00000100
00000000
00010000
00000000
00001000
01000000
,
00100000
00100000
00010000
00001000
00010000
00000000
00001000
00000000
,
00010000
00010000
00000100
00000000
00001000
00001000
00000010
00000000
,
00000100
00000100
00000001
00000000
00000010
00000100
00010000
00001000
,
00100000
00000000
01000000
00000000
10000000
00010000
00000000
01000000
,
00000000
00100000
00010000
00001000
00000000
00000000
00000010
00000000
,
00000001
00000000
00000100
00001000
00000000
00010000
00000000
00100000
,
01000000
00001000
00011000
01100000
,
11000000
00000000
10000000
00100000
00000000
01000000
10000000
01000000
,
00010000
00100000
01000000
10000000
00000000
00000000
00010000
01000000
,
00001000
00010000
00000100
00000010
00000000
00000001
00000000
00000100
,
00000010
00001000
00000100
00000010
00000001
00000100
00000010
00010000
,
00001000
00001000
00100000
00001000
00000000
00100000
00100000
00010000
,
00000000
01000000
01000000
01000000
00010000
01000000
00010000
00000000
,
10000000
11000000
01010000
00011000
,
00001100
00000101
00000011
00001010
,
00000010
00000000
00000100
00001000
00000000
00010000
00000000
00100000
,
01000000
00010000
10000000
01000000
00000000
00000000
00100000
00000000
,
00010000
01000000
00100000
10000000
00000000
01000000
00010000
00001000
,
00100000
00001000
00010000
00000010
00001000
00000000
00001100
00000000
,
00001001
00000000
00000001
00000100
00000000
00001000
00000100
00001000
,
00010000
00100000
00010000
00001000
00000000
00000000
00010000
00001000
,
00100000
01000000
10000000
00100000
01000000
00010000
10000000
00000000
,
01000000
00000000
00100000
01000000
10000000
00010000
01000000
00001000
,
00010000
00010000
00000100
00010000
00000000
00000100
00000100
00001000
,
00000000
00000001
00000001
00000001
00000100
00000001
00000100
00000001
,
00001000
00001000
00000100
00001000
00000000
00000100
00000100
00010000
,
00000000
00000100
00000100
00000100
00010000
00000100
00010000
00000000
,
00001000
01001000
00010100
01001000
,
00010100
01001000
00010100
00001010
,
00000101
00000000
00000000
00000000
;
