#VERSION:0.83;
#TITLE:Ultimate Senpai;
#SUBTITLE:;
#ARTIST:PinocchioP feat. Hatsune Miku;
#TITLETRANSLIT:;
#SUBTITLETRANSLIT:;
#ARTISTTRANSLIT:;
#GENRE:;
#CREDIT:;
#MUSIC:Ultimate Senpai-audio.ogg;
#BANNER:Ultimate Senpai-banner.png;
#BACKGROUND:Ultimate Senpai-background.png;
#JACKET:Ultimate Senpai-jacket.png;
#DISCIMAGE:;
#CDIMAGE:;
#SELECTABLE:YES;
#LYRICSPATH:;
#CDTITLE:scr-cdtitle.png;
#SAMPLESTART:46.345;
#SAMPLELENGTH:13.241;
#BPMS:0.000=145.000,
351.000=1337.000,
352.000=24.000
;
#STOPS:351.000=0.500;
#WARPS:;
#DELAYS:;
#SPEEDS:0.000=1.000=0.000=0,
15.000=0.000=1.000=0,
16.000=1.000=15.000=0,
95.000=0.500=1.000=0,
96.000=1.000=12.000=0,
176.000=0.750=0.000=0,
176.021=1.000=4.000=0,
180.000=0.750=0.000=0,
180.021=1.000=4.000=0,
184.000=0.750=0.000=0,
184.021=1.000=2.000=0,
186.000=0.750=0.000=0,
186.021=1.000=2.000=0,
188.000=0.750=0.000=0,
188.021=1.000=1.000=0,
189.000=0.750=0.000=0,
189.021=1.000=1.000=0,
190.000=0.750=0.000=0,
190.021=1.000=1.000=0
;
#SCROLLS:0.000=0.750,
32.000=1.000,
96.000=8.000,
96.063=0.000,
97.000=8.000,
97.063=0.000,
98.000=8.000,
98.063=0.000,
99.000=8.000,
99.063=0.000,
100.000=8.000,
100.063=0.000,
101.000=8.000,
101.063=0.000,
102.000=8.000,
102.063=0.000,
103.000=8.000,
103.063=0.000,
104.000=8.000,
104.063=0.000,
105.000=8.000,
105.063=0.000,
106.000=8.000,
106.063=0.000,
107.000=8.000,
107.063=0.000,
108.000=2.000,
108.063=1.750,
108.125=1.500,
108.188=1.250,
108.250=1.000,
108.313=0.750,
108.375=0.500,
108.438=0.250,
108.500=0.000,
108.563=0.250,
108.625=0.500,
108.688=0.750,
108.750=1.000,
108.813=1.250,
108.875=1.500,
108.938=1.750,
109.000=2.000,
109.063=1.750,
109.125=1.500,
109.188=1.250,
109.250=1.000,
109.313=0.750,
109.375=0.500,
109.438=0.250,
109.500=0.000,
109.563=0.250,
109.625=0.500,
109.688=0.750,
109.750=1.000,
109.813=1.250,
109.875=1.500,
109.938=1.750,
110.000=2.000,
110.063=1.750,
110.125=1.500,
110.188=1.250,
110.250=1.000,
110.313=0.750,
110.375=0.500,
110.438=0.250,
110.500=0.000,
110.563=0.250,
110.625=0.500,
110.688=0.750,
110.750=1.000,
110.813=1.250,
110.875=1.500,
110.938=1.750,
111.000=2.000,
111.125=1.600,
111.250=1.200,
111.375=0.400,
111.500=0.000,
111.625=0.250,
111.750=0.500,
111.875=0.750,
112.000=1.000,
172.000=2.000,
172.063=1.750,
172.125=1.500,
172.188=1.250,
172.250=1.000,
172.313=0.750,
172.375=0.500,
172.438=0.250,
172.500=0.000,
172.563=0.250,
172.625=0.500,
172.688=0.750,
172.750=1.000,
172.813=1.250,
172.875=1.500,
172.938=1.750,
173.000=2.000,
173.063=1.750,
173.125=1.500,
173.188=1.250,
173.250=1.000,
173.313=0.750,
173.375=0.500,
173.438=0.250,
173.500=0.000,
173.563=0.250,
173.625=0.500,
173.688=0.750,
173.750=1.000,
173.813=1.250,
173.875=1.500,
173.938=1.750,
174.000=2.000,
174.063=1.750,
174.125=1.500,
174.188=1.250,
174.250=1.000,
174.313=0.750,
174.375=0.500,
174.438=0.250,
174.500=0.000,
174.563=0.250,
174.625=0.500,
174.688=0.750,
174.750=1.000,
174.813=1.250,
174.875=1.500,
174.938=1.750,
175.000=2.000,
175.125=1.600,
175.250=1.200,
175.375=0.400,
175.500=0.000,
175.625=0.250,
175.750=0.500,
175.875=0.750,
176.000=1.000,
264.000=0.500,
268.000=1.000,
271.000=2.000,
271.125=1.600,
271.250=1.200,
271.375=0.400,
271.500=0.000,
271.625=0.250,
271.750=0.500,
271.875=0.750,
272.000=1.000,
324.000=2.000,
324.063=1.750,
324.125=1.500,
324.188=1.250,
324.250=1.000,
324.313=0.750,
324.375=0.500,
324.438=0.250,
324.500=0.000,
324.563=0.250,
324.625=0.500,
324.688=0.750,
324.750=1.000,
324.813=1.250,
324.875=1.500,
324.938=1.750,
325.000=2.000,
325.063=1.750,
325.125=1.500,
325.188=1.250,
325.250=1.000,
325.313=0.750,
325.375=0.500,
325.438=0.250,
325.500=0.000,
325.563=0.250,
325.625=0.500,
325.688=0.750,
325.750=1.000,
325.813=1.250,
325.875=1.500,
325.938=1.750,
326.000=2.000,
326.063=1.750,
326.125=1.500,
326.188=1.250,
326.250=1.000,
326.313=0.750,
326.375=0.500,
326.438=0.250,
326.500=0.000,
326.563=0.250,
326.625=0.500,
326.688=0.750,
326.750=1.000,
326.813=1.250,
326.875=1.500,
326.938=1.750,
327.000=2.000,
327.063=1.750,
327.125=1.500,
327.188=1.250,
327.250=1.000,
327.313=0.750,
327.375=0.500,
327.438=0.250,
327.500=0.000,
327.563=0.250,
327.625=0.500,
327.688=0.750,
327.750=1.000,
327.813=1.250,
327.875=1.500,
327.938=1.750,
328.000=2.000,
328.063=1.750,
328.125=1.500,
328.188=1.250,
328.250=1.000,
328.313=0.750,
328.375=0.500,
328.438=0.250,
328.500=0.000,
328.563=0.250,
328.625=0.500,
328.688=0.750,
328.750=1.000,
328.813=1.250,
328.875=1.500,
328.938=1.750,
329.000=2.000,
329.063=1.750,
329.125=1.500,
329.188=1.250,
329.250=1.000,
329.313=0.750,
329.375=0.500,
329.438=0.250,
329.500=0.000,
329.563=0.250,
329.625=0.500,
329.688=0.750,
329.750=1.000,
329.813=1.250,
329.875=1.500,
329.938=1.750,
330.000=2.000,
330.063=1.750,
330.125=1.500,
330.188=1.250,
330.250=1.000,
330.313=0.750,
330.375=0.500,
330.438=0.250,
330.500=0.000,
330.563=0.250,
330.625=0.500,
330.688=0.750,
330.750=1.000,
330.813=1.250,
330.875=1.500,
330.938=1.750,
331.000=2.000,
331.063=1.750,
331.125=1.500,
331.188=1.250,
331.250=1.000,
331.313=0.750,
331.375=0.500,
331.438=0.250,
331.500=0.000,
331.563=0.250,
331.625=0.500,
331.688=0.750,
331.750=1.000,
331.813=1.250,
331.875=1.500,
331.938=1.750,
332.000=2.000,
332.063=1.750,
332.125=1.500,
332.188=1.250,
332.250=1.000,
332.313=0.750,
332.375=0.500,
332.438=0.250,
332.500=0.000,
332.563=0.250,
332.625=0.500,
332.688=0.750,
332.750=1.000,
332.813=1.250,
332.875=1.500,
332.938=1.750,
333.000=2.000,
333.063=1.750,
333.125=1.500,
333.188=1.250,
333.250=1.000,
333.313=0.750,
333.375=0.500,
333.438=0.250,
333.500=0.000,
333.563=0.250,
333.625=0.500,
333.688=0.750,
333.750=1.000,
333.813=1.250,
333.875=1.500,
333.938=1.750,
334.000=2.000,
334.063=1.750,
334.125=1.500,
334.188=1.250,
334.250=1.000,
334.313=0.750,
334.375=0.500,
334.438=0.250,
334.500=0.000,
334.563=0.250,
334.625=0.500,
334.688=0.750,
334.750=1.000,
334.813=1.250,
334.875=1.500,
334.938=1.750,
335.000=2.000,
335.125=1.600,
335.250=1.200,
335.375=0.400,
335.500=0.000,
335.625=0.250,
335.750=0.500,
335.875=0.750,
336.000=1.000,
350.000=0.000,
350.813=1337.000,
351.000=1.000,
352.000=48.000
;
#TICKCOUNTS:0.000=4;
#TIMESIGNATURES:0.000=4=4;
#LABELS:0.000=Song Start;
#COMBOS:0.000=1;
#FAKES:351.000=1.000;
#BGCHANGES:;
#FGCHANGES:;
#ATTACKS:TIME=145.22:LEN=5:MODS=*1000 4x, *1000 50% stealth, *1000 no reverse: TIME=145.24:LEN=5:MODS=*1 100% stealth, *1000 blind: TIME=144.83:LEN=5:MODS=*3.5 1000% dark
;
#DISPLAYBPM:145.000;
#PREVIEWVID:;

//---------------dance-single - [XMOD] XO, DT----------------
#NOTEDATA:;
#CHARTNAME:sweet n sour;
#CHARTSTYLE:;
#CREDIT:Scrypts;
#STEPSTYPE:dance-single;
#DESCRIPTION:[XMOD] XO, DT-;
#DIFFICULTY:Medium;
#METER:12;
#METERF:12;
#RADARVALUES:0,0,0,0,0;
#NOTES:
// measure 0
0000
0000
0000
0000
,  // measure 1
0000
0000
0000
0000
,  // measure 2
0000
0000
0000
0000
,  // measure 3
0000
0000
0000
0000
,  // measure 4
0000
0000
0000
0000
,  // measure 5
0000
0000
0000
0000
,  // measure 6
0000
0000
0000
0000
,  // measure 7
0000
0000
0000
0000
,  // measure 8
1000
0000
0100
0000
0010
0000
0100
2000
0000
0000
3000
0000
0001
0000
0100
0000
,  // measure 9
0010
0100
0001
1000
0200
0000
0320
0000
,  // measure 10
0031
0000
1000
0000
0010
0000
1000
0200
0000
0000
0300
0000
0010
0000
0001
0000
,  // measure 11
1000
0001
0100
0010
2000
0000
3002
0000
,  // measure 12
0013
0000
0100
0000
1000
0000
0001
0100
0000
0000
0000
0000
0001
0000
0010
0000
,  // measure 13
0100
1000
0001
1000
0020
0000
0230
0000
,  // measure 14
0301
0010
0100
1000
0001
0100
0010
1000
,  // measure 15
0100
0000
0000
0000
0110
0000
0000
0000
1100
0000
0000
1000
0002
0000
0000
0000
,  // measure 16
1003
0000
0010
0000
0100
0000
0001
0020
0000
0000
0030
0000
0100
0000
1000
0001
,  // measure 17
1000
0010
0100
0001
0020
0000
0230
0000
,  // measure 18
1300
0001
1000
0000
0100
0000
1000
0010
0000
0000
0000
0000
0100
0000
0001
0000
,  // measure 19
1000
0001
0010
0100
2000
0000
3020
0000
,  // measure 20
0130
0000
0001
0000
1000
0000
0001
0020
0000
0000
0030
0000
0100
0000
0010
0000
,  // measure 21
0001
1000
0010
1000
0002
0000
0023
0000
,  // measure 22
0130
1000
0010
1000
0100
0010
0001
0010
,  // measure 23
0100
0000
0000
0000
1100
0000
0000
0000
1001
0000
0000
0001
2000
0000
0000
0000
,  // measure 24
3001
0001
0010
0010
,  // measure 25
0100
0100
1000
1000
,  // measure 26
0010
0010
0100
0100
,  // measure 27
0101
1100
0102
0003
,  // measure 28
1000
0010
0100
0001
0020
0000
0031
0000
,  // measure 29
1000
0010
0100
0001
0020
0000
0031
0000
,  // measure 30
1000
0100
0010
0100
0001
0100
0010
0100
,  // measure 31
1000
0010
0100
0001
0020
0001
0031
0000
,  // measure 32
0001
0010
0100
1000
0020
0000
1030
0000
,  // measure 33
0001
0100
0010
1000
0200
0010
0310
0000
,  // measure 34
0002
0000
0000
2003
0000
0000
3010
0000
0100
0000
0001
0000
1000
0000
0100
0000
,  // measure 35
0002
0000
0103
0010
0002
0000
1003
0010
,  // measure 36
0100
0001
1000
0100
0020
0000
0031
1000
,  // measure 37
0100
1000
0001
0100
0020
0000
1030
0001
,  // measure 38
0100
0001
1000
0100
0020
0000
0130
1000
,  // measure 39
0010
1000
0001
0010
0100
1000
1001
0000
,  // measure 40
0001
0010
0100
1000
0010
0000
1000
0001
,  // measure 41
1000
0100
0010
0001
0200
0010
0310
0000
,  // measure 42
1000
0010
0100
0001
0010
0100
1000
0001
,  // measure 43
0011
1010
0101
1100
,  // measure 44
1002
0000
0003
0000
,  // measure 45
2001
0000
0000
0000
3000
0000
0000
0001
,  // measure 46
0010
0000
0100
1000
0010
0000
0100
0001
,  // measure 47
0010
0000
1000
0000
0010
0000
0001
0000
0010
0000
0100
1000
0002
0000
0000
0000
,  // measure 48
1003
0100
0010
0001
,  // measure 49
1000
0010
0100
0001
0010
0100
1000
0001
,  // measure 50
1000
0010
0100
0001
,  // measure 51
1000
0100
0010
0001
0100
0010
1000
0001
,  // measure 52
1000
0100
0001
0100
,  // measure 53
1000
0001
0010
0001
1000
0010
0100
0001
,  // measure 54
0010
1000
0010
0001
,  // measure 55
0101
0000
0000
0000
1100
0000
0000
0000
1001
0000
0000
0000
1000
0001
1000
0001
,  // measure 56
2000
0000
0000
0000
3020
0000
0000
0000
1030
0000
0001
1000
0000
0000
0100
0000
,  // measure 57
1000
0000
0100
0000
0010
0000
0100
0000
1000
0000
0001
1000
0000
0000
0000
0000
,  // measure 58
0001
0000
0100
0000
0010
0000
0100
0000
0001
0000
1000
0001
0000
0000
1000
0000
,  // measure 59
0100
0000
0010
0000
0100
0000
1000
0000
0010
0000
0100
0001
0000
0000
0000
0000
,  // measure 60
0002
0000
0000
0000
0023
0000
0000
0000
0130
0000
1000
0001
0000
0000
0100
0000
,  // measure 61
0001
0000
0100
0000
0010
0000
0100
0000
0001
0000
1000
0001
0000
0000
0000
0000
,  // measure 62
1000
0100
0001
0100
1000
0000
1001
0000
,  // measure 63
0001
0100
1000
0100
0001
0000
1001
0000
,  // measure 64
1000
0100
0010
1000
0010
0100
1000
0000
,  // measure 65
0001
0100
0010
0001
0010
0100
0001
0000
,  // measure 66
2000
0000
0000
0000
,  // measure 67
3001
0000
0000
0001
0000
0000
1000
0000
2002
0000
0000
0000
3003
0000
0000
0000
,  // measure 68
0001
0100
0010
0100
1000
0100
0010
0100
,  // measure 69
0001
0010
0100
1000
0020
1000
1030
0000
,  // measure 70
0001
0010
0100
1000
0020
0000
1030
0000
,  // measure 71
0001
0100
0010
1000
0200
0010
0310
0000
,  // measure 72
0001
0000
0000
0001
0000
0000
0010
0000
0100
0000
1000
0000
0001
0000
0100
0000
,  // measure 73
2000
0000
3100
0010
2000
0000
3010
0100
,  // measure 74
0001
0010
0100
1000
0001
0100
0010
1000
,  // measure 75
0001
0010
0100
1000
0001
0100
0010
1000
,  // measure 76
0001
0010
0100
1000
0010
1000
0100
0010
,  // measure 77
0001
0100
0010
1000
0200
0010
0310
0000
,  // measure 78
0001
0010
0100
1000
0010
0000
1000
0001
,  // measure 79
1000
0100
0010
0001
0200
0010
0310
0000
,  // measure 80
1000
0100
1000
0001
0100
0010
1000
0001
,  // measure 81
0011
1010
0101
1100
,  // measure 82
0011
1010
0101
1100
,  // measure 83
0011
1010
0101
1100
,  // measure 84
0002
1000
2003
0001
,  // measure 85
3002
1000
2003
0001
,  // measure 86
3001
0000
0000
0000
0010
0000
0000
0000
0100
0000
0000
1000
0000
0000
0001
0000
,  // measure 87
0000
0000
0000
0000
0000
0000
0000
0000
0000
0000
0000
0000
0000
0000
0000
0000
0000
0000
0000
0000
0000
0000
0000
0000
1000
0000
0000
0000
0000
0000
0000
0000
0000
0000
0000
0000
0000
0000
0000
0000
0000
0000
0000
0000
0000
0000
0000
0000
0010
0000
0000
0000
0000
0000
0000
0000
0000
0000
0000
0000
0000
0000
0000
0000
0000
0000
0000
0000
0000
0000
0000
0000
0100
0000
0000
0000
0000
0000
0000
0000
0000
0000
0000
0000
0000
0000
0000
0000
0000
0000
0000
0000
0000
0000
0000
0000
0002
0000
0000
0000
0000
0000
0000
0000
0000
0000
0000
0000
0000
0000
0000
0000
0000
0000
0000
0000
0000
0000
0000
0000
0000
0000
0000
0000
0000
0000
0000
0000
0000
0000
0000
0000
0000
0000
0000
0000
0000
0000
0000
0000
0000
0000
0000
0003
0000
0000
0000
0000
0000
0000
0MM0
0000
0000
0000
0000
0000
M00M
0000
0000
0000
0000
0000
M00M
0000
0000
0000
0000
0000
MMMM
0000
0000
0000
0000
0000
M00M
0000
0000
0000
0000
0000
M00M
0000
0000
0000
0000
0000
0000
0000
0000
0000
0000
0000
;

//---------------dance-single - [XMOD] XO, DS-, RH----------------
#NOTEDATA:;
#CHARTNAME:stronk;
#CHARTSTYLE:;
#CREDIT:Scrypts;
#STEPSTYPE:dance-single;
#DESCRIPTION:[XMOD] XO, DS-, RH-;
#DIFFICULTY:Hard;
#METER:14;
#METERF:14;
#RADARVALUES:0.572724,0.621099,0.235432,0.383418,0.346421,596,561,35,57,0,0,0,0,14,0.572724,0.621099,0.235432,0.383418,0.346421,596,561,35,57,0,0,0,0,14;
#ATTACKS:TIME=145.220:LEN=5.000:MODS=*1000 4x, *1000 50% stealth, *1000 no reverse :TIME=145.240:LEN=5.000:MODS=*1 100% stealth
;
#DISPLAYBPM:145.000;
#NOTES:
// measure 0
0000
0000
0000
0000
,  // measure 1
0000
0000
0000
0000
,  // measure 2
0000
0000
0000
0000
,  // measure 3
0000
0000
0000
0000
,  // measure 4
0000
0000
0000
0000
,  // measure 5
0000
0000
0000
0000
,  // measure 6
0000
0000
0000
0000
,  // measure 7
0000
0000
0000
0000
,  // measure 8
1000
0000
0001
0100
0001
0000
1000
0100
0000
0000
0000
0000
1000
0010
0000
0010
,  // measure 9
1000
0001
0010
0100
2000
3001
2000
3001
,  // measure 10
0100
0000
0001
0010
0001
0000
1000
0010
0000
0000
0000
0000
0100
0000
0001
1000
,  // measure 11
0001
0010
0100
1000
0002
1003
0002
1003
,  // measure 12
0001
0000
0100
0000
1000
0000
0100
0010
0000
0000
0000
0000
1000
0000
0001
1000
,  // measure 13
0001
0010
0100
1000
0002
1003
0002
1003
,  // measure 14
0100
0010
1000
0010
0001
0100
1000
0100
,  // measure 15
0001
0000
0000
0000
1100
0000
0000
0000
1001
0000
0000
0001
0020
0000
0030
0000
,  // measure 16
0100
0000
1000
0000
0001
0000
1000
0010
0000
0000
0000
0000
1000
0000
0001
0010
,  // measure 17
0001
1000
0010
0100
0002
1003
0002
1003
,  // measure 18
0010
0100
0010
0000
1000
0000
0001
0100
0000
0000
0000
0000
0001
0000
1000
0100
,  // measure 19
1000
0010
0100
0001
2000
3001
2000
3001
,  // measure 20
1000
0000
0010
0100
0001
0000
0100
0010
0000
0000
0000
0000
1000
0000
0010
0100
,  // measure 21
0010
1000
0001
0010
0002
1003
0002
1003
,  // measure 22
0010
0100
1000
0100
0001
0010
1000
0010
,  // measure 23
0001
0000
0000
0000
0101
0000
0000
0000
1001
0000
0000
1000
0020
0000
0000
0000
,  // measure 24
1030
1000
0100
0100
,  // measure 25
0010
0010
0001
0001
,  // measure 26
0100
0100
0010
0010
,  // measure 27
1100
0101
2002
3003
,  // measure 28
1000
0000
0001
0100
0000
0100
0010
0000
2000
0000
0000
0000
3001
0000
0000
0000
,  // measure 29
1000
0000
0100
0010
0000
0010
0001
0000
2000
0000
0000
0000
3001
0000
0000
0000
,  // measure 30
0100
0010
0000
0010
0100
0000
0001
0000
1000
0000
0100
0000
0010
0000
0001
0000
,  // measure 31
1000
0000
0001
0100
0000
0100
0010
0000
2000
0000
0001
0000
3001
0000
0000
0000
,  // measure 32
0001
0000
0010
0100
0000
0100
1000
0000
0002
0000
0000
0000
1003
0000
0000
0000
,  // measure 33
0001
0000
0100
0010
0000
0010
1000
0000
0002
0000
0010
0000
0013
0000
0000
0000
,  // measure 34
0100
0000
0000
1000
0000
0000
0010
0000
0100
0000
0001
0000
1000
0000
0100
0000
,  // measure 35
0002
0000
0103
0010
0002
0000
1003
0010
,  // measure 36
1000
0001
0010
0001
0200
0000
0310
1000
,  // measure 37
0001
0010
0001
1000
0020
0000
0130
0001
,  // measure 38
1000
0100
1000
0001
0200
0000
0310
1000
,  // measure 39
0001
0010
0001
1000
0020
0130
0110
0000
,  // measure 40
0001
0000
0010
0100
0000
0100
1000
0000
0010
0000
0000
0000
1000
0000
0100
0000
,  // measure 41
0010
0000
0001
0100
0010
0000
1000
0000
0002
0000
1003
0000
1001
0000
0000
0000
,  // measure 42
0001
0010
0001
0000
1000
0010
1000
0000
0001
0100
0001
0000
1000
0000
0100
0000
,  // measure 43
0010
0011
1001
0101
,  // measure 44
2001
0000
3000
0000
,  // measure 45
0102
0000
0000
0000
0003
0000
0000
1000
,  // measure 46
1010
0000
0000
0001
0011
0000
0000
2000
,  // measure 47
0010
0000
3002
0000
0010
0000
2003
0000
0010
0000
3001
1000
0001
0000
0000
0000
,  // measure 48
1000
0000
0010
0000
1000
0000
0000
0100
0000
0010
0000
0100
0000
1000
0001
0000
,  // measure 49
1000
0000
0010
0000
0100
0001
0000
0001
0010
0000
0100
1000
0000
1000
0001
1000
,  // measure 50
0001
0000
0010
0000
0001
0000
0000
0100
0000
0010
0000
0100
0000
0001
1000
0000
,  // measure 51
0100
0000
0010
0000
0001
1000
0000
1000
0010
0000
0010
0100
0000
0001
1000
0001
,  // measure 52
1000
0000
0100
0000
1000
0000
0000
0010
0000
0100
0000
0010
0000
1000
0001
0000
,  // measure 53
0010
0000
0100
0000
1000
0010
0000
0010
0100
0000
0100
0001
0000
1000
0001
1000
,  // measure 54
0001
0000
0100
0000
0001
0000
0000
0010
0000
0100
0000
0010
0000
0001
1000
0000
,  // measure 55
1100
0000
0101
0000
1001
0000
2000
3002
,  // measure 56
0203
0000
0000
0000
0320
0000
0000
0000
1030
0000
0001
0010
0000
0000
0001
0000
,  // measure 57
0100
0000
0001
0000
1000
0000
0001
0000
0010
0000
0100
1000
0002
0000
2003
0000
,  // measure 58
3100
0000
0100
0000
0010
0000
0010
0000
0001
0000
1000
0001
0000
0000
1000
0000
,  // measure 59
0010
0000
1000
0000
0001
0000
1000
0000
0100
0000
0010
0001
2000
0000
3002
0000
,  // measure 60
0203
0000
0000
0000
0320
0000
0000
0000
1030
0000
0001
0100
0000
0000
0001
0000
,  // measure 61
0010
0000
0001
0000
1000
0000
0001
0000
0100
0000
0010
1000
0000
0000
0000
0000
,  // measure 62
0001
0010
0100
1000
0010
0100
0001
0001
,  // measure 63
1000
0100
0010
0001
0100
0010
1000
1000
,  // measure 64
0001
0000
0010
0000
1000
0000
0010
0000
0001
1000
0001
1000
0001
0000
0000
0000
,  // measure 65
1000
0000
0010
0000
0001
0000
0010
0000
1000
0001
1000
0001
1000
0000
0000
0000
,  // measure 66
0200
0000
0320
0030
,  // measure 67
0011
0000
0000
0001
0000
0000
1000
0000
2001
0000
0000
3001
1000
0000
0000
0000
,  // measure 68
0100
0010
0000
0010
0100
0000
1000
0000
0001
0000
0100
0000
0010
0000
1000
0000
,  // measure 69
0001
0000
1000
0100
0000
0100
0010
0000
0002
0000
1000
0000
1003
0000
0000
0000
,  // measure 70
1000
0000
0010
0100
0000
0100
0001
0000
2000
0000
0000
0000
3001
0000
0000
0000
,  // measure 71
1000
0000
0100
0010
0000
0010
0001
0000
2000
0000
0010
0000
3010
0000
0000
0000
,  // measure 72
0100
0000
0000
0001
0000
0000
0010
0000
0100
0000
1000
0000
0001
0000
0100
0000
,  // measure 73
2000
0000
3100
0010
2000
0000
3001
0010
,  // measure 74
0001
0100
0010
1000
0100
1000
0010
0100
,  // measure 75
0001
0010
0100
1000
0010
1000
0100
0010
,  // measure 76
0001
1000
0100
0010
0001
0100
0001
1000
,  // measure 77
0010
0100
0001
0010
0001
0100
0101
0000
,  // measure 78
0001
0000
0010
0100
0000
0100
1000
0000
0010
0000
0000
0000
0100
0000
0001
0000
,  // measure 79
1000
0000
0100
0010
0001
0000
0100
0000
0001
0000
1000
0000
1001
0000
0000
0000
,  // measure 80
0001
0000
1000
0000
0100
0010
0100
0000
1000
0001
0000
0200
0000
0000
0301
0000
,  // measure 81
0011
1010
0101
1100
,  // measure 82
0011
1010
0101
1100
,  // measure 83
0011
1010
0101
1100
,  // measure 84
0002
0100
2003
0100
,  // measure 85
3002
0010
2003
0010
,  // measure 86
3001
0000
0000
0000
1000
0000
0000
0000
0100
0000
0000
0010
0000
0000
0001
0000
,  // measure 87
0000
0000
0000
0000
0000
0000
0000
0000
1000
0000
0000
0000
0000
0000
0000
0000
0010
0000
0000
0000
0000
0000
0000
0000
0100
0000
0000
0000
0000
0000
0000
0000
0002
0000
0000
0000
0000
0000
0000
0000
0000
0000
0000
0000
0000
0000
0000
0003
0000
0000
0MM0
0000
M00M
0000
M00M
0000
MMMM
0000
M00M
0000
M00M
0000
0000
0000
;

//---------------dance-single - [XMOD] DS+, FS, XO---------------
#NOTEDATA:;
#CHARTNAME:where's my samurai?;
#CHARTSTYLE:;
#CREDIT:Scrypts;
#STEPSTYPE:dance-single;
#DESCRIPTION:[XMOD] DS+, FS, XO;
#DIFFICULTY:Challenge;
#METER:16;
#METERF:16;
#RADARVALUES:0.685155,0.739403,0.282518,0.591943,0.615486,713,671,42,88,0,0,0,0,14,0.685155,0.739403,0.282518,0.591943,0.615486,713,671,42,88,0,0,0,0,14;
#ATTACKS:TIME=145.220:LEN=5.000:MODS=*1000 4x, *1000 50% stealth, *1000 no reverse :TIME=145.240:LEN=5.000:MODS=*1 100% stealth
;
#DISPLAYBPM:145.000;
#NOTES:
// measure 0
0000
0000
0000
0000
,  // measure 1
0000
0000
0000
0000
,  // measure 2
0000
0000
0000
0000
,  // measure 3
0000
0000
0000
0000
,  // measure 4
0000
0000
0000
0000
,  // measure 5
0000
0000
0000
0000
,  // measure 6
0000
0000
0000
0000
,  // measure 7
0000
0000
0000
0000
,  // measure 8
1000
0000
0001
0100
0010
0000
1000
0100
0000
0000
0000
0000
0010
0001
1000
0001
,  // measure 9
0100
0010
1000
0001
2000
0100
3002
0100
,  // measure 10
1003
0000
0100
0010
0001
0000
1000
0100
0000
0000
0000
0000
1000
0000
0010
0100
,  // measure 11
0001
1000
0100
0010
0002
0010
2003
0010
,  // measure 12
3001
0100
0001
0100
0010
1000
0010
0100
0000
0000
0000
0000
0001
1000
0100
1000
,  // measure 13
0001
0010
0100
1000
0002
0100
2003
0100
,  // measure 14
3001
0000
0100
0000
0010
0000
0100
0001
1000
0000
0100
0000
0010
0000
0001
0000
,  // measure 15
1000
0010
0100
0010
1000
0001
0010
0000
0100
0000
0010
0001
2000
0000
3000
0000
,  // measure 16
0010
0000
0100
0000
0001
0000
1000
0100
0000
0000
0000
0000
0010
0000
0001
1000
,  // measure 17
0010
0100
0001
1000
0200
0010
2300
0010
,  // measure 18
3001
0010
0100
0000
1000
0000
0010
0100
0000
0000
0000
0000
0001
0000
1000
0100
,  // measure 19
0010
0001
1000
0001
0200
0010
0302
0010
,  // measure 20
1003
0000
0010
0100
0001
0100
0010
1000
0000
0000
0000
0000
0100
0000
0010
0001
,  // measure 21
1000
0010
0100
0001
2000
0100
3002
0100
,  // measure 22
1003
0000
0100
0010
0001
0000
0100
0010
1000
0000
0010
0000
0100
0000
0001
0000
,  // measure 23
0010
0100
1000
0100
0010
0001
0100
0000
0010
0000
0100
0001
2000
0000
3000
0000
,  // measure 24
0001
0001
0100
0100
,  // measure 25
0010
0010
1000
1000
,  // measure 26
0100
0010
0001
1000
,  // measure 27
1001
0110
1002
1003
,  // measure 28
0001
0000
0000
0000
0100
0000
0000
0000
0010
0000
0000
0000
0200
0300
0000
0000
0000
0000
0000
0000
0200
0300
0000
0000
2000
0000
0000
0000
0000
0000
0000
0000
0010
0000
0000
0000
0000
0000
0000
0000
0000
0000
0000
0000
0000
0000
0000
0000
3001
0000
0000
0000
0000
0000
0000
0000
0000
0000
0000
0000
0000
0000
0000
0000
,  // measure 29
1000
0000
0000
0000
0100
0000
0000
0000
0010
0000
0000
0000
0200
0300
0000
0000
0000
0000
0000
0000
0200
0300
0000
0000
0002
0000
0000
0000
0000
0000
0000
0000
0010
0000
0000
0000
0000
0000
0000
0000
0000
0000
0000
0000
0000
0000
0000
0000
1003
0000
0000
0000
0000
0000
0000
0000
0000
0000
0000
0000
0000
0000
0000
0000
,  // measure 30
0001
1000
0000
1000
0001
0010
0100
0000
0001
0000
0100
0000
1000
0000
0001
0000
,  // measure 31
1000
0000
0000
0000
0100
0000
0000
0000
0010
0000
0000
0000
0200
0300
0000
0000
0000
0000
0000
0000
0200
0300
0000
0000
0002
0000
0000
0000
0000
0000
0000
0000
0013
0000
0000
0000
0000
0000
0000
0000
0001
0000
0000
0000
0000
0000
0000
0000
0011
0000
0000
0000
0000
0000
0000
0000
0000
0000
0000
0000
0000
0000
0000
0000
,  // measure 32
0001
0000
0000
0000
0100
0000
0000
0000
0010
0000
0000
0000
0200
0300
0000
0000
0000
0000
0000
0000
0200
0300
0000
0000
2000
0000
0000
0000
0000
0000
0000
0000
0010
0000
0000
0000
0000
0000
0000
0000
0000
0000
0000
0000
0000
0000
0000
0000
3001
0000
0000
0000
0000
0000
0000
0000
0000
0000
0000
0000
0000
0000
0000
0000
,  // measure 33
1000
0000
0000
0000
0010
0000
0000
0000
0100
0000
0000
0000
0020
0030
0000
0000
0000
0000
0000
0000
0020
0030
0000
0000
0002
0000
0000
0000
0000
0000
0000
0000
2003
0000
0000
0000
0000
0000
0000
0000
3100
0000
0000
0000
0000
0000
0000
0000
1100
0000
0000
0000
0000
0000
0000
0000
0000
0000
0000
0000
0000
0000
0000
0000
,  // measure 34
1001
0000
0001
0200
0000
0000
0301
0000
0010
0000
0100
0000
1000
0000
0010
0000
,  // measure 35
0001
0000
0010
0100
0001
1000
0100
0000
0001
0000
0100
1000
0002
0000
0100
0000
,  // measure 36
1003
0100
0020
0000
0001
0000
0130
0000
2000
0000
0000
0000
3010
0000
1000
0000
,  // measure 37
0001
0100
0010
1000
0002
0000
0100
0000
2003
0000
0000
0000
3010
0000
1000
0000
,  // measure 38
0001
0010
0200
0000
1000
0000
0310
0000
0002
0000
0000
0000
1003
0000
0010
0000
,  // measure 39
0001
0000
0010
0100
0001
0000
1000
0000
0002
0000
0013
0000
0011
0000
0001
1000
,  // measure 40
0001
0000
0000
0000
0100
0000
0000
0000
0010
0000
0000
0000
0200
0300
0000
0000
0000
0000
0000
0000
0200
0300
0000
0000
2000
0000
0000
0000
0000
0000
0000
0000
0010
0000
0000
0000
0000
0000
0000
0000
0000
0000
0000
0000
0000
0000
0000
0000
3001
0000
0000
0000
0000
0000
0000
0000
1000
0000
0000
0000
0000
0000
0000
0000
,  // measure 41
0001
0000
0000
0000
0010
0000
0000
0000
0100
0000
0000
0000
0020
0030
0000
0000
0000
0000
0000
0000
0020
0030
0000
0000
2000
0000
0000
0000
0000
0000
0000
0000
3010
0000
0000
0000
0000
0000
0000
0000
1000
0000
0000
0000
0000
0000
0000
0000
1010
0000
0000
0000
0000
0000
0000
0000
0000
0000
0000
0000
0000
0000
0000
0000
,  // measure 42
1000
0000
0010
0000
0100
0000
0001
0000
0100
0000
0010
0000
1000
0000
0001
0000
1000
0000
0200
0300
0010
0000
0000
0000
0001
0000
0000
0000
0100
0000
0010
0000
,  // measure 43
1000
1010
0011
1100
,  // measure 44
1002
0000
0000
0000
1000
0000
0000
0000
0100
0000
0000
0103
0000
0000
0010
0000
,  // measure 45
2001
0000
0001
0000
0100
0000
0100
0000
3001
0000
0000
0001
0100
0000
0010
0000
,  // measure 46
0110
0000
1000
0100
0110
0000
0001
0100
,  // measure 47
0110
0000
1000
0100
0010
0000
0001
0100
0010
0000
0010
1000
0200
0000
0300
0000
,  // measure 48
1000
0000
1000
0000
0010
0100
0000
0001
0000
0001
0000
0100
0000
0010
1000
0000
,  // measure 49
0001
0010
0001
0000
1000
0010
0000
0010
0100
0001
0010
0100
0000
0100
1000
0001
,  // measure 50
1000
0000
1000
0000
0100
0010
0000
0001
0000
0001
0000
0010
0000
0100
1000
0000
,  // measure 51
0001
0100
0001
0000
1000
0100
0000
0100
1000
0001
0100
0010
0000
1000
0010
0100
,  // measure 52
0001
0000
0001
0000
0100
0010
0000
1000
0000
1000
0000
0100
0000
0010
0001
0000
,  // measure 53
1000
0010
1000
0000
0001
0010
0000
0010
0100
1000
0001
0100
0000
1000
0100
0010
,  // measure 54
1000
0000
1000
0000
0100
0010
0000
0001
0000
0001
0000
0100
0000
0010
1000
0000
,  // measure 55
0011
0000
0000
0000
1010
0000
0000
0000
0101
0000
0000
0000
1000
0100
1000
0100
,  // measure 56
0020
0000
0030
0000
0021
0000
0000
0000
0031
0000
1000
0010
0000
0000
0100
0000
,  // measure 57
0001
0000
0010
0000
0100
0000
1000
0000
0001
0000
0100
0010
2000
0000
0100
0000
,  // measure 58
3001
0000
0010
0000
0100
0000
0010
0000
0001
0000
1000
0010
0000
0000
0100
0000
,  // measure 59
0001
1000
0100
0000
1000
0000
0001
0000
0010
0000
0001
0100
0002
0000
2003
0000
,  // measure 60
3020
0000
0030
0000
1020
0000
0000
0000
1030
0000
0001
0010
0000
0000
0100
0000
,  // measure 61
1000
0000
0001
0000
0100
0000
0010
0000
1000
0000
0010
0100
0002
0000
0010
0000
,  // measure 62
1003
0000
0100
0000
0001
0000
0100
0000
1000
0000
0010
0100
0002
0000
0100
0000
,  // measure 63
1003
0100
0001
0100
1000
0001
2000
0010
,  // measure 64
3001
0000
0100
0000
1000
0000
0100
0000
0001
1000
0100
1000
0001
0000
0000
0000
,  // measure 65
1000
0000
0010
0000
0001
0000
0010
0000
1000
0001
0010
0001
0000
0000
0000
0000
,  // measure 66
1000
0010
0100
0010
0000
1000
0100
0000
0020
0000
0000
0000
0030
0000
0000
0000
,  // measure 67
0011
0000
0000
1001
0000
0000
1010
0000
0110
0000
0100
0001
2000
0000
3000
0000
,  // measure 68
1000
0001
0000
0001
1000
0100
0010
0000
1000
0000
0010
0000
0001
0000
1000
0000
,  // measure 69
0001
0000
0000
0000
0100
0000
0000
0000
0010
0000
0000
0000
0200
0300
0000
0000
0000
0000
0000
0000
0200
0300
0000
0000
2000
0000
0000
0000
0000
0000
0000
0000
3010
0000
0000
0000
0000
0000
0000
0000
1000
0000
0000
0000
0000
0000
0000
0000
1010
0000
0000
0000
0000
0000
0000
0000
0000
0000
0000
0000
0000
0000
0000
0000
,  // measure 70
1000
0000
0000
0000
0100
0000
0000
0000
0010
0000
0000
0000
0200
0300
0000
0000
0000
0000
0000
0000
0200
0300
0000
0000
0002
0000
0000
0000
0000
0000
0000
0000
0010
0000
0000
0000
0000
0000
0000
0000
0000
0000
0000
0000
0000
0000
0000
0000
1003
0000
0000
0000
0000
0000
0000
0000
0000
0000
0000
0000
0000
0000
0000
0000
,  // measure 71
0001
0000
0000
0000
0010
0000
0000
0000
0100
0000
0000
0000
0020
0030
0000
0000
0000
0000
0000
0000
0020
0030
0000
0000
2000
0000
0000
0000
0000
0000
0000
0000
3002
0000
0000
0000
0000
0000
0000
0000
0103
0000
0000
0000
0000
0000
0000
0000
0101
0000
0000
0000
0000
0000
0000
0000
0000
0000
0000
0000
0000
0000
0000
0000
,  // measure 72
1001
0000
1000
0200
0000
0000
1300
0000
0010
0000
0100
0000
0001
0000
0010
0000
,  // measure 73
1000
0000
0010
0100
1000
0001
0100
0000
1000
0000
0100
0001
2000
0000
0100
0000
,  // measure 74
3001
0000
0100
0001
0010
0000
0100
0000
2001
0000
0100
0000
0010
0000
3100
0000
,  // measure 75
1000
0001
0100
0001
0010
0000
0100
0000
1002
0000
0100
0000
0010
0000
0100
0000
,  // measure 76
1003
0000
0010
1000
0100
0000
0010
0002
1000
0000
0010
0000
0100
0000
0010
0000
,  // measure 77
1003
0000
0010
0100
0001
1000
0100
2000
0001
0000
0010
0000
3100
1000
0100
1000
,  // measure 78
0001
0000
0000
0000
0100
0000
0000
0000
0010
0000
0000
0000
0200
0300
0000
0000
0000
0000
0000
0000
0200
0300
0000
0000
2000
0000
0000
0000
0000
0000
0000
0000
0010
0000
0000
0000
0000
0000
0000
0000
0000
0000
0000
0000
0000
0000
0000
0000
3001
0000
0000
0000
0000
0000
0000
0000
1000
0000
0000
0000
0000
0000
0000
0000
,  // measure 79
0001
0000
0000
0000
0010
0000
0000
0000
0100
0000
0000
0000
0020
0030
0000
0000
0000
0000
0000
0000
0020
0030
0000
0000
1000
0000
0000
0000
0000
0000
0000
0000
0001
0000
0000
0000
0000
0000
0000
0000
0010
0000
0000
0000
0000
0000
0000
0000
0011
0000
0000
0000
0000
0000
0000
0000
0000
0000
0000
0000
0000
0000
0000
0000
,  // measure 80
0001
0000
0010
0100
1000
0100
0010
0001
0100
0010
1000
0010
0100
0000
0100
0001
,  // measure 81
0010
1010
0101
1100
,  // measure 82
0011
1010
0101
1100
,  // measure 83
0011
1010
0101
1100
,  // measure 84
0002
0100
2003
0100
,  // measure 85
3002
0010
2003
0010
,  // measure 86
3001
0000
0000
0000
1000
0000
0000
0000
0100
0010
0000
0100
0000
0000
1000
0000
,  // measure 87
0000
0000
0000
0000
0000
0000
0000
0000
0001
0000
0000
0000
0000
0000
0000
0000
0100
0000
0000
0000
0000
0000
0000
0000
0010
0000
0000
0000
0000
0000
0000
0000
0200
0000
0000
0000
0000
0000
0000
0000
0000
0000
0000
0000
0000
0000
0000
0300
0000
0000
0MM0
0000
M00M
0000
M00M
0000
MMMM
0000
M00M
0000
M00M
0000
0000
0000
;

//---------------dance-double - [XMOD] DS+, FS, XO---------------
#NOTEDATA:;
#CHARTNAME:oh no scrypts doubles;
#CHARTSTYLE:;
#CREDIT:Scrypts;
#STEPSTYPE:dance-double;
#DESCRIPTION:[XMOD] DS+, FS, XO;
#DIFFICULTY:Challenge;
#METER:16;
#METERF:16;
#RADARVALUES:0,0,0,0,0;
#NOTES:
// measure 0
00000000
00000000
00000000
00000000
,  // measure 1
00000000
00000000
00000000
00000000
,  // measure 2
00000000
00000000
00000000
00000000
,  // measure 3
00000000
00000000
00000000
00000000
,  // measure 4
00000000
00000000
00000000
00000000
,  // measure 5
00000000
00000000
00000000
00000000
,  // measure 6
00000000
00000000
00000000
00000000
,  // measure 7
00000000
00000000
00000000
00000000
,  // measure 8
00010000
00000000
00001000
00010000
00000100
00000000
00000010
00000200
00000000
00000000
00000300
00000000
00000010
00000001
00000100
00000010
,  // measure 9
00001000
00000100
00010000
00001000
00200000
00010000
00302000
00010000
,  // measure 10
01003000
00000000
00010000
10000000
01000000
00000000
00100000
00020000
00000000
00000000
00030000
00000000
01000000
00000000
00010000
00100000
,  // measure 11
00010000
10000000
00100000
01000000
00002000
00010000
00203000
00010000
,  // measure 12
00301000
00010000
00001000
00010000
00000100
00001000
00000100
00000020
00000000
00000000
00000030
00000000
00000001
00000100
00000010
00001000
,  // measure 13
00000100
00010000
00001000
01000000
00002000
00010000
00203000
00010000
,  // measure 14
00301000
00000000
01000000
00000000
00100000
00000000
10000000
01000000
00100000
00000000
10000000
00000000
00100000
00000000
00010000
00000000
,  // measure 15
01000000
00001000
00010000
00001000
00100000
00001000
00010000
00000000
01001000
00000000
00001000
00010000
00000020
00000000
00000030
00000000
,  // measure 16
00001000
00000000
00000001
00000000
00000010
00000000
00000100
00002000
00000000
00000000
00003000
00000000
00000100
00000000
00000010
00000100
,  // measure 17
00001000
00000010
00010000
00000100
02000000
00010000
03002000
00010000
,  // measure 18
00103000
01000000
10000000
00000000
10100000
00000000
00100000
02000000
00000000
00000000
03000000
00000000
00010000
00000000
00100000
00001000
,  // measure 19
00010000
00000010
00010000
00000100
00020000
00000010
00032000
00100000
,  // measure 20
00013000
00000000
00001000
00010000
00000010
00010000
00000100
00002000
00000000
00000000
00003000
00000000
00000010
00000000
00000100
00000001
,  // measure 21
00001000
00000100
00010000
00001000
00200000
00010000
00302000
00010000
,  // measure 22
01003000
00000000
00010000
00200000
01000000
00000000
00310000
01000000
00100000
00000000
00010000
00000000
00100000
00000000
01000000
00000000
,  // measure 23
00000010
00010000
00001000
00010000
00000100
00010000
00001000
00000000
00010010
00000000
00000010
00000100
00000002
00000000
00000003
00000000
,  // measure 24
00000010
00000010
00000100
00000100
,  // measure 25
00010000
00010000
00001000
00001000
,  // measure 26
01000000
01000000
00100000
00100000
,  // measure 27
10010000
00011000
00001002
00000013
,  // measure 28
00000100
00000000
00000000
00000000
00010000
00000000
00000000
00000000
00001000
00000000
00000000
00000000
00020000
00030000
00000000
00000000
00000000
00000000
00000000
00000000
00020000
00030000
00000000
00000000
00200000
00000000
00000000
00000000
00000000
00000000
00000000
00000000
01000000
00000000
00000000
00000000
00000000
00000000
00000000
00000000
00000000
00000000
00000000
00000000
00000000
00000000
00000000
00000000
00310000
00000000
00000000
00000000
00000000
00000000
00000000
00000000
00000000
00000000
00000000
00000000
00000000
00000000
00000000
00000000
,  // measure 29
00100000
00000000
00000000
00000000
00001000
00000000
00000000
00000000
00010000
00000000
00000000
00000000
00002000
00003000
00000000
00000000
00000000
00000000
00000000
00000000
00002000
00003000
00000000
00000000
00000020
00000000
00000000
00000000
00000000
00000000
00000000
00000000
00000100
00000000
00000000
00000000
00000000
00000000
00000000
00000000
00000000
00000000
00000000
00000000
00000000
00000000
00000000
00000000
00001030
00000000
00000000
00000000
00000000
00000000
00000000
00000000
00000000
00000000
00000000
00000000
00000000
00000000
00000000
00000000
,  // measure 30
00000001
00000010
00000000
00000010
00000100
00010000
00001000
00000000
00000100
00000000
00001000
00000000
00010000
00000000
00000100
00000000
,  // measure 31
01000000
00000000
00000000
00000000
00001000
00000000
00000000
00000000
00010000
00000000
00000000
00000000
00002000
00003000
00000000
00000000
00000000
00000000
00000000
00000000
00002000
00003000
00000000
00000000
00000020
00000000
00000000
00000000
00000000
00000000
00000000
00000000
00000130
00000000
00000000
00000000
00000000
00000000
00000000
00000000
00000001
00000000
00000000
00000000
00000000
00000000
00000000
00000000
00002001
00000000
00000000
00000000
00000000
00000000
00000000
00000000
00000000
00000000
00000000
00000000
00000000
00000000
00000000
00000000
,  // measure 32
00003100
00000000
00000000
00000000
00010000
00000000
00000000
00000000
00001000
00000000
00000000
00000000
00020000
00030000
00000000
00000000
00000000
00000000
00000000
00000000
00020000
00030000
00000000
00000000
00200000
00000000
00000000
00000000
00000000
00000000
00000000
00000000
01000000
00000000
00000000
00000000
00000000
00000000
00000000
00000000
00000000
00000000
00000000
00000000
00000000
00000000
00000000
00000000
00301000
00000000
00000000
00000000
00000000
00000000
00000000
00000000
00000000
00000000
00000000
00000000
00000000
00000000
00000000
00000000
,  // measure 33
00010000
00000100
00001000
00000100
00000000
00000100
00010000
00000000
01000000
00000000
10000000
00000000
20010000
00000000
00000000
00000000
,  // measure 34
30200000
00000000
00000000
02300000
00000000
00000000
03010000
00000000
00100000
00000000
00001000
00000000
00010000
00000000
00000100
00000000
,  // measure 35
00000020
00000000
00000031
00001000
00000100
00001000
00000010
00000000
00001010
00000000
00001000
00000010
00020000
00000000
00032000
00000000
,  // measure 36
01003000
00010000
00100000
00000000
01000000
00000000
10000000
00000000
00200000
00000000
00000000
00000000
01300000
00000000
00001000
00000000
,  // measure 37
00010000
00000100
00001000
00000100
00010000
00000000
00000100
00000000
00000020
00000000
00000000
00000000
00000031
00000000
00001000
00000000
,  // measure 38
00000100
00010000
00001000
00100000
00010000
00000000
02000000
00000000
00100000
00000000
00000000
00000000
03010000
00000000
10000000
00000000
,  // measure 39
01000000
00000000
00100000
00001000
00010000
00000000
00000100
00000000
01000000
00000000
00001000
00000000
00011000
00000000
00010000
00001000
,  // measure 40
01000000
00000000
00000000
00001000
00000000
00000000
00010000
00000000
00000000
00002000
00003000
00000000
00000000
00000000
00000000
00002000
00003000
00000000
00000020
00000000
00000000
00000000
00000000
00000000
00000100
00000000
00000000
00000000
00000000
00000000
00000000
00000000
00000000
00000000
00000000
00000000
00001030
00000000
00000000
00000000
00000000
00000000
00000100
00000000
00000000
00000000
00000000
00000000
,  // measure 41
00010000
00000000
00001000
00100000
00000000
00100000
01000000
00000000
10000000
00000000
00010000
00000000
20010000
00000000
00000000
00000000
,  // measure 42
30100000
01000000
00010000
01000000
00001000
00010000
00000100
00010000
00000010
00000100
00000001
00000000
00000010
00000000
00000100
00000000
,  // measure 43
00010010
00101000
00010100
01001000
,  // measure 44
00012000
00000000
00000000
00000000
00010000
00000000
00000000
00000000
00100000
00000000
00000000
00100000
00000000
00000000
00013000
00000000
,  // measure 45
00021000
00000000
00001000
00000000
00000010
00000000
00000010
00000000
00001000
00000000
00000000
00031000
01000000
00000000
00010000
00000000
,  // measure 46
00201000
00000000
00300100
00001000
00010020
00000000
01000030
00010000
,  // measure 47
00101000
00000000
00001000
00010000
00000010
00000000
00010000
00001000
00100000
00000000
00001000
00010000
00002000
00003000
00000000
00000000
,  // measure 48
00011000
00000000
00010000
00000000
00001000
00010000
00000000
00000010
00000000
00000010
00000000
00000100
00000000
00000001
00000010
00000000
,  // measure 49
00000100
00000000
00010000
00000000
00001000
00010000
00000000
00010000
00001000
01000000
00010000
10000000
00000000
00100000
01000000
00001000
,  // measure 50
00010000
00000000
00010000
00000000
00001000
00010000
00000000
00000100
00000000
00000100
00000000
00001000
00000000
00000001
00001000
00000000
,  // measure 51
00000010
00000000
00010000
00000000
00001000
01000000
00000000
00010000
10000000
01000000
00100000
01000000
00000000
00100000
00001000
00010000
,  // measure 52
00001000
00000000
00001000
00000000
00010000
00001000
00000000
01000000
00000000
01000000
00000000
00100000
00000000
10000000
00010000
00000000
,  // measure 53
00100000
00000000
00001000
00000000
00010000
00000100
00000000
00000100
00001000
00000010
00000100
00001000
00000000
00000100
00000010
00010000
,  // measure 54
00001000
00000000
00001000
00000000
00010000
00001000
00000000
00100000
00000000
00100000
00000000
01000000
00000000
10000000
00100000
00000000
,  // measure 55
01010000
00000000
00000000
00000000
00011000
00000000
00000000
00000000
00001100
00000000
00000000
00000000
00010000
00001000
00010000
00001000
,  // measure 56
00200000
00000000
00300000
00000000
01200000
00000000
00000000
00000000
00310000
00000000
10000000
00010000
00000000
00000000
01000000
00000000
,  // measure 57
00001000
00000000
00010000
00000000
00001000
00000000
00000010
00000000
00001000
00000000
00010000
00001000
00020000
00000000
00001000
00000000
,  // measure 58
00030100
00000000
00000100
00000000
00000010
00000000
00000010
00000000
00000100
00000000
00010000
00001000
00000000
00000000
01000000
00000000
,  // measure 59
01000000
00001000
01000000
00000000
00000100
00000000
00010000
00000000
00100000
00000000
00010000
00000100
00002000
00000000
00003200
00000000
,  // measure 60
00000320
00000000
00000030
00000000
00000210
00000000
00000000
00000000
00001300
00000000
00000001
00001000
00000000
00000000
00000100
00000000
,  // measure 61
00010000
00000000
00001000
00000000
00010000
00000000
00100000
00000000
00010000
00000000
00001000
00010000
00002000
00000000
00010000
00000000
,  // measure 62
00103000
01000000
10000000
00100000
00010000
00001000
00020000
00001000
,  // measure 63
00030100
00000010
00000001
00000100
00001000
00010000
00002000
00010000
,  // measure 64
01003000
00000000
00100000
00000000
10000000
00000000
00010000
00000000
00100000
01000000
10000000
01000000
00100000
00000000
00000000
00000000
,  // measure 65
00001000
00000000
00010000
00000000
00000100
00000000
00001000
00000000
00000001
00000010
00000100
00010000
00000000
00000000
00000000
00000000
,  // measure 66
00002000
00000000
00020000
00033000
,  // measure 67
00101000
00000000
00000000
00010010
00000000
00000000
01000100
00000000
00011000
00000000
00010000
00001000
02000000
00000000
03000000
00000000
,  // measure 68
00100000
01000000
00000000
01000000
00010000
00000000
00100000
00000000
00001000
00000000
00000100
00000000
00001000
00000000
00010000
00000000
,  // measure 69
00000100
00000000
00000000
00000000
00010000
00000000
00000000
00000000
00001000
00000000
00000000
00000000
00020000
00030000
00000000
00000000
00000000
00000000
00000000
00000000
00020000
00030000
00000000
00000000
00200000
00000000
00000000
00000000
00000000
00000000
00000000
00000000
01300000
00000000
00000000
00000000
00000000
00000000
00000000
00000000
10000000
00000000
00000000
00000000
00000000
00000000
00000000
00000000
10020000
00000000
00000000
00000000
00000000
00000000
00000000
00000000
00000000
00000000
00000000
00000000
00000000
00000000
00000000
00000000
,  // measure 70
01030000
00000000
00000000
00000000
00001000
00000000
00000000
00000000
00010000
00000000
00000000
00000000
00002000
00003000
00000000
00000000
00000000
00000000
00000000
00000000
00002000
00003000
00000000
00000000
00000020
00000000
00000000
00000000
00000000
00000000
00000000
00000000
00000100
00000000
00000000
00000000
00000000
00000000
00000000
00000000
00000000
00000000
00000000
00000000
00000000
00000000
00000000
00000000
00010030
00000000
00000000
00000000
00000000
00000000
00000000
00000000
00000000
00000000
00000000
00000000
00000000
00000000
00000000
00000000
,  // measure 71
00001000
01000000
00100000
01000000
00000000
01000000
00010000
00000000
00000100
00000000
00000001
00000000
00002001
00000000
00000000
00000000
,  // measure 72
00003200
00000000
00000000
00000320
00000000
00000000
00000130
00000000
00010000
00000000
00001000
00000000
01000000
00000000
00010000
00000000
,  // measure 73
00200000
00000000
00310000
10000000
00100000
10000000
01000000
00000000
01100000
00000000
00100000
00001000
00020000
00000000
00032000
00000000
,  // measure 74
00013000
00000100
00001000
00000100
00000010
00000000
00000100
00000000
00001002
00000000
00000100
00000000
00000010
00000000
00000100
00000000
,  // measure 75
00001003
00000100
00010000
00001000
00100000
00000000
01000000
00000000
20010000
00000000
01000000
00000000
00100000
00000000
01000000
00000000
,  // measure 76
30010000
00000000
01000000
00001000
00010000
00000000
00001000
00010000
00000100
00000000
00000010
00000000
00000001
00000000
00000100
00000000
,  // measure 77
00000010
00010000
00001000
00100000
00001000
00010000
00000100
01000000
00010000
00000000
00100000
00000000
00101000
00000000
00001000
00010000
,  // measure 78
00001000
00000000
00000000
00000000
00100000
00000000
00000000
00000000
00001000
00000000
00000000
00000000
00020000
00030000
00000000
00000000
00000000
00000000
00000000
00000000
00020000
00030000
00000000
00000000
00200000
00000000
00000000
00000000
00000000
00000000
00000000
00000000
01000000
00000000
00000000
00000000
00000000
00000000
00000000
00000000
00000000
00000000
00000000
00000000
00000000
00000000
00000000
00000000
00310000
00000000
00000000
00000000
00000000
00000000
00000000
00000000
01000000
00000000
00000000
00000000
00000000
00000000
00000000
00000000
,  // measure 79
00001000
00000000
00010000
00000100
00000000
00000100
00001000
00000000
00000001
00000000
00000010
00000000
00000012
00000000
00000000
00000000
,  // measure 80
00001003
00000000
00000100
00010000
00001000
00100000
00010000
01000000
00100000
10000000
00000000
00010000
00000000
01000000
00001000
00010000
,  // measure 81
00000010
00101000
00010100
01001000
,  // measure 82
00010010
00101000
00010100
01001000
,  // measure 83
00010010
00101000
00010100
01001000
,  // measure 84
00002000
00100000
00023000
00000010
,  // measure 85
00032000
01000000
00023000
00000100
,  // measure 86
00031000
00000000
00000000
00000000
00011000
00000000
00000000
00000000
00010000
00001000
00000000
01000000
00000000
00000000
00010000
00000000
,  // measure 87
00000000
00000000
00000000
00000000
00000000
00000000
00000000
00000000
00000000
00000000
00000000
00000000
00000000
00000000
00000000
00000000
00000000
00000000
00000000
00000000
00000000
00000000
00000000
00000000
00100000
00000000
00000000
00000000
00000000
00000000
00000000
00000000
00000000
00000000
00000000
00000000
00000000
00000000
00000000
00000000
00000000
00000000
00000000
00000000
00000000
00000000
00000000
00000000
00001000
00000000
00000000
00000000
00000000
00000000
00000000
00000000
00000000
00000000
00000000
00000000
00000000
00000000
00000000
00000000
00000000
00000000
00000000
00000000
00000000
00000000
00000000
00000000
00010000
00000000
00000000
00000000
00000000
00000000
00000000
00000000
00000000
00000000
00000000
00000000
00000000
00000000
00000000
00000000
00000000
00000000
00000000
00000000
00000000
00000000
00000000
00000000
00000200
00000000
00000000
00000000
00000000
00000000
00000000
00000000
00000000
00000000
00000000
00000000
00000000
00000000
00000000
00000000
00000000
00000000
00000000
00000000
00000000
00000000
00000000
00000000
00000000
00000000
00000000
00000000
00000000
00000000
00000000
00000000
00000000
00000000
00000000
00000000
00000000
00000000
00000000
00000000
00000000
00000000
00000000
00000000
00000000
00000000
00000000
00000300
00000000
00000000
00000000
00000000
00000000
00000000
000MM000
00000000
00000000
00000000
00000000
00000000
00M00M00
00000000
00000000
00000000
00000000
00000000
0M0000M0
00000000
00000000
00000000
00000000
00000000
0M0000M0
00000000
00000000
00000000
00000000
00000000
0MMMMMM0
00000000
00000000
00000000
00000000
00000000
0M0000M0
00000000
00000000
00000000
00000000
00000000
0M0000M0
00000000
00000000
00000000
00000000
00000000
;
00
;
