#TITLE:UP WHERE WE BELONG;
#SUBTITLE:;
#ARTIST:JUDY CRYSTAL & FROG A' BILLY;
#TITLETRANSLIT:;
#SUBTITLETRANSLIT:;
#ARTISTTRANSLIT:;
#GENRE:SPEED G2;
#CREDIT:;
#BANNER:UP WHERE WE BELONG.png;
#BACKGROUND:UP WHERE WE BELONG-bg.png;
#LYRICSPATH:;
#CDTITLE:;
#MUSIC:UP WHERE WE BELONG.ogg;
#OFFSET:-0.003286;
#SAMPLESTART:62.120041;
#SAMPLELENGTH:16.219999;
#SELECTABLE:YES;
#BPMS:0.000000=170.000000
;
#STOPS:
;
#BGCHANGES:;
#KEYSOUNDS:;
#ATTACKS:;

//---------------dance-single - ----------------
#NOTES:
     dance-single:
     :
     Hard:
     13:
     0.644993,0.686394,0.203376,0.000000,0.274558,444.000000,424.000000,20.000000,0.000000,0.000000,0.000000,0.644993,0.686394,0.203376,0.000000,0.274558,444.000000,424.000000,20.000000,0.000000,0.000000,0.000000:
0000
0000
0000
0000
,
0000
0000
0000
0000
,
0000
0000
0000
0000
,
0000
0000
0000
0000
,
1001
0000
0000
0001
,
0100
0000
0000
0010
0000
0000
1000
0001
,
1000
0000
0000
0000
,
1100
0000
0011
0000
0101
0000
1010
1000
,
0001
1000
0100
0010
0001
0000
1100
0000
,
0001
0100
0010
1000
0010
0100
0001
1000
,
0001
0010
0100
1000
0001
0000
1010
0000
,
0001
1000
0010
0100
1000
0100
0010
0001
,
0010
1000
0001
1000
0100
0000
0011
0000
,
0001
0100
0010
1000
0010
0100
0001
1000
,
0001
0010
0100
1000
0010
0100
0010
0001
,
0010
0000
0000
0010
1000
0000
0000
1000
0001
0000
0000
0000
0000
0000
0000
0000
,
1000
0001
0000
1000
0100
0010
0100
1000
,
0000
0001
0000
1000
0010
0100
0010
1000
,
0000
0010
0000
0100
0001
0010
0001
0100
,
0000
0010
0000
1000
0100
1000
0010
1000
,
0000
0001
0000
0100
1000
0100
0010
1000
,
0000
0001
0000
0010
1000
0010
0100
1000
,
0000
0001
0000
1000
0100
0001
0100
0001
,
0100
1000
0000
1100
0000
0011
0000
1001
,
0000
0001
0100
0010
1000
0001
1000
0100
,
0000
0010
0001
1000
0001
0100
0010
1000
,
0000
0100
1000
0010
0100
0001
1000
0100
,
0000
0010
0001
1000
0010
0100
0001
1000
,
0000
0001
0010
0100
0001
0100
0010
0001
,
0000
1000
0010
0100
1000
0100
0010
1000
,
0000
0001
1000
0010
0001
0010
1000
0001
,
0010
1001
1000
0001
,
1000
0000
0010
0000
0000
0100
0000
0000
0010
0000
0000
1000
0000
0000
0001
0000
,
0010
0000
0001
0000
0000
0100
0000
0000
0010
0000
0000
0100
0000
0000
0001
0000
,
1000
0000
0001
0000
0000
0010
0000
0000
0100
0000
0000
0010
0000
0000
0001
0000
,
1000
0000
0001
0000
0000
0100
0000
0000
0010
0000
0000
0100
0000
0000
0001
0000
,
0010
0000
0100
0000
0000
1000
0000
0000
0001
0000
0000
0010
0000
0000
0001
0000
,
0100
0000
0010
0000
0000
1000
0000
0000
0001
0000
0000
0100
0000
0000
0010
0000
,
1000
0000
0100
0000
0000
1000
0000
0000
0001
0000
0000
0010
0000
0000
0100
0000
,
1000
0000
0010
0000
0000
1000
0000
0000
0001
0000
0000
0100
0000
0000
0010
0000
,
1000
0000
0001
0000
0000
0010
0000
0000
0100
0000
1000
0001
0000
0000
1000
0000
,
0001
0000
1000
0000
0000
0010
0000
0000
0100
0000
0001
1000
0000
0000
0001
0000
,
1000
0000
0100
0000
0010
0100
0000
0010
0001
0000
0010
0001
0000
0000
1000
0000
,
0001
0000
0100
0000
0010
1000
0000
0010
1000
0000
0100
0000
0010
0001
0000
0010
,
0001
0000
0000
0000
1000
0010
0000
0000
0010
0100
0000
0000
0100
0001
0000
0000
,
0001
1000
0000
0000
1000
0100
0000
0000
0100
0010
0000
0000
0010
0000
0001
0000
,
1000
0010
0100
0001
1000
0001
0010
0100
,
1000
0010
0100
0001
0010
0100
1000
0001
,
1000
0001
0101
1010
,
0001
0010
0100
1000
0100
0010
1000
0010
,
0001
1000
1010
0101
,
0001
0000
1000
0000
0001
0100
0000
0010
1000
0000
0001
0000
1000
0100
0000
0010
,
0001
0000
0000
0000
1000
0100
0000
0000
0100
0010
0000
0000
0010
0001
0000
0000
,
0001
1000
0000
0000
1000
0010
0000
0000
0010
0100
0000
0000
0100
0000
0001
0000
,
1000
0100
0010
0001
1000
0001
0100
0010
,
1000
0100
0010
0001
0100
0010
1000
0001
,
1000
0001
0011
1100
,
0001
0100
0010
1000
0010
0100
1000
0100
,
0001
1000
1100
0011
,
0001
0000
1000
0000
0001
0010
0000
0100
1000
0000
0001
0000
1000
0010
0000
0100
,
0001
0000
1000
0000
0100
0000
0010
0001
1000
0000
0000
0000
0001
0000
1000
0000
,
0001
0100
0010
1000
0010
0100
0001
0100
,
0001
0000
1000
0000
0100
0000
0010
0001
1000
0000
0000
0000
0010
0000
1000
0000
,
0001
0010
0100
0010
1000
0010
0100
0001
,
0100
0000
1000
0000
0001
0000
1000
0010
0100
0000
0000
0000
0001
0000
1000
0000
,
0001
0100
0010
1000
0010
0100
0001
1000
,
0001
0010
0100
1000
0010
1000
0100
0001
,
0100
0000
0000
0100
1000
0000
0000
1000
0001
0000
0000
0000
0000
0000
0000
0000
;

//---------------dance-single - ----------------
#NOTES:
     dance-single:
     :
     Medium:
     10:
     0.493913,0.549115,0.305064,0.000000,0.000000,340.000000,310.000000,30.000000,0.000000,0.000000,0.000000,0.493913,0.549115,0.305064,0.000000,0.000000,340.000000,310.000000,30.000000,0.000000,0.000000,0.000000:
0000
0000
0000
0000
,
0000
0000
0000
0000
,
0000
0000
0000
0000
,
0000
0000
0000
0000
,
1001
0000
0000
0001
,
0100
0000
0000
0010
0000
0000
1000
0001
,
1000
0000
0000
0000
,
1100
0011
0101
1010
,
0001
0010
0100
0000
1000
0000
1001
0000
,
1000
0010
0001
0010
,
1000
0010
0100
0000
0001
0000
1001
0000
,
0001
0010
1000
0010
,
0001
0100
0010
0000
1000
0000
1001
0000
,
0001
0100
1000
0100
,
0001
0010
0100
0001
,
0100
1000
1001
0000
,
0001
0100
0010
0100
,
0001
0000
0010
0000
0100
0000
1000
0001
,
1000
0000
1000
0100
0000
0100
0010
0000
,
0100
0000
1000
0000
0010
0000
0100
0001
,
1000
0100
0010
0001
,
1000
0000
1000
0010
0000
0010
0100
0001
,
0010
0000
0001
0000
0100
0010
0100
0010
,
0100
0100
0000
0001
0000
1000
0000
0001
,
1000
0000
0100
0010
0001
0000
1000
0000
,
0010
0000
0100
0000
0001
0000
1000
0100
,
0010
0000
0010
0001
0000
0001
1000
0000
,
0001
0000
0100
0000
0010
0000
1000
0001
,
0010
0000
0100
0000
1000
0000
0001
0100
,
0010
0000
0100
0000
0001
0000
1000
0100
,
0010
0100
1000
0001
,
1000
0000
0010
0000
0100
0000
0001
1000
,
0001
0000
0101
0000
0001
0000
0010
0100
,
1000
0000
1100
0000
1000
0000
0100
0010
,
0001
0000
0011
0000
0010
0000
0001
1000
,
0010
0000
1010
0000
1000
0000
0001
0010
,
0100
0000
1100
0000
0001
0000
1000
0010
,
0100
0000
0101
0000
1000
0000
0001
0010
,
0100
0000
1001
0000
0100
0000
1000
0010
,
0100
0000
1001
0000
0010
0000
1000
0100
,
0001
0000
0101
0000
0001
0000
0001
0100
,
1000
0000
1100
0000
1000
0000
1000
0010
,
0001
0000
0011
0000
0001
0000
0001
0010
,
1000
0001
1000
0000
0001
1000
0001
0000
,
1001
0001
0100
0010
,
0010
0000
0001
0000
0001
0000
0010
1000
,
0100
1100
1000
0001
,
0010
0000
0011
0000
0001
0000
1000
0010
,
0100
0010
0001
0010
,
1000
0000
0100
0000
0010
0000
0001
0100
,
0010
0100
1000
0100
,
0001
0010
0100
1000
0001
0010
0100
1000
,
1001
1000
0100
0010
,
0010
0000
1000
0000
1000
0000
0010
0001
,
0100
0101
0001
1000
,
0010
0000
1010
0000
1000
0000
0001
0010
,
0100
0010
1000
0010
,
0001
0000
0100
0000
0010
0000
1000
0100
,
0010
0100
0001
0100
,
1000
0010
0100
0001
1000
0010
0100
0001
,
1000
0100
1000
0001
1000
0000
1001
0000
,
0001
0100
0010
0000
1000
0010
0100
0000
,
0001
0100
0001
1000
0001
0000
1001
0000
,
0001
0010
0100
0000
1000
0100
0010
0000
,
0001
0100
0010
1000
0001
0000
1001
0000
,
1000
0100
0010
0000
0001
0010
0100
0000
,
1000
0010
0100
0001
1000
0100
0010
0001
,
1000
0001
1001
0000
;

//---------------dance-single - ----------------
#NOTES:
     dance-single:
     :
     Easy:
     7:
     0.354455,0.343197,0.040675,0.000000,0.000000,244.000000,240.000000,4.000000,0.000000,0.000000,0.000000,0.354455,0.343197,0.040675,0.000000,0.000000,244.000000,240.000000,4.000000,0.000000,0.000000,0.000000:
0000
0000
0000
0000
,
0000
0000
0000
0000
,
0000
0000
0000
0000
,
0000
0000
0000
0000
,
1001
0000
0000
0001
,
0100
0000
0010
1000
,
0001
0000
0000
0000
,
0010
0010
0010
0010
,
0001
0100
0010
0000
,
1000
0010
0100
0001
,
1000
0100
0010
0000
,
0001
0010
0100
1000
,
0001
0100
1000
0000
,
0100
0001
1000
0010
,
1000
0100
0010
1000
,
0010
0001
1000
0000
,
0001
0100
0001
0100
,
0010
0100
0010
0100
,
0010
1000
0010
1000
,
0001
1000
0001
1000
,
0100
1000
0100
1000
,
0100
0010
0100
0010
,
0001
0010
0001
1000
,
0001
0000
1001
0000
,
0001
0100
0010
1000
,
0010
0100
0001
1000
,
0001
0010
0100
1000
,
0100
0010
0001
1000
,
0001
0100
1000
0100
,
0010
1000
0001
0100
,
0001
0010
1000
0010
,
0100
0100
0100
0100
,
1000
0100
0100
1000
,
0001
0100
0100
0001
,
1000
0010
0010
1000
,
0001
0010
0010
0001
,
1000
0010
0100
0001
,
1000
0100
0010
0001
,
1000
0010
0001
0010
,
1000
0100
0001
0100
,
1000
0010
0100
1000
,
0100
0010
0001
0010
,
1000
0100
0001
0010
,
0001
0100
1000
0001
,
1001
0001
0001
0010
,
0010
0100
0100
1000
,
0001
0100
0010
1000
,
0001
0010
0100
1000
,
0001
0001
0100
1000
,
0100
0010
1000
0001
,
1000
0100
0001
0100
,
0010
0010
0100
0100
,
1001
1000
1000
0010
,
0010
0100
0100
0001
,
1000
0100
0010
0001
,
1000
0010
0100
0001
,
1000
1000
0100
0001
,
0100
0010
0001
1000
,
0001
0100
1000
0100
,
0010
0010
0100
0100
,
0001
0010
0100
0000
,
1000
0100
0010
0001
,
1000
0010
0100
0000
,
0001
0100
0010
1000
,
0001
0010
1000
0000
,
0010
0001
1000
0100
,
1000
0010
0100
1000
,
0100
0001
1000
0000
;

//---------------dance-single - ----------------
#NOTES:
     dance-single:
     :
     Beginner:
     3:
     0.244051,0.274558,0.020338,0.000000,0.000000,168.000000,166.000000,2.000000,0.000000,0.000000,0.000000,0.244051,0.274558,0.020338,0.000000,0.000000,168.000000,166.000000,2.000000,0.000000,0.000000,0.000000:
// measure 0
0000
0000
0000
0000
,  // measure 1
0000
0000
0000
0000
,  // measure 2
0000
0000
0000
0000
,  // measure 3
0000
0000
0000
0000
,  // measure 4
1001
0000
0000
0000
,  // measure 5
0000
0000
0000
0000
,  // measure 6
0110
0000
0000
0000
,  // measure 7
0010
0010
0010
0000
,  // measure 8
1000
1000
1000
0000
,  // measure 9
0100
0000
0010
0000
,  // measure 10
0001
0001
0001
0000
,  // measure 11
0100
0000
0010
0000
,  // measure 12
1000
1000
1000
0000
,  // measure 13
0001
0000
0010
0000
,  // measure 14
0100
0100
0100
0100
,  // measure 15
0100
0100
0100
0000
,  // measure 16
0010
0000
0001
0000
,  // measure 17
0100
0000
0010
0000
,  // measure 18
1000
0000
0100
0000
,  // measure 19
0010
0000
0001
0000
,  // measure 20
1000
0000
0010
0000
,  // measure 21
0100
0000
0001
0000
,  // measure 22
1000
0000
0100
0000
,  // measure 23
0010
0010
0010
0000
,  // measure 24
0100
0000
1000
0000
,  // measure 25
0001
0000
0100
0000
,  // measure 26
0010
0000
1000
0000
,  // measure 27
0001
0000
0010
0000
,  // measure 28
0100
0000
1000
0000
,  // measure 29
0001
0000
0100
0000
,  // measure 30
0010
0000
1000
0000
,  // measure 31
0001
0001
0001
0001
,  // measure 32
0001
0000
0010
0010
,  // measure 33
0010
0000
0100
0100
,  // measure 34
0100
0000
1000
1000
,  // measure 35
1000
0000
0001
0001
,  // measure 36
0001
0000
0100
0100
,  // measure 37
0100
0000
0010
0010
,  // measure 38
0010
0000
1000
1000
,  // measure 39
1000
0000
0001
0001
,  // measure 40
0001
0000
0010
0010
,  // measure 41
0010
0000
0100
0100
,  // measure 42
0100
0000
1000
1000
,  // measure 43
1000
1000
1000
1000
,  // measure 44
0000
0010
0010
0010
,  // measure 45
0010
0010
0010
0010
,  // measure 46
0010
0000
0100
0000
,  // measure 47
0001
0000
1000
1000
,  // measure 48
1000
0000
0100
0000
,  // measure 49
0010
0000
0001
0001
,  // measure 50
0001
0000
0010
0000
,  // measure 51
0100
0000
1000
1000
,  // measure 52
0000
0001
0001
0001
,  // measure 53
0001
0001
0001
0001
,  // measure 54
0001
0000
0100
0000
,  // measure 55
0010
0000
1000
1000
,  // measure 56
1000
0000
0001
0001
,  // measure 57
0001
0000
0010
0010
,  // measure 58
0010
0000
0100
0100
,  // measure 59
0100
0000
1000
0000
,  // measure 60
0001
0001
0001
0000
,  // measure 61
0100
0000
0010
0000
,  // measure 62
1000
1000
1000
0000
,  // measure 63
0100
0000
0010
0000
,  // measure 64
0001
0001
0001
0000
,  // measure 65
1000
0000
0010
0000
,  // measure 66
0100
0100
0100
0100
,  // measure 67
0100
0100
0100
0000
;
