#VERSION:0.83;
#TITLE:UNDEAD;
#SUBTITLE:;
#ARTIST:YOASOBI;
#TITLETRANSLIT:;
#SUBTITLETRANSLIT:;
#ARTISTTRANSLIT:;
#GENRE:;
#CREDIT:;
#MUSIC:UNDEAD.ogg;
#BANNER:UNDEAD-bn.png;
#BACKGROUND:;
#CDTITLE:;
#SAMPLESTART:58.756;
#SAMPLELENGTH:14.167;
#SELECTABLE:YES;
#OFFSET:1.452;
#BPMS:0.000=144.000;
#STOPS:;
#SCROLLS:0.000=1.000,
64.000=-0.500,
64.167=-0.375,
64.333=-0.250,
64.500=-0.125,
64.667=0.000,
64.833=0.125,
65.000=0.250,
65.167=0.375,
65.333=0.500,
65.500=0.625,
65.667=0.750,
65.833=0.875,
66.000=1.000,
144.000=-0.500,
144.167=-0.375,
144.333=-0.250,
144.500=-0.125,
144.667=0.000,
144.833=0.125,
145.000=0.250,
145.167=0.375,
145.333=0.500,
145.500=0.625,
145.667=0.750,
145.833=0.875,
146.000=1.000
;
#JACKET:;
#DISCIMAGE:;
#CDIMAGE:;
#BGCHANGES:;
#FGCHANGES:;

//--------------- dance-single - ----------------
#NOTEDATA:;
#STEPSTYPE:dance-single;
#DESCRIPTION:;
#DIFFICULTY:Beginner;
#METER:3;
#RADARVALUES:0,0,0,0,0;
#OFFSET:1.452;
#BPMS:0.000=144.000;
#CHARTNAME:;
#CHARTSTYLE:;
#CREDIT:Talkion;
#METERF:3;
#NOTES:
0000
0000
0000
0000
,
0000
0000
0000
0000
,
0000
0000
0000
0000
,
0000
0000
0000
0000
,
0000
0000
0000
0000
,
1000
0000
0000
0000
,
0001
0000
0000
0000
,
1000
0000
1000
0000
,
0001
0000
0000
0000
,
1000
0000
0000
0000
,
1000
0000
0000
0000
,
1000
0000
0000
0000
,
0001
0000
0001
0000
,
1000
0000
0000
0000
,
0100
0000
0000
0000
,
0020
0000
0000
0000
,
0030
0000
0000
0000
,
0001
0000
0000
0000
,
0001
0000
0000
0000
,
1000
0000
0000
0000
,
0010
0000
0010
0000
,
1000
0000
0000
0000
,
1000
0000
0000
0000
,
0001
0000
0001
0000
,
0001
0000
0000
0000
,
0010
0000
0000
0000
,
0100
0000
0000
0000
,
1000
0000
1000
0000
,
1000
0000
0000
0000
,
0010
0000
0000
0000
,
0100
0000
0000
0000
,
0001
0000
0001
0000
,
0001
0000
0000
0000
,
1000
0000
0000
0000
,
0000
0000
0000
0000
,
0002
0000
0000
0000
,
0003
0000
0000
0000
,
0100
0000
0000
0000
,
0100
0000
0000
0000
,
0100
0000
0001
0000
,
0010
0000
0000
0000
,
0001
0000
0000
0000
,
1000
0000
0000
0000
,
0001
0000
0000
0000
,
1000
0000
1000
0000
,
0100
0000
0000
0000
,
0100
0000
0000
0000
,
0100
0000
1000
0000
,
0010
0000
0000
0000
,
0100
0000
0000
0000
,
0100
0000
0000
0000
,
0100
0000
0001
0000
,
0010
0000
0000
0000
,
0001
0000
0001
0000
,
0001
0000
0000
0000
,
1000
0000
1000
0000
,
1000
0000
0000
0000
,
0010
0000
0000
0000
,
0100
0000
0000
0000
,
0010
0000
0100
0000
,
0010
0000
0010
0000
;

//--------------- dance-single - ----------------
#NOTEDATA:;
#STEPSTYPE:dance-single;
#DESCRIPTION:;
#DIFFICULTY:Easy;
#METER:6;
#RADARVALUES:0,0,0,0,0;
#OFFSET:1.452;
#BPMS:0.000=144.000;
#CHARTNAME:;
#CHARTSTYLE:;
#CREDIT:Talkion;
#METERF:6;
#NOTES:
0000
0000
0000
0000
,
0000
0000
0000
0000
,
0000
0000
0000
0000
,
0000
0000
0000
0000
,
0000
0000
0000
0000
,
1000
0100
1000
0000
,
0001
0100
0001
0000
,
1000
0000
0100
0100
,
1000
0000
0000
0010
,
1001
0000
0001
0010
,
1001
0000
1000
0010
,
1001
0000
0001
0010
,
0100
0100
0100
0000
,
1000
0010
0100
0000
,
0001
0010
0100
0010
,
0002
0000
0000
0000
,
0003
0000
1000
1000
,
1000
0010
1000
0000
,
0001
0010
0001
0010
,
0200
0000
0000
0300
,
1000
1000
0001
0001
,
1000
0010
1000
0000
,
0001
0010
0001
0000
,
1000
0010
1000
0010
,
0100
0001
0200
0302
,
0013
0100
1000
0000
,
0010
0100
0001
0000
,
1000
0100
1000
0100
,
0010
0001
0020
0032
,
0103
0010
1000
0000
,
0100
0010
0001
0000
,
1000
0010
1000
0010
,
0100
0001
0100
0001
,
1000
0100
0000
0100
,
0000
0100
0000
0000
,
1000
0010
0100
0001
,
0000
0000
0100
0010
,
1010
1000
0001
0001
,
0010
0001
1000
1000
,
0010
0100
0001
0010
,
0100
0010
0001
0000
,
1000
0010
1000
0000
,
0001
0010
0001
0000
,
1000
0000
0010
0100
,
0010
1000
0100
0010
,
0000
0001
1000
1000
,
0010
1000
0001
0001
,
0010
0100
1000
0010
,
0100
0010
1000
0000
,
0001
0010
0001
0000
,
1000
0010
1000
0000
,
0001
0010
0100
0000
,
1000
0000
0000
0000
,
1001
0000
0001
0000
,
0100
0100
0100
0000
,
1001
0000
1000
0000
,
0100
0100
0100
0010
,
0001
1000
0001
0000
,
0100
0010
0100
0001
,
0010
0001
0100
0010
,
1000
1000
1000
0000
;

//--------------- dance-single - XMOD XO ----------------
#NOTEDATA:;
#STEPSTYPE:dance-single;
#DESCRIPTION:XMOD XO;
#DIFFICULTY:Medium;
#METER:9;
#RADARVALUES:0,0,0,0,0;
#CHARTNAME:;
#CHARTSTYLE:;
#CREDIT:Talkion;
#METERF:9;
#NOTES:
0000
0000
0000
0000
,
0000
0000
0000
0000
,
0000
0000
0000
0000
,
0000
0000
0000
0000
,
0000
0000
0000
0000
,
1000
0001
0010
0010
,
0001
1000
0010
0010
,
1000
0000
0001
0000
0010
0100
0010
0000
,
0001
0000
0000
1000
0000
0100
0000
1000
0000
0000
0001
0000
0001
0000
0000
0000
,
1010
1000
0001
0010
,
1010
1000
0001
0010
,
1010
1000
0001
0010
,
2010
0000
3002
0000
1003
0100
1000
0100
,
0010
0001
1000
0010
,
0100
0001
0010
0100
,
1000
0010
1000
0000
0001
0010
0001
0000
,
0000
0000
0000
0000
0000
1000
0100
1000
,
0100
1000
0001
0001
,
0100
0010
1000
1000
,
0001
0010
0100
0000
1000
0100
0010
0000
,
0002
0010
1000
0103
,
0101
0001
1000
1000
,
0100
0010
0001
0001
,
1000
0010
1000
0000
0001
0010
0001
0000
,
0100
0100
0200
0320
,
0031
0000
0010
0000
1000
0000
0100
0010
,
1000
0010
0001
0100
,
0010
0100
0001
0000
1000
0010
1000
0000
,
0100
0100
0200
0320
,
1030
0000
0010
0000
0001
0000
0100
0010
,
0001
0010
1000
0100
,
0010
0100
1000
0000
0001
0010
0001
0000
,
0100
0010
0100
0001
,
1000
0100
0000
0100
,
0000
0000
0100
0000
0000
0210
0000
0000
,
1300
0000
0001
0100
0000
0100
0010
0000
,
0000
0000
2010
0001
,
3100
0000
1000
0000
0010
0100
0001
0000
,
1100
0000
1000
0000
0010
0100
0001
0000
,
1000
0010
1000
0000
0001
0010
0001
0000
,
0100
0000
0200
1000
0000
0310
0000
0000
,
1000
0100
0010
0000
0001
0000
0001
0000
,
0010
0001
0100
0000
0010
0000
0010
0000
,
1000
0000
0001
0000
0010
0100
0010
0000
,
0001
1000
0010
0001
,
0010
0000
1000
0000
0100
0010
0001
0000
,
1000
0010
1000
0000
0100
0010
0001
0000
,
1000
0100
1000
0000
0001
0100
0001
0000
,
0010
0000
1000
0010
0100
0000
1000
0000
,
0001
0010
0001
0000
0100
0010
1000
0000
,
0001
0010
0001
0000
0100
0010
1000
0000
,
0001
0010
0100
0000
1000
0010
0100
0000
,
0001
0000
0000
1000
0000
0010
0000
1000
0000
0000
0001
0000
0001
0000
0000
0000
,
1001
0000
0000
1000
0100
1000
0000
0001
,
0000
0100
0000
0100
0010
0000
0000
0000
,
1001
0000
0000
0001
0100
0001
0000
1000
,
0000
0100
0000
0100
0010
0001
0001
0000
,
1000
0000
0010
0000
0100
0010
1000
0000
,
0001
0000
0010
0000
0100
0010
0001
0000
,
0101
1000
1100
0001
,
0201
0010
1300
0000
;

//--------------- dance-single - XMOD XO JU- ----------------
#NOTEDATA:;
#STEPSTYPE:dance-single;
#DESCRIPTION:XMOD XO JU-;
#DIFFICULTY:Hard;
#METER:12;
#RADARVALUES:0,0,0,0,0;
#CHARTNAME:;
#CHARTSTYLE:;
#CREDIT:Talkion;
#METERF:12;
#NOTES:
0000
0000
0000
0000
,
0000
0000
0000
0000
,
0000
0000
0000
0000
,
0000
0000
0000
0000
,
0000
0000
0000
0000
0000
0000
0000
1000
,
0100
0000
0010
0000
0100
0000
1000
0000
0001
0000
0000
0001
0000
0000
1000
0000
,
0010
0000
0100
0000
0010
0000
1000
0000
0001
0000
0000
0001
0000
0000
1000
0000
,
0100
0000
1000
0000
0001
0000
0000
0010
0000
0000
0100
0000
0010
0000
0100
0000
,
1000
0000
0000
0010
0000
0010
0000
0010
0000
0000
0100
0000
2000
3000
0100
0000
,
0001
0000
0010
0000
0000
0000
0001
0000
1000
0000
0000
1000
0000
0000
0010
0000
,
1000
0000
0100
0000
0000
0000
1000
0000
0001
0000
0000
0001
0000
0000
0010
0000
,
0001
0000
0100
0000
0000
0000
0001
0000
1000
0000
0000
1000
0000
0000
0100
0000
,
1000
0010
1000
0010
0100
0001
0001
0001
,
1000
0000
0100
0000
1000
0000
0001
0000
0100
0000
0000
0100
0000
0000
0010
0000
,
1000
0001
0010
0100
1000
0001
0100
0010
,
1000
0100
1000
0010
0100
0001
0010
0001
,
0000
0000
0000
0000
1000
0100
0100
0100
,
0010
0000
0000
0000
0001
0000
0010
0000
0001
0000
0000
1000
0000
0000
0100
0000
,
1000
0000
0010
0000
0100
0000
0000
0100
0000
0000
0001
0000
1000
0000
0100
0000
,
0020
0001
0031
0200
0010
0310
1000
0100
,
0020
0000
0000
0001
0000
0000
0100
0000
0000
1000
0000
0000
0130
0000
0010
0000
,
0001
0000
0000
0000
1000
0000
0010
0000
1000
0000
0000
0001
0000
0000
0100
0000
,
0001
0000
0010
0000
0100
0000
0010
0000
0001
0000
0000
1000
0000
0000
0100
0000
,
1000
0010
0100
0010
1000
0100
0010
0100
,
1000
0010
0001
0010
1000
0000
1200
0000
,
0301
0000
0000
0000
0100
0000
0010
0000
0001
0000
0000
0002
0000
0000
0103
0000
,
1000
0000
0100
0000
0010
0000
1000
0000
0001
0000
0000
0002
0000
0000
0103
0000
,
0001
0010
0100
0010
0001
0100
0010
0100
,
0001
0010
1000
0010
0001
0000
0201
0000
,
1300
0000
0000
0000
0100
0000
0010
0000
1000
0000
0000
2000
0000
0000
3100
0000
,
0001
0000
0100
0000
0010
0000
0001
0000
1000
0000
0000
2000
0000
0000
3100
0000
,
1000
0010
0100
0010
1000
0100
0010
0100
,
1000
0000
0001
0100
0010
1000
0001
0010
,
0100
0000
1000
0010
1000
0000
0001
0010
,
0001
0000
0100
0010
1000
2001
0000
0000
,
3100
0010
0001
0100
0010
1000
0100
0010
,
0000
0000
0012
1000
,
0103
0000
0000
0000
0001
0000
0200
0000
0010
0000
0000
0302
0000
0000
0013
0000
,
0110
0000
0000
0000
0001
0000
0200
0000
0010
0000
0000
2300
0000
0000
3100
0000
,
0001
0010
0100
0010
0001
0100
0010
0100
,
0001
0010
1000
0001
0000
0110
0000
1000
,
0001
0000
0100
0000
0010
0000
0100
0000
0001
0000
0000
0001
0000
0000
1000
0000
,
0001
0000
0010
0000
0100
0000
0020
0000
1000
0000
0000
0130
0000
0000
1000
0000
,
0001
0000
0100
0000
0010
0000
0000
0010
0000
0000
1000
0000
0100
0000
0010
0000
,
0011
0000
1010
0000
0012
0000
0103
0010
,
0100
0000
0001
0000
1000
0000
0200
0000
0010
0000
0000
2300
0000
0000
3010
0000
,
0100
0000
0001
0000
0100
0000
0001
0000
0010
0000
0000
0010
0000
0000
0001
0000
,
1000
0010
0100
0010
1000
0100
0010
0100
,
1000
0010
0100
1000
0001
0000
0110
0000
,
1000
0000
0100
0000
1000
0000
0100
0000
0010
0000
0000
0010
0000
0000
0001
0000
,
0100
0000
0010
0000
1000
0000
0010
0000
0100
0000
0000
0100
0000
0000
0001
0000
,
0010
0000
0100
0000
1000
0000
0100
0000
0010
0000
0000
0010
0000
0000
0001
0000
,
0100
0000
0000
0010
0000
0010
0000
0010
0000
0000
1000
0000
1001
0000
0000
0000
,
1100
0000
0100
1000
0010
0100
0000
0102
,
0000
0010
0000
0103
0020
0000
1030
0000
,
1010
0000
0010
1000
0100
0010
0000
0012
,
0000
0000
0100
0000
0000
0000
0013
0000
0100
0000
0100
0000
0002
0003
0100
0000
,
1000
0010
0100
0010
1000
0001
0000
0100
,
0001
0010
0100
0010
0001
1000
0010
0100
,
1200
0000
0000
0000
0310
0000
0100
0000
0201
0000
0000
0310
0000
0000
1000
0000
,
1100
0000
0101
0000
1100
0001
0001
0000
;

//--------------- dance-single - XMOD XO DS- JU- KS- ----------------
#NOTEDATA:;
#STEPSTYPE:dance-single;
#DESCRIPTION:XMOD XO DS- JU- KS-;
#DIFFICULTY:Challenge;
#METER:16;
#RADARVALUES:0,0,0,0,0;
#CHARTNAME:;
#CHARTSTYLE:;
#CREDIT:Talkion;
#METERF:16;
#NOTES:
0000
0000
0000
0000
,
0000
0000
0000
0000
,
0000
0000
0000
0000
,
0000
0000
0000
0000
,
0000
0000
0000
0000
0000
0000
0000
0001
,
0101
0000
0100
0010
0100
0000
0001
0000
0010
0000
0010
0100
0000
0000
1000
0000
,
0002
0000
0100
0000
1003
0000
0100
1000
0010
0000
0010
0100
0000
0000
0001
0000
,
1000
0000
0100
0010
0000
0001
0000
0102
0000
0000
1003
0000
0102
0000
1003
0000
,
0100
0010
0000
0010
0000
0010
0000
1001
0000
2000
0100
0000
3002
0003
0100
0000
,
1010
0000
0100
0000
0001
0000
0001
0000
1000
0100
0000
0100
0000
0010
0001
0000
,
0110
0000
0001
0000
1000
0000
0010
0000
0100
0001
0000
0001
0000
1000
0100
0000
,
0011
0000
0100
0000
1000
0000
1000
0000
0001
0100
0000
0100
0000
0010
1000
0000
,
0110
2000
0100
3002
0100
1003
1000
1000
,
0100
0000
0010
0000
0001
0000
0001
0000
1000
0010
0100
0010
0000
1000
0001
0010
,
0100
0010
0001
0000
1000
0001
0010
0001
0100
0000
0010
1000
0100
0000
1000
0001
,
0100
0010
1000
0001
0010
0100
1000
0001
0100
0010
0100
0001
0010
0100
0010
0001
,
M100
0000
0000
0000
0000
0000
0000
0000
0001
0000
1000
0000
1000
0000
1000
0100
,
0010
0000
0000
0000
0001
0000
1000
0100
0010
0000
0001
1000
0000
0000
0010
0100
,
0001
0000
0010
0100
0010
0000
0001
1000
0000
0010
0100
0010
2000
0000
0010
0000
,
3001
0000
1000
0100
0010
0100
1000
0001
0100
0010
0100
0001
1000
0000
0001
0000
,
0010
0100
2000
0001
0000
3010
0100
0000
0002
0100
0000
0013
0100
0000
0010
0000
,
0011
0000
0000
0000
0001
0000
1000
0010
0100
0000
0001
1000
0000
0000
0100
0000
,
0100
0000
0010
0001
0000
0100
0000
0100
0020
0000
0000
1030
0000
0000
0001
0000
,
0011
0000
0010
0000
0100
0000
0010
0000
0001
0000
0100
0010
0100
0000
0001
0000
,
0010
1000
0010
0001
1000
0000
1020
0000
,
0031
0000
0000
0000
0010
0100
0001
0000
0010
0000
0010
0200
0000
0000
0010
0000
,
0301
0000
0100
0000
0010
0100
1000
0000
0010
0000
0010
0200
0000
0000
0301
0000
,
1000
0100
1000
0000
0001
0100
0001
0000
1000
0100
1000
0000
0001
0000
0100
0000
,
0010
0000
1000
0001
0010
0001
1000
0000
0020
0000
0100
0000
0130
0000
0010
0100
,
1000
0000
0000
0000
0100
0010
1000
0000
0100
0000
0100
0020
0000
0000
0100
0000
,
1030
0000
0010
0000
0100
0010
0000
0001
0100
0000
0100
0020
0000
0000
1030
0000
,
0001
0010
0001
0000
1000
0010
1000
0000
0001
0010
0001
0000
1000
0000
0010
0000
,
0110
0000
0000
0000
0100
0000
0001
0000
1000
0100
0010
0100
2000
0000
0100
0000
,
3001
0000
0000
0100
0010
0000
0010
0000
1000
0000
0001
0000
0010
0000
0010
0100
,
1000
0000
0000
0001
0100
0000
0100
0010
1000
0000
1002
0000
0000
0000
0000
0000
,
0013
0001
0010
0001
1000
0010
0100
0001
0100
0001
1000
0100
0010
0001
0010
0001
,
M100
0000
0000
0000
0000
0000
0000
0000
0001
0000
0100
0010
1000
0000
0010
1000
,
0100
0000
0000
0000
1000
0000
0001
0020
0001
0030
001M
2000
0000
0000
3001
0000
,
0101
0000
0000
0000
1010
0000
1000
0001
0020
0100
0000
2030
0000
0000
3010
0100
,
1000
0000
0001
0010
0001
0000
0100
0000
0010
0000
1000
0100
1000
0000
0010
0000
,
0001
0000
1000
0100
0010
0100
0001
0000
0000
0000
1001
0000
0000
0000
1000
0100
,
0020
0000
0100
0000
0031
0000
1000
0000
0010
0000
0010
0100
0000
0000
0001
0000
,
0020
0000
0100
0000
0031
0000
0100
0000
2000
0000
3100
0010
0000
0000
1000
0000
,
0001
0000
0010
0001
0010
0100
0000
2000
0000
0000
3001
0000
0001
0000
0100
0010
,
1000
0000
0000
0001
0010
0000
0000
0100
1000
0000
0100
0010
0001
0000
0010
0001
,
0100
0000
0001
0000
0001
0000
1000
0020
1000
0030
M010
0002
0000
0000
1003
0000
,
2100
0000
3001
0000
2100
0000
3001
0000
0100
0000
0100
0010
0000
0000
0100
0000
,
0001
0000
1000
0010
1000
0000
0100
0000
0010
0000
0001
0100
0001
0000
0010
0000
,
1000
0000
0001
0100
0010
0100
1000
0000
0001
0000
0000
0000
0101
0000
0100
0010
,
2000
0000
3001
0000
2010
0000
3001
0000
0010
0000
0010
0100
0000
0000
0010
0000
,
0002
0000
0100
0000
1003
0000
0001
0000
0100
0000
0100
0010
0000
0000
1000
0000
,
1100
0000
0100
0000
0010
0000
0100
0000
1000
0001
0000
0002
0000
0000
0103
0000
,
0010
0100
0001
0010
0000
0010
0000
1001
0000
0001
0100
0000
0010
1000
0010
1000
,
0100
0000
1000
0001
0010
0100
0000
1200
,
0000
0001
0000
0310
0001
1000
0010
1000
,
0100
0000
1000
0001
0100
0010
0000
1020
,
0000
0000
0001
0000
0000
0000
0130
0000
0002
0000
0010
0000
2003
3000
0100
0000
,
0010
0000
0100
0000
1100
0000
1000
0000
0001
0100
0010
0100
0000
0001
1000
0100
,
0010
0000
0001
0000
0101
0000
0100
0000
0010
1000
0001
1000
0100
0010
0100
0010
,
0001
0100
0000
0000
0110
0000
0010
0000
1000
0100
0000
0010
0000
0010
0001
0100
,
0020
0000
1000
0000
0000
0000
0030
M000
0020
0000
0001
0000
0000
0000
0030
000M
1010
0000
0000
0000
0100
0000
0000
0000
0100
0000
0000
0000
0000
0000
0000
0000
;
