#VERSION:0.83;
#TITLE:Turning the motor over;
#SUBTITLE:;
#ARTIST:Delaware feat. Jeff Coote;
#TITLETRANSLIT:;
#SUBTITLETRANSLIT:;
#ARTISTTRANSLIT:;
#GENRE:;
#CREDIT:;
#MUSIC:Turning the motor over.ogg;
#BANNER:;
#BACKGROUND:;
#CDTITLE:;
#SAMPLESTART:37.163;
#SAMPLELENGTH:15.000;
#SELECTABLE:YES;
#OFFSET:0.590;
#BPMS:0.000=178.000;
#STOPS:;
#BGCHANGES:;
#FGCHANGES:;

//--------------- dance-single - eataninja ----------------
#NOTEDATA:;
#STEPSTYPE:dance-single;
#DESCRIPTION:eataninja;
#DIFFICULTY:Beginner;
#METER:4;
#RADARVALUES:0,0,0,0,0;
#NOTES:
0000
0000
0000
0000
,
0000
0000
0000
0000
,
0000
0000
0000
0000
,
0000
0000
0000
0000
,
0000
0000
0000
0000
,
0000
0000
0000
0000
,
0000
1000
0000
0001
,
0000
1000
0000
0010
,
0000
1000
0000
0001
,
0000
0010
0000
0100
,
0100
0000
1000
0000
,
0001
0000
0000
0000
,
0100
0000
0001
0000
,
0010
0000
0000
0000
,
0100
0000
0010
0000
,
0001
0000
0001
0000
,
1000
0000
0010
0000
,
0100
0000
0000
0000
,
0110
0000
0100
0000
,
0110
0000
0010
0000
,
1000
0000
0001
0000
,
0010
0000
0000
0000
,
0110
0000
0010
0000
,
0110
0000
0100
0000
,
1000
0000
0010
0000
,
0100
0000
0000
0000
,
0000
0000
0000
0000
,
0000
0000
0000
0000
,
0001
0000
1000
0000
,
0001
0001
0001
0000
,
0010
0000
0100
0000
,
1000
1000
1000
0000
,
0001
0000
1000
0000
,
0001
0001
0001
0000
,
0100
0000
0010
0000
,
1000
1000
1000
0000
,
1001
0000
0000
0000
,
0001
0000
0000
0000
,
0010
0000
0100
0000
,
1000
0000
0000
0000
,
1001
0000
0000
0000
,
1000
0000
0000
0000
,
0010
0000
0100
0000
,
0001
0000
0000
0000
,
1000
0000
0100
0000
,
0010
0000
0001
0000
,
1000
1000
1000
0000
,
0010
0000
0100
0000
,
0001
0000
0100
0000
,
0010
0000
1000
0000
,
0001
0001
0001
0000
,
0010
0000
0100
0000
,
0001
0000
0100
0000
,
0001
0000
0100
0000
,
1000
0000
0100
0000
,
1000
0000
0000
0000
0001
0000
0000
0100
;

//--------------- dance-single - eataninja ----------------
#NOTEDATA:;
#STEPSTYPE:dance-single;
#DESCRIPTION:eataninja;
#DIFFICULTY:Easy;
#METER:7;
#RADARVALUES:0,0,0,0,0;
#NOTES:
0000
0000
0000
0000
,
0000
0000
0000
0000
,
0000
0000
0000
0000
,
0000
0000
0000
0000
,
0000
0000
0000
0000
,
0000
0000
0000
0000
,
1000
0100
1100
0001
,
1000
0010
0100
0010
,
1000
0001
0011
1000
,
0100
0001
0010
1000
,
1001
0000
0001
0000
,
0100
1000
0100
0000
,
0010
0100
0001
0000
,
0010
0100
1000
0000
,
1001
0000
0001
0000
,
0010
1000
0010
0000
,
0100
0010
0001
1000
,
0010
0000
0000
0000
,
1010
0000
0101
0000
,
0100
0001
1000
0000
,
0100
0001
0100
1000
,
0001
0000
0000
0000
,
0011
0000
1100
0000
,
1000
0001
0100
0000
,
1000
0010
0001
0100
,
1000
0100
0001
0100
,
0000
0000
0000
0000
,
0000
0000
0000
0110
,
0010
1000
0100
0001
,
0010
0001
0100
1000
,
0001
1000
0001
0001
,
0100
0010
0100
0001
,
0010
0001
0100
1000
,
0010
1000
0100
0001
,
1000
0001
1000
1000
,
0100
0001
0010
1000
,
1001
0000
0110
0000
,
0100
0000
0000
0100
0000
0000
0000
0000
,
0001
1000
0001
0010
,
1000
0010
0001
1000
,
0010
0000
0000
0000
0000
0100
0000
0000
,
0001
0000
1000
0000
0000
1001
0000
0000
,
1000
0100
0001
0100
,
0010
0010
0001
0001
,
1000
0010
1010
0001
,
1000
0100
0010
0000
,
0001
1000
1001
0000
,
1000
0010
0100
0001
,
1000
0001
0011
1000
,
0010
0100
0010
0000
,
1000
0001
1001
0000
,
0001
0010
1000
0100
,
0001
0001
1000
1000
,
0100
0100
1000
1000
,
0001
0001
1000
1000
,
0010
0000
0010
0000
0100
0000
0000
1001
;

//--------------- dance-single - eataninja ----------------
#NOTEDATA:;
#STEPSTYPE:dance-single;
#DESCRIPTION:eataninja;
#DIFFICULTY:Medium;
#METER:9;
#RADARVALUES:0,0,0,0,0;
#NOTES:
0000
0000
0000
0000
,
0000
0000
0000
0000
,
0000
0000
0000
0000
,
0000
0000
0000
0000
,
0000
0000
0000
0000
,
0000
0000
0000
0000
,
1000
1100
0011
0001
,
1000
0000
0010
0000
0001
0010
0000
0100
,
0001
0101
1010
1000
,
0001
0010
0000
1000
0000
0100
0000
0001
,
0000
1001
1100
0001
,
1000
0010
0000
0100
0000
0010
0000
0000
,
1000
1001
0101
1000
,
0001
0010
0000
1000
0000
0010
0000
0000
,
0100
0110
1001
1000
,
0010
0001
0000
0010
0000
0100
0000
0001
,
1000
0000
0100
0000
0001
0100
0000
0010
,
0000
0000
0001
0000
1000
0010
1000
0000
,
1001
0000
0110
0000
,
0100
0000
0001
1000
0000
0001
1000
0000
,
0100
0000
0001
0000
0100
0010
0100
0000
,
1000
0000
0001
0000
0100
0010
1000
0000
,
1001
0000
0110
0000
,
0010
0000
1000
0001
0000
1000
0001
0000
,
0010
1000
0100
0001
,
0010
0000
0100
0001
0000
0100
1000
0000
,
0000
0010
0000
0010
0000
0010
0000
0010
,
0000
0010
0000
0010
0000
0010
0100
0000
,
0001
0101
1100
1010
,
0001
1000
0000
0100
0000
0001
0100
0000
,
1000
0001
0101
1010
,
1000
0100
0000
0001
0000
0100
1000
0000
,
0001
0011
1010
1100
,
0001
1000
0000
0010
0000
0001
0010
0000
,
1000
0001
0011
1100
,
0100
0001
0000
0010
0000
1000
0000
0100
,
0010
0000
0001
0000
1000
0010
1000
0000
,
0001
0000
0000
1001
0000
0000
0000
0000
,
1000
0010
0000
0000
1000
0100
0010
0000
,
0001
1000
0001
0000
1000
0100
1000
0000
,
0001
0000
1000
0000
0010
0100
0000
0001
,
1000
0000
1001
0000
0000
0001
0010
0100
,
1000
1000
0001
0001
,
1000
0010
1000
0000
0001
0100
0001
0000
,
1000
0000
0100
0001
0100
0000
0000
0010
,
0001
1000
0000
0001
0000
0100
0000
0000
,
0010
0100
0001
0000
0101
0000
1000
0001
,
0000
1000
0000
0100
0000
0001
0000
0100
,
0010
0000
0001
1000
0001
0000
0000
1000
,
0010
0100
0000
0010
0000
0000
0000
1000
,
0001
0011
1100
0101
,
0100
1000
0000
0010
0000
0001
0000
0100
,
0010
1000
0010
0000
0100
0001
0100
0000
,
0001
0010
0001
0000
1000
0100
1000
0000
,
0001
1000
0001
0000
1000
0010
1000
0000
,
0001
0100
0001
0000
1000
0001
0100
1000
;

//--------------- dance-single - eataninja ----------------
#NOTEDATA:;
#STEPSTYPE:dance-single;
#DESCRIPTION:eataninja;
#DIFFICULTY:Hard;
#METER:12;
#RADARVALUES:0,0,0,0,0;
#NOTES:
0000
0000
0000
0000
,
0000
0000
0000
0000
,
0000
0000
0000
0000
,
0000
0000
0000
0000
,
0000
0000
0000
0000
,
0000
0000
0000
0000
,
1000
0100
0001
0000
1100
0000
0001
1000
,
0010
1000
0100
0000
0001
0100
0000
1000
,
0001
0100
1000
0000
0101
0000
1010
0000
,
1000
0100
0000
0001
0000
0010
0000
1000
,
0100
0000
0110
0010
0001
0000
1000
0010
,
0100
0010
0000
1001
0000
0001
0010
0100
,
1000
0000
1001
0001
0100
0000
0010
1000
,
0100
0001
0000
1000
0000
0010
0100
1000
,
0001
0000
0101
0100
0010
0000
1000
0001
,
1000
0010
0000
0001
0000
0010
1000
0010
,
0100
0000
1001
0000
0001
0010
1000
0001
,
0000
0100
0000
1000
0001
1000
1000
0010
,
0100
0000
0110
0100
0001
0000
0110
0010
,
1000
0000
0001
0010
0100
1000
0001
0000
,
1000
0010
0001
0010
0000
0100
0001
1000
,
0000
0100
0010
0001
1000
0010
0100
0100
,
0001
0000
1001
1000
0100
0000
1001
0001
,
0100
0000
0010
1000
0010
1000
0001
0000
,
0010
1000
0001
0100
0000
1000
0010
0001
,
1000
0100
0100
0010
0100
0100
0001
1000
,
0100
0010
0000
0010
0000
0010
0000
0010
,
0000
0010
0000
0010
0000
0010
1001
0000
,
0001
0100
1000
0000
1100
0000
1000
0010
,
0001
0100
0000
0001
0000
0010
0100
0000
,
1000
0100
0001
0000
0110
0000
1000
1000
,
0001
0100
0000
0110
0000
0010
1000
0000
,
1000
0100
0001
0000
0101
0000
0001
0010
,
1000
0100
0000
1000
0000
0010
0100
0000
,
0001
0100
1000
0000
0110
0000
0001
0001
,
1000
0100
0000
0001
0000
0010
0000
1000
,
1001
0000
0001
0010
0100
1000
0010
0000
,
0110
0000
0100
1001
0000
1000
1000
0000
,
0001
0010
0000
0001
0010
1000
0010
0000
,
0100
1000
0001
0001
1000
0010
0100
0100
,
0001
1000
0000
0011
0000
0001
1000
0010
,
0100
0000
1001
0000
0001
0010
1000
0001
,
0100
0000
1000
0001
0100
0000
1000
0100
,
0010
0100
0010
1000
1000
0001
0001
0010
,
0100
0000
1000
0001
1001
0000
0001
0100
,
1000
0100
0000
0010
0000
0100
0001
0000
,
1000
0100
1100
0000
0011
0000
0001
0100
,
0000
1000
0000
0010
0000
0001
0000
0100
,
0010
0000
1000
0001
1001
0000
0001
0010
,
1000
0010
0000
0100
0000
0010
0001
0000
,
1000
0010
0001
0000
0110
0000
1001
0000
,
0001
0010
0000
1000
0000
0100
0000
0001
,
1000
0100
1000
0100
0010
0001
0010
0001
,
0100
0001
0100
0001
1000
0010
1000
0000
,
0001
0100
0001
0100
0010
1000
0010
1000
,
0001
0010
0001
0010
0100
1000
0100
0001
;
