#TITLE:Tree in Lake;
#SUBTITLE:~消えたチチカカの木~;
#ARTIST:猫叉Master;
#TITLETRANSLIT:;
#SUBTITLETRANSLIT:~kieta Titicaca no ki~;
#ARTISTTRANSLIT:Nekomata Master;
#GENRE:CONTEMPORARY NATION 4;
#CREDIT:;
#BANNER:Tree in Lake.png;
#BACKGROUND:Tree in Lake-bg.png;
#LYRICSPATH:;
#CDTITLE:;
#MUSIC:Tree in Lake.ogg;
#OFFSET:-0.770000;
#SAMPLESTART:58.393375;
#SAMPLELENGTH:11.999998;
#SELECTABLE:YES;
#BPMS:0.000000=100.000000
;
#STOPS:
;
#BGCHANGES:0.000=Tree in Lake.mp4=1.000=0=0=0=StretchNoLoop====,
99999=-nosongbg-=1.000=0=0=0 // don't automatically add -songbackground-
;
#KEYSOUNDS:;
#ATTACKS:;

//---------------dance-single - ----------------
#NOTES:
     dance-single:
     :
     Hard:
     13:
     0.532603,0.587262,0.186856,0.373712,0.805260,419.000000,398.000000,21.000000,42.000000,0.000000,0.000000,0.532603,0.587262,0.186856,0.373712,0.805260,419.000000,398.000000,21.000000,42.000000,0.000000,0.000000:
0000
0000
0000
0000
,
0000
0000
0000
0000
,
0000
0000
0000
0000
,
0000
0000
0000
0000
0000
0000
0001
0100
0010
0000
0100
0010
1000
0000
0010
1000
,
0200
0300
0300
0000
0000
0000
0000
0000
0200
0300
0300
0000
0000
0000
0000
0000
0001
0000
0000
0000
0000
0000
0000
0000
1000
0000
0000
0000
0100
0000
0000
0000
0010
0000
0000
0000
0000
0000
0000
0000
0100
0000
0000
0000
0010
0000
0000
0000
0001
0000
0000
0000
0000
0000
0000
0000
0010
0000
0000
0000
0001
0000
0000
0000
,
0200
0300
0300
0000
0000
0000
0000
0000
0200
0300
0300
0000
0000
0000
0000
0000
1000
0000
0000
0000
0001
0000
0000
0000
1000
0000
0000
0000
0010
0000
0000
0000
0100
0000
0000
0000
0000
0000
0000
0000
0001
0000
0000
0000
0100
0000
0000
0000
0010
0000
0000
0000
0000
0000
0000
0000
1000
0000
0000
0000
0100
0000
0000
0000
,
0020
0030
0030
0000
0000
0000
0000
0000
0020
0030
0030
0000
0000
0000
0000
0000
1000
0000
0000
0000
0000
0000
0000
0000
0001
0000
0000
0000
0010
0000
0000
0000
0200
0000
0000
0000
0000
0000
0000
0000
0000
0000
0000
0000
0001
0000
0000
0000
0000
0000
0000
0000
0000
0000
0000
0000
1300
0000
0000
0000
0000
0000
0000
0000
,
1000
0000
0010
0000
1000
0100
0010
0001
1000
0000
0010
0000
0100
0000
0001
1000
,
0001
0000
1000
0000
0100
0000
0010
0001
0010
0000
0001
0000
1000
0000
0001
0100
,
0010
0000
1000
0000
0001
0000
1000
0100
0010
0000
0001
0000
0100
0000
0100
0000
,
0020
0000
0000
0000
0000
0000
1030
0001
1030
0000
0000
0000
0001
0000
0000
0000
0100
0000
0000
0000
0000
0000
0010
0000
0100
0000
0000
0000
0001
0000
0000
0000
,
1000
0000
0001
0000
0011
0000
0110
0000
1001
0000
1000
0000
0100
0000
0010
0010
,
0001
0000
1000
0000
0001
0000
0100
0100
0010
0000
1000
0000
1000
0000
0001
0001
,
0010
0000
0100
0000
1000
0000
0010
0010
0100
0000
0001
0000
0010
0000
0010
0000
,
0200
0000
0000
0000
0000
0000
1300
0001
1300
0000
0000
0000
0010
0000
0000
0000
0100
0000
0000
0000
0001
0000
0000
0000
1000
0000
0000
0000
0100
0000
0010
0001
,
0010
0030
0001
0000
1000
0000
0010
0100
0001
0000
1000
0100
0000
0000
1000
0000
,
1000
0000
0001
0100
0000
0000
0001
0000
1000
0000
0001
0010
0000
0010
0100
0000
,
1000
0000
0001
0100
0010
0000
0010
0000
1000
0000
0001
0100
0000
0000
0001
0000
,
0001
0000
0000
0000
0000
0000
1000
0000
0000
0100
0000
0000
0000
0000
0000
0000
0000
0000
1000
0000
0000
0001
0000
0000
1000
0000
0000
0000
0000
0000
0010
0000
0000
0000
0000
0000
1000
0000
0000
0000
0100
0000
0000
0000
0010
0000
0000
0000
,
0001
0000
1000
0001
0010
0100
1000
0001
1000
0000
0001
0100
0000
0000
0101
0000
,
0001
0000
1000
0100
0000
0000
1100
0000
0001
0000
1000
0010
0000
0010
0100
0000
,
0001
0000
0000
0000
1000
0000
0000
0000
0100
0000
0000
0000
0010
0000
0001
1000
0001
0000
0000
0000
0000
0000
1000
0000
0010
0000
0000
0000
1000
0000
0000
0000
,
0001
0000
0000
0001
0010
0000
0001
0000
2000
0000
3310
0000
3002
0000
0013
0000
,
1000
0100
0010
0001
0100
0010
0100
0010
0000
0000
0100
0000
1001
0000
1001
0000
,
0101
0000
0000
0000
0000
0000
0000
0000
1000
0000
0000
0000
0100
0000
0000
0000
0010
0000
0000
0000
0000
0000
0000
0000
0001
0000
0000
0000
0100
0000
0000
0000
0020
0030
0030
0000
0000
0000
0000
0000
0020
0030
0030
0000
0000
0000
0000
0000
0001
0000
0000
0000
0000
0000
0000
0000
1000
0000
0000
0000
0001
0000
0000
0000
,
0100
0000
0000
0000
0000
0000
0000
0000
0001
0000
0000
0000
0010
0000
0000
0000
0100
0000
0000
0000
0000
0000
0000
0000
1000
0000
0000
0000
0001
0000
0000
0000
0200
0300
0300
0000
0000
0000
0000
0000
0200
0300
0300
0000
0000
0000
0000
0000
1000
0000
0000
0000
0100
0000
0000
0000
0010
0000
0000
0000
0001
0000
0000
0000
,
1000
0000
0000
0000
0000
0000
0000
0000
0001
0000
0000
0000
0100
0000
0000
0000
0010
0000
0000
0000
0000
0000
0000
0000
1000
0000
0000
0000
0100
0000
0000
0000
0020
0030
0030
0000
0000
0000
0000
0000
0020
0030
0030
0000
0000
0000
0000
0000
1000
0000
0000
0000
0000
0000
0000
0000
0001
0000
0000
0000
0100
0000
0000
0000
,
0020
0000
0000
0000
0130
0000
0001
1000
0001
0000
1000
0100
0001
0000
0100
0010
,
0200
0300
0300
0000
0000
0000
0000
0000
0200
0300
0300
0000
0000
0000
0000
0000
0001
0000
0000
0000
0000
0000
0000
0000
1000
0000
0000
0000
0001
0000
0000
0000
1000
0000
0000
0000
0000
0000
0000
0000
0001
0000
0000
0000
0100
0000
0000
0000
1000
0000
0000
0000
0000
0000
0000
0000
0100
0000
0000
0000
0010
0000
0000
0000
,
0200
0300
0300
0000
0000
0000
0000
0000
0200
0300
0300
0000
0000
0000
0000
0000
1000
0000
0000
0000
0010
0000
0000
0000
0100
0000
0000
0000
0001
0000
0000
0000
1000
0000
0000
0000
0000
0000
0000
0000
0001
0000
0000
0000
0010
0000
0000
0000
1000
0000
0000
0000
0000
0000
0000
0000
0010
0000
0000
0000
0100
0000
0000
0000
,
0020
0030
0030
0000
0000
0000
0000
0000
0020
0030
0030
0000
0000
0000
0000
0000
1000
0000
0000
0000
0000
0000
0000
0000
0001
0000
0000
0000
0100
0000
0000
0000
0020
0000
0000
0000
0000
0000
0000
0000
0000
0000
0000
0000
0001
0000
0000
0000
0000
0000
0000
0000
0000
0000
0000
0000
1030
0000
0000
0000
0000
0000
0000
0000
,
0001
0000
0000
0000
0000
0000
0000
0000
0010
0000
0000
0000
0000
0000
0000
0000
1001
0000
0000
0000
0000
0000
0000
0000
1001
0000
0000
0000
0000
0000
0000
0000
1000
0000
0000
0000
0200
0300
0300
0000
0000
0000
0000
0000
0200
0300
0300
0000
0001
0000
0000
0000
1000
0000
0000
0000
0001
0000
0000
0000
0000
0000
0000
0000
,
1000
0000
0000
0000
0100
0000
0000
0000
0010
0000
0000
0000
0001
0000
0000
0000
0100
0000
0000
0000
0000
0000
0000
0000
0101
0000
0000
0000
0000
0000
0000
0000
0001
0000
0000
0000
0020
0030
0030
0000
0000
0000
0000
0000
0020
0030
0030
0000
1000
0000
0000
0000
0001
0000
0000
0000
1000
0000
0000
0000
0000
0000
0000
0000
,
0001
0000
0000
0000
0010
0000
0000
0000
0100
0000
0000
0000
1000
0000
0000
0000
0010
0000
0000
0000
0000
0000
0000
0000
1010
0000
0000
0000
0000
0000
0000
0000
1000
0000
0000
0000
0200
0300
0300
0000
0000
0000
0000
0000
0200
0300
0300
0000
0010
0000
0000
0000
1000
0000
0000
0000
0010
0000
0000
0000
0000
0000
0000
0000
,
1000
0000
0100
0000
0010
0000
0001
0000
0100
0000
0000
0000
0001
0000
0010
0000
0200
0000
0000
0000
0000
0000
1300
0001
1000
0000
0000
0000
0010
0000
0000
0000
,
1010
0000
0000
0000
0000
0000
0000
0000
1000
0000
0000
0000
0200
0300
0000
0000
0200
0300
0000
0000
0001
0000
0000
0000
0010
0000
0000
0000
0000
0000
0000
0000
0011
0000
0000
0000
0000
0000
0000
0000
0001
0000
0000
0000
0200
0300
0000
0000
0200
0300
0000
0000
1000
0000
0000
0000
0010
0000
0000
0000
0000
0000
0000
0000
,
1010
0000
0000
0000
0000
0000
0000
0000
1000
0000
0000
0000
0200
0300
0000
0000
0200
0300
0000
0000
0001
0000
0000
0000
1000
0000
0000
0000
0000
0000
0000
0000
1001
0000
0000
0000
0000
0000
0000
0000
0110
0000
0000
0000
0000
0000
0000
0000
1001
0000
0000
0000
0000
0000
0000
0000
0001
0000
0000
0000
1000
0000
0000
0000
,
0001
0000
0000
0000
0020
0030
0030
0000
0000
0000
0000
0000
0020
0030
0030
0000
0100
0000
0000
0000
0001
0000
0000
0000
0100
0000
0000
0000
0000
0000
0000
0000
0001
0000
0000
0000
0010
0000
0000
0000
0100
0000
0000
0000
1000
0000
0000
0000
0010
0000
0000
0000
0000
0000
0000
0000
1000
0000
0000
0000
0100
0000
0000
0000
,
0020
0000
0000
1000
0000
0000
0031
0000
0001
0000
1000
0000
0001
0010
0100
1000
,
0001
0000
0000
0001
0000
0000
0000
0000
0100
0000
0000
0100
0000
0000
0001
0010
,
0100
0000
0000
0100
0000
0000
0000
0000
1000
0000
0000
1000
0000
0000
0001
1000
,
0010
0000
0000
0010
0000
0000
0010
0000
0100
0000
0000
0100
0000
0000
0001
1000
,
0001
0000
0010
0000
0001
0010
0100
0000
1100
0000
0010
0000
1001
0000
1001
0000
,
0000
0000
0000
0000
0000
0200
0000
0000
0000
0000
0000
0000
0000
0000
0000
0000
,
0300
0000
0000
0000
;

//---------------dance-single - ----------------
#NOTES:
     dance-single:
     :
     Medium:
     8:
     0.294902,0.371932,0.088979,0.186856,0.182407,232.000000,222.000000,10.000000,21.000000,0.000000,0.000000,0.294902,0.371932,0.088979,0.186856,0.182407,232.000000,222.000000,10.000000,21.000000,0.000000,0.000000:
0000
0000
0000
0000
,
0000
0000
0000
0000
,
0000
0000
0000
0000
,
0000
0000
0000
1000
0100
0000
0100
0000
,
1000
0001
0100
0100
0010
0000
0010
0000
,
1000
0100
0010
0010
0001
0000
0001
0000
,
1000
0001
0100
0100
0020
0000
0100
0000
,
1030
0000
0001
0000
1000
0000
0100
0000
1100
0000
0000
0000
0000
0000
0010
0001
,
0000
0000
0000
0000
0000
0000
0001
0100
0000
0000
0000
0000
0000
0000
0100
0010
,
0000
0000
0000
0000
0000
0000
0010
1000
0000
0000
0000
0000
0001
0000
0001
0000
,
0001
0000
0000
1000
0100
0000
0000
0000
2002
0000
0000
0000
3003
0000
0000
0000
,
1000
0000
0001
0000
0100
0000
0100
0000
0001
0000
0000
0000
0000
0000
1000
0100
,
0000
0000
0000
0000
0000
0000
0010
0001
0000
0000
0000
0000
0000
0000
1000
0010
,
0000
0000
0000
0000
0000
0000
0100
0001
0000
0000
0000
0000
0100
0000
0100
0000
,
0020
1030
2002
3003
,
0001
0000
0010
0000
0100
0000
0000
0000
1000
0000
0000
1000
0000
0000
0000
0000
,
0100
0000
0000
0100
0000
0000
0000
0000
0010
0000
0000
0010
0000
0000
0000
0000
,
0001
0000
0000
0001
0000
0000
0000
0000
1000
0000
0000
1000
0000
0000
0000
0000
,
0001
0000
0000
0001
0000
0000
0000
0000
0100
0000
0000
0000
0100
0000
0010
0000
,
1000
0001
2001
3100
,
1002
0103
2001
3010
,
1002
0013
2002
3003
,
0001
0010
0100
0000
1000
0100
0010
0001
,
1000
0000
0010
0000
0100
0000
0001
1000
0000
0000
0000
0000
0000
0000
0000
0000
,
0001
0000
0100
0001
0100
0000
0001
0100
0001
0000
1000
0000
0001
0000
0000
0000
,
1000
0000
0100
1000
0100
0000
1000
0100
1000
0000
0001
0000
1000
0000
0000
0000
,
0001
0000
1000
0010
1000
0000
0010
1000
0010
0000
1000
0000
0001
0000
0000
0000
,
2000
0000
0000
0000
3002
0000
0000
0000
0013
0000
0001
0010
0001
0000
0010
0001
,
0010
0000
0100
0000
0100
0000
0000
0000
1000
0000
0100
1000
0100
0000
1000
0100
,
1000
0000
0100
0000
0100
0000
0000
0000
1000
0000
0010
1000
0010
0000
1000
0010
,
1000
0010
0010
0000
2000
0000
3001
0000
,
0002
0000
0000
0000
0013
0000
0100
0000
1000
0001
0000
0001
1000
0000
0001
0000
,
0100
0000
0100
0000
0100
0000
0000
0000
0001
1000
0000
1000
0001
0000
1000
0000
,
0100
0000
0100
0000
0100
0000
0000
0000
1000
0001
0000
0001
1000
0000
0001
0000
,
0010
0010
0010
0000
0002
0000
2003
0000
,
3010
0000
0000
0010
0000
0000
0100
0000
0010
0000
0000
0010
0000
0000
1000
0000
,
0100
0000
0000
0100
0000
0000
0010
0000
0001
0000
0001
0000
1000
0000
0000
0000
,
0001
0100
0010
1000
0100
0100
0100
0010
,
0002
0000
1000
0000
2003
0000
3010
0100
,
0010
0000
0000
0000
0000
0000
0000
0000
0000
0000
0000
0000
0000
0000
1000
0100
,
0000
0000
0000
0000
0000
0000
0000
0000
0000
0000
0000
0000
0000
0000
0010
0001
,
0000
0000
0000
0000
0000
0000
0000
0000
0000
0000
0000
0000
0000
0000
1000
0001
,
0000
0000
0000
0000
0100
0000
1001
1001
,
0000
0000
0000
0000
0000
0200
0000
0000
0000
0000
0000
0000
0000
0000
0000
0000
,
0300
0000
0000
0000
;

//---------------dance-single - ----------------
#NOTES:
     dance-single:
     :
     Easy:
     6:
     0.186856,0.215329,0.044490,0.088979,0.004449,147.000000,142.000000,5.000000,10.000000,0.000000,0.000000,0.186856,0.215329,0.044490,0.088979,0.004449,147.000000,142.000000,5.000000,10.000000,0.000000,0.000000:
0000
0000
0000
0000
,
0000
0000
0000
0000
,
0000
0000
0000
0000
,
0000
0000
1000
1000
,
1000
0100
0010
0000
0001
0000
0001
0000
,
0001
0100
0010
0000
1000
0000
1000
0000
,
1000
0010
0100
0000
0002
0000
0003
0000
,
2000
3000
1001
0000
,
0001
0000
0010
0000
,
0100
0000
0000
0000
1000
0000
0010
0010
,
0010
0010
0100
0000
,
0001
1000
1001
0000
,
1000
0000
0100
0000
,
0010
0000
0000
0000
0001
0000
1000
1000
,
1000
1000
0010
0000
,
0100
0000
0001
0001
,
0100
0000
0100
0000
0010
0000
0000
1000
,
1000
0001
1000
0000
,
1000
0100
0010
0000
,
0010
0001
1001
1000
,
0001
0001
0100
0100
,
0010
0010
1000
0000
,
0000
0000
0000
0001
0001
0000
0010
0000
,
0100
0100
0000
0000
,
1000
0100
1000
0000
0100
0000
0100
0000
,
0010
0001
0010
0000
0001
0000
0001
0000
,
1000
0010
1000
0000
0010
0000
0010
0000
,
0200
0000
0300
0000
0001
0001
0001
0000
,
0100
0000
0100
0000
0010
0010
0010
0000
,
1000
0000
1000
0000
0001
0001
0001
0000
,
0010
0010
0200
0300
,
2000
3000
0001
0100
,
0010
0010
0010
0000
1000
0000
0100
0000
,
0010
0010
0010
0000
0001
0000
1000
0000
,
0010
0010
0010
0000
2000
0000
3002
0000
,
1003
0000
1001
0000
,
0001
0000
0000
0000
1000
0001
1000
0000
,
0001
0000
0100
0000
0010
0010
0010
0000
,
0200
0300
0020
0030
,
1001
0000
0000
0000
0000
0000
0000
1000
,
1000
0000
0000
0000
0000
0000
0000
0100
,
0100
0000
0000
0000
0000
0000
0000
0010
,
0010
0000
0000
0000
0001
0000
1000
0001
,
0000
0000
0000
0000
0000
0200
0000
0000
0000
0000
0000
0000
0000
0000
0000
0000
,
0300
0000
0000
0000
;

//---------------dance-single - ----------------
#NOTES:
     dance-single:
     :
     Beginner:
     3:
     0.122028,0.156603,0.053387,0.062285,0.004449,96.000000,90.000000,6.000000,7.000000,0.000000,0.000000,0.122028,0.156603,0.053387,0.062285,0.004449,96.000000,90.000000,6.000000,7.000000,0.000000,0.000000:
0000
0000
0000
0000
,
0000
0000
0000
0000
,
0000
0000
0000
0000
,
0000
0000
1000
0000
,
1000
0000
0010
0000
,
0010
0000
0100
0000
,
0100
0000
0002
0003
,
2000
3000
1001
0000
,
0001
0000
0010
0000
,
0100
0000
1000
1000
,
1000
0000
1000
0000
,
0000
0000
1001
0000
,
1000
0000
0010
0000
,
0100
0000
0001
0001
,
0001
0000
0001
0000
,
0000
0000
1000
0000
,
1000
0000
0100
0000
,
0100
0000
0010
0000
,
0000
0010
0010
0000
,
0001
0000
1000
0000
,
0001
0000
0100
0000
,
0100
0000
0010
0000
,
0000
0000
1000
1000
,
1000
1000
0000
0000
,
1001
0000
0001
0001
,
0100
0000
0100
0100
,
0010
0000
0010
0010
,
2000
3000
1001
0000
,
1000
1000
0100
0000
,
0100
0100
0010
0000
,
0010
0010
0002
0003
,
2000
3000
0001
0001
,
0100
0100
0001
0000
,
0001
0000
1000
1000
,
0100
0100
2000
3000
,
1001
0000
0010
0000
,
1001
0000
0010
0010
,
0010
0000
0001
0001
,
0001
0000
1000
0000
,
0010
0000
0000
0000
,
0100
0000
0000
0000
,
0001
0000
0000
0000
,
1000
0000
0010
0010
,
0000
0000
0000
0000
0000
0200
0000
0000
0000
0000
0000
0000
0000
0000
0000
0000
,
0300
0000
0000
0000
;

//---------------dance-double - ----------------
#NOTES:
     dance-double:
     :
     Hard:
     13:
     0.507181,0.587262,0.142366,0.409304,0.685139,399.000000,383.000000,16.000000,46.000000,0.000000,0.000000,0.507181,0.587262,0.142366,0.409304,0.685139,399.000000,383.000000,16.000000,46.000000,0.000000,0.000000:
// measure 0
00000000
00000000
00000000
00000000
,  // measure 1
00000000
00000000
00000000
00000000
,  // measure 2
00000000
00000000
00000000
00000000
,  // measure 3
00000000
00000000
00000000
00000000
00000000
00000000
00001000
00100000
00001000
00000000
00010000
00000010
00010000
00000000
00001000
00010000
,  // measure 4
00002000
00003300
00000000
00000000
00000000
00000000
00000000
00000000
00002000
00003000
00000000
00000000
00000000
00000000
00000000
00000000
00000100
00000000
00000000
00000000
00000000
00000000
00000000
00000000
00010000
00000000
00000000
00000000
00000010
00000000
00000000
00000000
00010000
00000000
00000000
00000000
00000000
00000000
00000000
00000000
00001000
00000000
00000000
00000000
00100000
00000000
00000000
00000000
00001000
00000000
00000000
00000000
00000000
00000000
00000000
00000000
00010000
00000000
00000000
00000000
00001000
00000000
00000000
00000000
,  // measure 5
00020000
00030000
00030000
00000000
00000000
00000000
00000000
00000000
00020000
00030000
00000000
00000000
00000000
00000000
00000000
00000000
01000000
00000000
00000000
00000000
00000000
00000000
00000000
00000000
00001000
00000000
00000000
00000000
00100000
00000000
00000000
00000000
00010000
00000000
00000000
00000000
00000000
00000000
00000000
00000000
00100000
00000000
00000000
00000000
00001000
00000000
00000000
00000000
00010000
00000000
00000000
00000000
00000000
00000000
00000000
00000000
00000010
00000000
00000000
00000000
00010000
00000000
00000000
00000000
,  // measure 6
00002000
00003000
00000000
00000000
00000000
00000000
00000000
00000000
00002000
00003000
00000000
00000000
00000000
00000000
00000000
00000000
00000100
00000000
00000000
00000000
00000000
00000000
00000000
00000000
00001000
00000000
00000000
00000000
00000001
00000000
00000000
00000000
00000200
00000000
00000000
00000000
00000000
00000000
00000000
00000000
00000000
00000000
00000000
00000000
00001000
00000000
00000000
00000000
00000000
00000000
00000000
00000000
00000000
00000000
00000000
00000000
00000310
00000000
00000000
00000000
00000000
00000000
00000000
00000000
,  // measure 7
00001000
00000000
00000001
00000000
00001000
00000100
00010000
00001000
00100000
00000000
00010000
00000000
10000000
00000000
00100000
01000000
,  // measure 8
00100000
00000000
10000000
00000000
01000000
00000000
00100000
00001000
00100000
00000000
00001000
00000000
00010000
00000000
00000010
00000100
,  // measure 9
00000010
00000000
00001000
00000000
00000100
00000000
00010000
00000010
00010000
00000000
00001000
00000000
00100000
00000000
00100000
00000000
,  // measure 10
02000000
00000000
00000000
00000000
00000000
00000000
13000000
00010000
10000000
00000000
00000000
00000000
00100000
00000000
00000000
00000000
01000000
00000000
00000000
00000000
00000000
00000000
00010000
00000000
10000000
00000000
00000000
00000000
00010000
00000000
00000000
00000000
,  // measure 11
00100000
00000000
00001000
00000000
00010000
00000000
00000010
00000000
00001010
00000000
00001000
00000000
00000001
00000000
00000010
00000010
,  // measure 12
00000100
00000000
00010000
00000000
00001000
00000000
00100000
00100000
00010000
00000000
00010000
00000000
10000000
00000000
00100000
00100000
,  // measure 13
01000000
00000000
00010000
00000000
00100000
00000000
00001000
00001000
00010000
00300000
00000010
00000000
00000100
00000000
00000100
00000000
,  // measure 14
00000200
00000000
00000000
00000000
00000000
00000000
00000301
00001000
00000001
00000000
00000000
00000000
00000010
00000000
00000000
00000000
00000100
00000000
00000000
00000000
00010000
00000000
00000000
00000000
00001000
00003000
00000000
00000000
00000000
00000000
00010000
00001000
,  // measure 15
00010000
00000000
00001000
00000000
01000000
00000000
01010000
00000000
10000000
00000000
00000000
10000000
01000000
00000000
00100000
00000000
,  // measure 16
00010000
00000000
00000000
00010000
01000000
00000000
00100000
00000000
00020000
00000000
00000000
00000000
00000010
00000000
00001000
00000000
,  // measure 17
00030010
00000000
00000000
00010000
00000100
00000000
00000010
00000000
00000001
00000000
00000000
00001000
00000010
00000000
00000010
00000000
,  // measure 18
00001000
00000000
00000000
00000000
00000000
00000000
00000000
00000000
00000000
00000001
00000000
00000000
00000010
00000000
00000000
00000000
00000000
00000000
00000010
00000000
00000000
00000000
00000000
00000000
00000200
00000000
00000000
00000000
00000000
00000000
00000000
00000000
00000000
00000000
00000000
00000000
00010300
00000000
00000000
00000000
00001000
00000000
00000000
00000000
00000100
00000000
00000000
00000000
,  // measure 19
00000010
00000000
00001000
00000001
00001000
00000000
00000001
00000000
00000011
00000000
00000000
00000001
00000010
00000000
00000100
00000000
,  // measure 20
00001000
00000000
00000000
00001000
00000010
00000000
00001000
00000000
00000100
00000000
00010000
00000000
00001000
00000000
00100000
00000000
,  // measure 21
00010000
00000000
10000000
00010000
10000000
00000000
00100000
00000000
01000000
00000000
00000000
00010000
01000000
00000000
01000000
00000000
,  // measure 22
00010000
00000000
00000000
10000000
01000000
00000000
01000000
00000000
10000000
00000000
00100000
00000000
00010000
00000000
00100000
00000000
,  // measure 23
10000000
01000000
10000000
01000000
00100000
00001000
00100000
00001000
00000000
00000000
00010000
00000000
00010010
00000000
00101000
00000000
,  // measure 24
00011000
00000000
00000000
00000000
00000000
00000000
00000000
00000000
00010000
00000000
00000000
00000000
00000010
00000000
00000000
00000000
00001000
00000000
00000000
00000000
00000000
00000000
00000000
00000000
00000010
00000000
00000000
00000000
00010000
00000000
00000000
00000000
00000200
00000300
00000300
00000000
00000000
00000000
00000000
00000000
00000200
00000300
00000300
00000000
00000000
00000000
00000000
00000000
00000001
00000000
00000000
00000000
00000000
00000000
00000000
00000000
00001000
00000000
00000000
00000000
00000100
00000000
00000000
00000000
,  // measure 25
00000010
00000000
00000000
00000000
00000000
00000000
00000000
00000000
00000001
00000000
00000000
00000000
00000100
00000000
00000000
00000000
00000010
00000000
00000000
00000000
00000000
00000000
00000000
00000000
00001000
00000000
00000000
00000000
00000001
00000000
00000000
00000000
00000020
00000030
00000300
00000000
00000000
00000000
00000000
00000000
00000020
00000030
00000000
00000000
00000000
00000000
00000000
00000000
00001000
00000000
00000000
00000000
00000001
00000000
00000000
00000000
00000100
00000000
00000000
00000000
00000010
00000000
00000000
00000000
,  // measure 26
00010000
00000000
00000000
00000000
00000000
00000000
00000000
00000000
00001000
00000000
00000000
00000000
00100000
00000000
00000000
00000000
00010000
00000000
00000000
00000000
00000000
00000000
00000000
00000000
00100000
00000000
00000000
00000000
00001000
00000000
00000000
00000000
00020000
00030000
00000000
00000000
00000000
00000000
00000000
00000000
00020000
00030000
00000000
00000000
00000000
00000000
00000000
00000000
01000000
00000000
00000000
00000000
00000000
00000000
00000000
00000000
00100000
00000000
00000000
00000000
10000000
00000000
00000000
00000000
,  // measure 27
00020000
00000000
00000000
00000000
00130000
00001000
00010000
00001000
00010000
00000000
00001000
01000000
00010000
00000000
01000000
00001000
,  // measure 28
00200000
00300000
00300000
00000000
00000000
00000000
00000000
00000000
00200000
00300000
00300000
00000000
00000000
00000000
00000000
00000000
10000000
00000000
00000000
00000000
00000000
00000000
00000000
00000000
00010000
00000000
00000000
00000000
00100000
00000000
00000000
00000000
01000000
00000000
00000000
00000000
00000000
00000000
00000000
00000000
10000000
00000000
00000000
00000000
00100000
00000000
00000000
00000000
01000000
00000000
00000000
00000000
00000000
00000000
00000000
00000000
00010000
00000000
00000000
00000000
10000000
00000000
00000000
00000000
,  // measure 29
02000000
03000000
00300000
00000000
00000000
00000000
00000000
00000000
02000000
03000000
00000000
00000000
00000000
00000000
00000000
00000000
00010000
00000000
00000000
00000000
10000000
00000000
00000000
00000000
00100000
00000000
00000000
00000000
01000000
00000000
00000000
00000000
00001000
00000000
00000000
00000000
00000000
00000000
00000000
00000000
00010000
00000000
00000000
00000000
00000100
00000000
00000000
00000000
00001000
00000000
00000000
00000000
00000000
00000000
00000000
00000000
00000100
00000000
00000000
00000000
00010000
00000000
00000000
00000000
,  // measure 30
00002000
00003000
00000000
00000000
00000000
00000000
00000000
00000000
00002000
00003000
00000000
00000000
00000000
00000000
00000000
00000000
00000010
00000000
00000000
00000000
00000000
00000000
00000000
00000000
00000100
00000000
00000000
00000000
00000001
00000000
00000000
00000000
00000020
00000000
00000000
00000000
00000000
00000000
00000000
00000000
00000000
00000000
00000000
00000000
00001000
00000000
00000000
00000000
00000000
00000000
00000000
00000000
00000000
00000000
00000000
00000000
00300031
00000000
00000000
00000000
00000000
00000000
00000000
00000000
,  // measure 31
00001000
00000000
00000000
00000000
00000000
00000000
00000000
00000000
00000010
00000000
00000000
00000000
00000000
00000000
00000000
00000000
00001000
00000000
00000000
00000000
00000001
00000000
00000000
00000000
00001000
00000000
00000000
00000000
00000000
00000000
00000000
00000000
00000001
00000000
00000000
00000000
00000200
00000300
00000000
00000000
00000000
00000000
00000000
00000000
00000200
00000300
00000000
00000000
00001000
00000000
00000000
00000000
00000010
00000000
00000000
00000000
00002000
00000000
00000000
00000000
00000000
00000000
00000000
00000000
,  // measure 32
00003100
00000000
00000000
00000000
00010000
00000000
00000000
00000000
00000100
00000000
00000000
00000000
00010000
00000000
00000000
00000000
00001000
00000000
00000000
00000000
00000000
00000000
00000000
00000000
00101000
00000000
00000000
00000000
00000000
00000000
00000000
00000000
00001000
00000000
00000000
00000000
00020000
00030000
00000000
00000000
00000000
00000000
00000000
00000000
00020000
00030000
00000000
00000000
01000000
00000000
00000000
00000000
00001000
00000000
00000000
00000000
02000000
00000000
00000000
00000000
00000000
00000000
00000000
00000000
,  // measure 33
03010000
00000000
00000000
00000000
00100000
00000000
00000000
00000000
00010000
00000000
00000000
00000000
00100000
00000000
00000000
00000000
01000000
00000000
00000000
00000000
00000000
00000000
00000000
00000000
01000000
00000000
00000000
00000000
00000000
00000000
00000000
00000000
10000000
00000000
00000000
00000000
00200000
00300000
00000000
00000000
00000000
00000000
00000000
00000000
00200000
00300000
00000000
00000000
00010000
00000000
00000000
00000000
01000000
00000000
00000000
00000000
00020000
00000000
00000000
00000000
00000000
00000000
00000000
00000000
,  // measure 34
10030000
01000000
10000000
01000000
00100000
00000000
00001000
00000000
00020000
00000000
00000000
00000000
00031000
00000000
01000000
00000000
,  // measure 35
01001000
00000000
00000000
00000000
00000000
00000000
00000000
00000000
01000000
00000000
00000000
00000000
00020000
00330000
00000000
00000000
00020000
00030000
00000000
00000000
00001000
00030000
00000000
00000000
00010000
00000000
00000000
00000000
00000000
00000000
00000000
00000000
00010100
00000000
00000000
00000000
00000000
00000000
00000000
00000000
00000100
00000000
00000000
00000000
00002000
00003000
00000000
00000000
00002000
00003000
00000000
00000000
00010000
00003000
00000000
00000000
00001000
00000000
00000000
00000000
00000000
00000000
00000000
00000000
,  // measure 36
00101000
00000000
00000000
00000000
00000000
00000000
00000000
00000000
00100000
00000000
00000000
00000000
00020000
00330000
00000000
00000000
00020000
00030000
00000000
00000000
00001000
00030000
00000000
00000000
00010000
00000000
00000000
00000000
00000000
00000000
00000000
00000000
00010010
00000000
00000000
00000000
00000000
00000000
00000000
00000000
00000110
00000000
00000000
00000000
00000000
00000000
00000000
00000000
00001001
00000000
00000000
00000000
00000000
00000000
00000000
00000000
00001000
00000000
00000000
00000000
00000001
00000000
00000000
00000000
,  // measure 37
00001000
00000000
00000000
00000000
00000020
00000030
00000000
00000000
00000000
00000000
00000000
00000000
00000020
00000030
00000000
00000000
00000001
00000000
00000000
00000000
00000100
00000000
00000000
00000000
00000002
00000000
00000000
00000000
00000000
00000000
00000000
00000000
00001003
00000000
00000000
00000000
00000100
00000000
00000000
00000000
00001000
00000000
00000000
00000000
00000100
00000000
00000000
00000000
00010000
00000000
00000000
00000000
00000000
00000000
00000000
00000000
00001000
00000000
00000000
00000000
00000000
00000000
00000000
00000000
,  // measure 38
02000000
00000000
00000000
00100000
00000000
00000000
03100000
00000000
10000000
00000000
00010000
00000000
10000000
01000000
00100000
00001000
,  // measure 39
00010000
00000000
00000000
00010000
00000000
00000000
00000000
00000000
00000010
00000000
00000000
00000010
00000000
00000000
00001000
00000001
,  // measure 40
00001000
00000000
00000000
00001000
00000000
00000000
00000000
00000000
00000100
00000000
00000000
00000100
00000000
00000000
00010000
00001000
,  // measure 41
00010000
00000000
00000000
00010000
00000000
00000000
00000000
00000000
00001000
00000000
00000000
00001000
00000000
00000000
01000000
00010000
,  // measure 42
01000000
00000000
00100000
00000000
10000000
01000000
00100000
00000000
00101000
00000000
00001000
00000000
00011000
00000000
00010010
00000000
,  // measure 43
00000000
00000000
00000000
00000000
00000000
00000200
00000000
00000000
00000000
00000000
00000000
00000000
00000000
00000000
00000000
00000000
,  // measure 44
00000300
00000000
00000000
00000000
;

//---------------dance-double - ----------------
#NOTES:
     dance-double:
     :
     Medium:
     8:
     0.291089,0.332782,0.142366,0.275835,0.084530,229.000000,213.000000,16.000000,31.000000,0.000000,0.000000,0.291089,0.332782,0.142366,0.275835,0.084530,229.000000,213.000000,16.000000,31.000000,0.000000,0.000000:
00000000
00000000
00000000
00000000
,
00000000
00000000
00000000
00000000
,
00000000
00000000
00000000
00000000
,
00000000
00000000
00000000
00001000
00100000
00001000
00010000
00001000
,
00100000
00001000
00001000
00010000
00000010
00010000
00001000
00010000
,
00000010
00010000
00010000
00001000
01000000
00010000
01000000
00001000
,
01000000
00010000
00010000
01000000
00002000
00000000
00100000
00000000
,
00023000
00000000
00030010
00000000
00012000
00000000
00103000
00010000
,
02000000
00000000
03100000
10000000
02000000
00000000
03100000
00010000
,
02000000
00000000
03001000
00010000
00002000
00000000
00013000
00010000
,
00000100
00010100
00002002
00003003
,
00001000
00000001
00000100
00000000
00000102
00000000
00001003
00000010
,
00000020
00000000
00001030
00000100
00000200
00000000
00010300
00001000
,
00002000
00000000
00103000
00010000
00020000
00000000
01030000
01000000
,
01000000
01010000
20100000
00010000
,
32000000
00000000
00000000
00000000
03100000
00000000
00010000
00000000
10000000
00000000
00000000
10000000
00000000
00000000
00000000
00000000
,
00100000
00000000
00000000
00100000
00000000
00000000
00000000
00000000
01000000
00000000
00000000
01000000
00000000
00000000
00000000
00000000
,
00010000
00000000
00000000
00010000
00000000
00000000
00000000
00000000
00100000
00000000
00000000
00100000
00000000
00000000
00000000
00000000
,
00001000
00000000
00000000
00001000
00000000
00000000
00000000
00000000
00020000
00000000
00000000
00000000
00030010
00000000
00000100
00000000
,
00000020
00000000
00000000
00000000
00001030
00000000
00000000
00000000
00001001
00000000
00000000
00000001
00000000
00000000
00000000
00000000
,
00001000
00000000
00000000
00001000
00000000
00000000
00000100
00000000
00010000
00000000
00000000
00010000
00000000
00000000
00000000
00000000
,
00001000
00000000
00000000
00001000
00000000
00000000
00100000
00000000
00010000
00000000
00000000
00010000
00000000
00000000
00000000
00000000
,
10000000
00000000
00000000
10000000
00000000
00000000
00010000
00000000
02000000
00000000
00000000
00000000
03200000
00000000
00000000
00000000
,
10300000
01000000
00100000
00001000
00000000
00000000
00010000
00010000
,
00001000
00100000
00001000
00010000
00001000
00010000
00010000
00000000
,
00010000
00000010
00010000
00001000
00010000
00001000
00001000
00000000
,
00001000
01000000
00001000
01000000
00001000
00010000
00010000
00000000
,
00002000
00000000
00203000
00000000
00310000
10000000
01000000
10000000
,
00010000
00010000
00010000
00000000
00100000
00001000
00010000
00001000
,
00100000
00100000
00100000
00000000
00001000
00010000
00000010
00001000
,
00000010
00000010
00000010
00000000
00002000
00000000
00000010
00000000
,
00003002
00000000
00000013
00000000
00001001
00000000
00000001
00000100
,
00001000
00010000
00001000
00000000
00011000
00000000
00001000
00010000
,
01000000
10000000
00010000
00000000
10010000
00000000
10000000
00100000
,
00010000
00001000
00010000
00000000
00012000
00000000
00023000
00000000
,
00030010
00000000
00000000
00000010
00000000
00000000
00000000
00000000
00010000
00000000
00000000
00010000
00000000
00000000
00000000
00000000
,
00001000
00000000
00000000
00001000
00000000
00000000
00000000
00000000
00101000
00000000
00101000
00000000
00101000
00000000
00000000
00000000
,
00001000
00010000
00001000
00010000
00000100
00000100
00000100
00000010
,
00000002
00000100
00002003
00003010
,
00002002
00000000
00000000
00000000
00000000
00000000
00000000
00000000
00003003
00000000
00000000
00000000
00000000
00000000
00001000
00000100
,
00000000
00000000
00000000
00000000
00000000
00000000
00000000
00000000
00000000
00000000
00000000
00000000
00000000
00000000
00010000
00001000
,
00000000
00000000
00000000
00000000
00000000
00000000
00000000
00000000
00000000
00000000
00000000
00000000
00000000
00000000
00100000
00010000
,
00000000
00000000
00000000
00000000
10000000
00010000
01000000
10010000
,
00000000
00000000
00000000
00000000
00000000
02000000
00000000
00000000
00000000
00000000
00000000
00000000
00000000
00000000
00000000
00000000
,
03000000
00000000
00000000
00000000
;

//---------------dance-double - ----------------
#NOTES:
     dance-double:
     :
     Easy:
     5:
     0.208465,0.274055,0.088979,0.097877,0.004449,164.000000,154.000000,10.000000,11.000000,0.000000,0.000000,0.208465,0.274055,0.088979,0.097877,0.004449,164.000000,154.000000,10.000000,11.000000,0.000000,0.000000:
00000000
00000000
00000000
00000000
,
00000000
00000000
00000000
00000000
,
00000000
00000000
00000000
00000000
,
00000000
00000000
00010000
00001000
,
00100000
00100000
00100000
00000000
00001000
00000000
00010000
00000000
,
00000010
00000010
00000010
00000000
00010000
00000000
00001000
00000000
,
01000000
01000000
01000000
00000000
00002000
00000000
00003000
00000000
,
00020000
00030000
00011000
00000000
,
00010000
00000000
00000100
00000000
,
00000010
00000000
00000010
00000000
00000001
00000000
00001000
00001000
,
00001000
00000010
00010000
00000000
,
00001000
00000000
00011000
00000000
,
00001000
00000000
00100000
00000000
,
00100000
00000000
00000000
00000000
01000000
00000000
01000000
01000000
,
01000000
10000000
00010000
00000000
,
01000000
00000000
00001000
00001000
,
00001000
00000000
00100000
00000000
00002000
00000000
00003000
00010000
,
00010000
00000000
00001000
00001000
00001000
00000000
00010000
00000000
,
00000010
00000100
00000010
00001000
,
00000100
00010000
00001000
00001000
,
00001000
00100000
00001000
00001000
,
00001000
00100000
00002000
00003000
,
00000000
00000000
00000000
00010000
00010000
00000000
00001000
00000000
,
01000000
01000000
00100000
00100000
00000000
00000000
00000000
00000000
,
10000000
00010000
10000000
00000000
00010000
10000000
00010000
00000000
,
00100000
00010000
00100000
00000000
00010000
00100000
00010000
00000000
,
00100000
00001000
00100000
00000000
00001000
00100000
00001000
00000000
,
00100000
00000000
00001000
00000000
00010000
00001000
00010000
00000000
,
00001000
00010000
00001000
00000000
00010000
00000010
00010000
00000000
,
00000010
00010000
00000010
00000000
00001000
00000100
00001000
00000000
,
00000100
00001000
00000100
00000000
00002000
00000000
00003000
00000000
,
00000002
00000003
00001001
00001000
,
00000010
00000010
00000010
00000010
00001000
00000000
00000100
00000000
,
00010000
00010000
00010000
00010000
00001000
00000000
00100000
00000000
,
00010000
00010000
00010000
00010000
10000000
00000000
00100000
00000000
,
10010000
00000000
00011000
00000000
,
00001001
00000000
00011000
00011000
,
00022000
00033000
00001000
00100000
,
02000000
03000000
20000000
30000000
,
10010000
00000000
00000000
00000000
00000000
00000000
00000000
00010000
,
00010000
00000000
00000000
00000000
00000000
00000000
00000000
00100000
,
00100000
00000000
00000000
00000000
00000000
00000000
00000000
00001000
,
00001000
00000000
00000000
00000000
00010000
00000000
00000010
00000010
,
00000000
00000000
00000000
00000000
00000000
00000200
00000000
00000000
00000000
00000000
00000000
00000000
00000000
00000000
00000000
00000000
,
00000300
00000000
00000000
00000000
;
