#TITLE:unknown;
#SUBTITLE:;
#ARTIST:;
#TITLETRANSLIT:;
#SUBTITLETRANSLIT:;
#ARTISTTRANSLIT:;
#GENRE:;
#CREDIT:;
#MUSIC:Torture Me.ogg;
#BANNER:;
#BACKGROUND:;
#CDTITLE:;
#SAMPLESTART:0.000;
#SAMPLELENGTH:0.000;
#SELECTABLE:YES;
#OFFSET:-0.279;
#BPMS:0.000=157.000;
#STOPS:;
#BGCHANGES:;
#FGCHANGES:;

//--------------- dance-single - ----------------
#NOTES:
     dance-single:
     :
     Hard:
     9:
     0,0,0,0,0:
0000
0000
0000
0000
,
0000
0000
0000
0000
,
0000
0000
0000
0000
,
0000
0000
0000
0000
,
0001
0001
0001
0001
,
1000
1000
1000
1000
,
0100
0100
0100
0100
,
0010
0001
0010
0100
0010
0100
1000
0000
,
1001
0010
0100
1000
1000
0100
0001
0100
,
0100
0000
0010
0000
1001
0000
0010
0000
0100
0000
1001
0000
0100
0000
1000
0001
,
1000
0100
0010
0001
0001
0100
0001
0100
,
0001
0000
0110
0000
1001
0100
0010
0100
,
1000
0100
0010
0100
0010
0001
1000
0001
,
1000
0100
0001
0100
1000
0001
0010
0100
,
1000
0100
0001
0100
1000
0100
0010
0100
,
1000
0100
0001
0100
1000
0100
0010
0100
,
2001
0000
0001
0000
0001
0000
0001
3000
,
0210
0000
0010
0000
0010
0000
0010
0300
,
0120
0000
0100
0000
0100
0000
0100
0030
,
1002
0000
1000
0000
1000
0000
1000
0003
,
2001
0000
0001
0000
0001
0000
0001
3000
,
0120
0000
0100
0000
0100
0000
0100
0030
,
0210
0000
0010
0000
0010
0000
0010
0300
,
0010
0100
0001
0100
0010
1000
0100
0000
,
1001
0000
0110
0000
1M01
0100
0100
0000
,
0100
0000
0000
0000
1001
0000
0010
0100
M010
0000
0010
0000
0010
0100
0010
0000
,
M110
0000
0110
0100
000M
0100
0100
00M0
,
0100
0010
0001
0001
001M
0100
0100
0000
,
0110
0000
0000
1001
0000
0000
0M10
0000
0010
0000
0010
0000
,
0010
0000
0000
0000
1001
0100
0010
0000
M100
0010
0001
0000
0010
0000
0100
0000
,
1001
0000
0100
0100
00M0
0100
0100
M000
,
0010
0000
0010
0010
0000
0010
0001
0010
,
1001
0010
0100
1000
1000
0100
0001
0100
,
0100
0000
0010
0000
1001
0000
0010
0000
0100
0000
1001
0000
0100
0000
1000
0001
,
1000
0100
0010
0001
0001
0100
0001
0100
,
0001
0010
0100
0010
1001
0100
0010
0100
,
1000
0100
0010
0100
0010
0001
1000
0001
,
1000
0100
0001
0100
1000
0001
0010
0100
,
1000
0100
0001
0100
1000
0100
0010
0100
,
1000
0100
0001
0100
1001
0000
0000
0000
,
1001
0001
0001
1001
,
0010
0110
0010
0110
,
0100
0110
0100
0110
,
1000
0100
0010
0001
0001
0010
0100
1000
,
1000
0010
0100
0001
0001
0100
0010
1000
,
0100
0010
0001
0010
0100
1000
0100
0001
,
0100
1000
0100
0010
0100
1000
0100
0010
,
0100
0010
0001
0010
0100
1000
0100
0010
,
1001
0000
0110
0000
M101
0100
0100
0100
,
0100
0000
0000
0000
1001
0000
0010
0100
0010
0000
0010
0000
0010
0100
0010
0000
,
0110
0000
1001
0100
000M
0100
0010
0100
,
0001
0010
0100
0010
010M
1000
0100
0000
,
0110
0000
0000
1001
0000
0000
0M10
0000
0010
0000
0010
0000
,
0010
0000
0000
0000
1000
0001
1000
0001
1000
0000
1000
0000
1000
0000
0100
0000
,
0110
0000
0010
0010
M000
0010
0010
0000
,
0001
0000
0001
0001
0010
0010
0100
0100
,
1000
1000
1000
0001
0010
0100
1000
1000
,
1000
0010
0010
1000
1000
1000
0001
0000
,
0110
1001
0020
0230
,
4300
0000
0000
0000
3000
0100
0010
0100
,
1001
0110
0002
1000
,
0023
0000
0000
0030
1200
0000
0000
0300
2000
0000
0000
0000
0000
3000
0000
0000
,
0110
1001
0010
0100
,
4000
0000
0000
0000
0000
0000
0000
3000
0000
0000
0000
0000
0000
0000
0000
0000
,
4001
0000
3001
0000
,
1010
0010
0100
0000
4002
0000
0000
3003
,
4040
0000
0000
0000
0000
0000
0000
3030
,
0100
0000
0000
0000
1001
0100
0010
0000
,
1001
0010
0100
0000
0000
0000
0000
0000
,
1010
0100
0010
0000
0000
0000
0001
0000
,
1001
0010
0200
0000
0000
0000
0000
0000
,
0310
0000
1000
0001
,
1000
0000
0000
0001
0000
0000
1000
0001
1000
0001
1000
0001
1000
0001
1000
0001
;
