#TITLE:Tori-no-kimochi;
#SUBTITLE:;
#ARTIST:猫又Master+;
#TITLETRANSLIT:;
#SUBTITLETRANSLIT:;
#ARTISTTRANSLIT:Nekomata Master+;
#GENRE:WORLD/ELECTRONICA;
#CREDIT:;
#BANNER:Tori-no-kimochi.png;
#BACKGROUND:Tori-no-kimochi-bg.png;
#LYRICSPATH:;
#CDTITLE:;
#MUSIC:Tori-no-kimochi.ogg;
#OFFSET:-0.108000;
#SAMPLESTART:96.018997;
#SAMPLELENGTH:15.000000;
#SELECTABLE:YES;
#BPMS:0.000000=132.000000
;
#STOPS:
;
#BGCHANGES:;
#KEYSOUNDS:;
#ATTACKS:;

//---------------dance-single - Daff_4K----------------
#NOTES:
     dance-single:
     Daff_4K:
     Beginner:
     1:
     0.059736,0.103044,0.037335,0.000000,0.000000,56.000000,51.000000,5.000000,0.000000,0.000000,0.000000,0.059736,0.103044,0.037335,0.000000,0.000000,56.000000,51.000000,5.000000,0.000000,0.000000,0.000000:
0000
0000
0000
0000
,
0000
0000
0000
0000
,
0000
0000
0000
0000
,
0000
0000
0000
0000
,
0000
0000
0000
0000
,
0000
0000
0000
0000
,
0000
0000
0000
0000
,
0000
0000
0000
0000
,
1000
0000
0000
0000
,
1000
0000
0000
0000
,
1000
0000
0000
0000
,
0000
0000
0000
0000
,
0001
0000
0000
0000
,
0001
0000
0000
0000
,
0001
0000
0000
0000
,
0000
0000
0000
0000
,
1000
0000
0000
0000
,
0010
0000
0000
0000
,
1000
0000
0000
0000
,
0000
0000
0000
0000
,
0001
0000
0000
0000
,
0010
0000
0000
0000
,
0001
0000
0000
0000
,
0000
0000
0000
0000
,
1001
0000
0000
0000
,
1000
0000
0000
0000
,
0100
0000
0000
0000
,
1000
0000
0000
0000
,
1001
0000
0000
0000
,
0001
0000
0000
0000
,
0100
0000
0000
0000
,
0001
0000
0000
0000
,
1000
0000
0000
0000
,
0100
0000
0000
0000
,
0010
0000
0000
0000
,
0000
0000
0000
0000
,
0001
0000
0000
0000
,
0100
0000
0000
0000
,
0010
0000
0000
0000
,
0000
0000
0000
0000
,
1000
0000
0000
0000
,
0000
0000
0000
0000
,
0001
0000
0000
0000
,
0000
0000
0000
0000
,
0010
0000
0000
0000
,
0000
0000
0000
0000
,
0100
0000
0000
0000
,
0000
0000
0000
0000
,
1000
0000
0000
0000
,
1000
0000
0000
0000
,
0001
0000
0000
0000
,
0001
0000
0000
0000
,
0000
0000
0000
0000
,
1001
0000
0000
0000
,
1000
0000
0000
0000
,
0001
0000
0000
0000
,
0100
0000
0000
0000
,
0010
0000
0000
0000
,
1000
0000
0000
0000
,
0001
0000
0000
0000
,
1000
0000
0000
0000
,
1001
0000
0000
0000
,
0001
0000
0000
0000
,
1000
0000
0000
0000
,
0100
0000
0000
0000
,
0010
0000
0000
0000
,
0001
0000
0000
0000
,
1000
0000
0000
0000
,
0001
0000
0000
0000
,
1001
0000
0000
0000
;

//---------------dance-single - Daff_4K----------------
#NOTES:
     dance-single:
     Daff_4K:
     Easy:
     3:
     0.115205,0.212062,0.007467,0.119472,0.000000,108.000000,107.000000,1.000000,16.000000,0.000000,0.000000,0.115205,0.212062,0.007467,0.119472,0.000000,108.000000,107.000000,1.000000,16.000000,0.000000,0.000000:
0000
0000
0000
0000
,
0000
0000
0000
0000
,
0000
0000
0000
0000
,
0000
0000
0000
0000
,
0000
0000
0000
0000
,
0000
0000
0000
0000
,
0000
0000
0000
0000
,
0000
0000
0000
0000
,
1000
0000
0010
0000
,
0100
0000
0001
0000
,
2000
0000
0000
0000
,
3000
0000
0000
0000
,
0001
0000
0010
0000
,
0100
0000
1000
0000
,
0002
0000
0000
0000
,
0003
0000
0000
0000
,
0100
0000
0010
0000
,
1000
0000
0001
0000
,
0020
0000
0000
0000
,
0030
0000
0000
0000
,
0100
0000
0010
0000
,
0001
0000
1000
0000
,
0020
0000
0000
0000
,
0030
0000
0000
0000
,
1000
0000
0001
0000
,
1000
0000
0100
0000
,
0010
0000
0001
0100
,
0010
1000
0100
0010
,
0001
0000
1000
0000
,
0001
0000
0100
0000
,
0010
0000
1000
0100
,
0010
0001
0100
0100
,
0010
0000
1000
0000
,
0100
0000
0001
0100
,
1000
0000
0010
0000
,
0100
0000
0001
0000
,
0010
0000
0001
0000
,
0100
0000
1000
0100
,
0001
0000
0010
0000
,
0100
0000
1000
0001
,
0200
0000
0300
0000
,
0020
0000
0030
0000
,
2000
0000
3000
0000
,
0001
0000
1000
0000
,
0200
0000
0300
0000
,
0020
0000
0030
0000
,
0002
0000
0003
0000
,
1000
0000
0001
0000
,
1001
0000
0000
0000
,
1000
0000
0000
0000
,
0001
0000
0000
0000
,
0100
0000
0010
0000
,
0200
0000
0300
0000
,
0001
0000
0010
0000
,
0100
0000
1000
0000
,
0020
0000
0000
0000
,
0030
0000
0100
0001
,
1000
0000
0100
0000
,
0010
0000
0001
0000
,
0200
0000
0000
0000
,
0300
0000
0100
0001
,
1000
0000
0010
0000
,
0100
0000
0001
0000
,
0020
0000
0000
0000
,
0030
0000
0100
1000
,
0001
0000
0100
0000
,
0010
0000
1000
0000
,
0200
0000
0000
0000
,
0000
0000
0300
0000
,
0010
0000
0001
0000
,
1000
0000
0020
0000
,
0030
0000
0000
0000
;

//---------------dance-single - Daff_4K----------------
#NOTES:
     dance-single:
     Daff_4K:
     Medium:
     7:
     0.216542,0.371109,0.059736,0.410684,0.000000,203.000000,195.000000,8.000000,55.000000,0.000000,0.000000,0.216542,0.371109,0.059736,0.410684,0.000000,203.000000,195.000000,8.000000,55.000000,0.000000,0.000000:
0000
0000
0000
0000
,
0000
0000
0000
0000
,
0000
0000
0000
0000
,
0000
0000
0000
0000
,
0000
0000
0000
0000
,
0000
0000
0000
0000
,
0000
0000
0000
0000
,
0000
0000
0000
0000
,
2001
0000
3020
0000
,
0230
0000
0302
0000
,
2003
0000
0100
0000
,
0100
0000
3100
0000
,
1002
0000
0203
0000
,
0320
0000
2030
0000
,
3002
0000
0010
0000
,
0010
0000
0013
0001
,
2000
0000
3010
0100
,
0002
0000
1003
0100
,
0020
0000
0001
0000
,
0100
0000
1030
0010
,
0002
0000
0103
0010
,
2000
0000
3001
0010
,
0200
0000
1000
0000
,
0020
0330
0110
1001
,
2000
0000
0010
0001
,
3200
0000
0010
0001
,
0320
0000
0001
0100
,
0031
1000
0010
0100
,
0002
0000
0010
1000
,
0203
0000
0010
1000
,
0320
0000
1000
0100
,
1030
0000
0001
0000
0010
0001
1000
0001
,
1000
0000
0100
1000
0100
0000
0010
0001
,
0010
0000
0001
0100
0001
0000
0100
0000
,
0010
0000
1000
0010
1000
0000
0001
0000
,
0010
0000
0100
0000
1000
0000
0001
1000
,
0001
0000
0100
0001
0100
0000
0010
1000
,
0010
0000
1000
0100
1000
0000
0100
0000
,
0010
0000
0001
0010
0001
0000
1000
0000
,
0010
0000
0100
0000
0001
0000
1000
0001
,
2000
0000
3100
0010
,
0002
0000
1003
0010
,
0200
0000
0301
1000
,
0200
0000
0310
0000
,
1002
0000
0103
0010
,
2000
0000
3001
0010
,
0200
0000
1300
0001
,
0200
0000
0310
0000
,
2001
0000
3200
0000
,
0320
0000
0032
0000
,
0203
0000
0320
0000
,
2030
0000
0002
0000
,
0000
0000
0000
3003
,
1002
0000
0103
1000
,
0200
0000
0310
1000
,
0002
0000
0010
0000
,
1003
0000
0001
0000
1000
0000
0010
0100
,
0020
0000
1030
0001
,
2000
0000
3100
0001
,
0200
0000
0010
0000
,
1300
0000
0001
0000
0100
0010
1000
0001
,
2000
0000
3100
0001
,
0200
0000
0310
0001
,
2000
0000
0010
0000
,
3001
0000
1000
0000
0001
0000
0010
0100
,
0020
0000
0031
1000
,
0002
0000
0103
1000
,
0200
0000
0010
0000
,
0301
1000
0100
0010
,
1002
0000
0203
0000
,
2300
0000
3200
0000
,
0300
0000
0000
0000
;

//---------------dance-single - Daff_4K----------------
#NOTES:
     dance-single:
     Daff_4K:
     Hard:
     11:
     0.341348,0.450632,0.149340,0.627226,0.268811,320.000000,300.000000,20.000000,84.000000,0.000000,0.000000,0.341348,0.450632,0.149340,0.627226,0.268811,320.000000,300.000000,20.000000,84.000000,0.000000,0.000000:
0000
0000
0000
0000
,
0000
0000
0000
0000
,
0000
0000
0000
0000
,
0000
0000
0000
0000
,
0000
0000
0000
0000
,
0000
0000
0000
0000
,
0000
0000
0000
0000
,
0000
0000
0000
0000
,
1002
0000
0203
0000
,
0320
0000
2030
0000
,
3200
0000
0010
0000
,
0001
0000
0310
0011
,
2001
0000
3020
0000
,
0230
0000
0302
0000
,
0023
0000
0100
0000
,
1000
0000
0000
0000
0130
0010
0100
1000
,
0002
0100
1000
0010
,
2003
0010
0001
0100
,
3020
0001
0100
1000
,
0230
0000
0001
0000
0310
0000
0100
0001
,
2000
0010
0001
0100
,
3002
0100
1000
0010
,
0203
1000
0010
0001
,
0020
0330
1001
0110
,
2001
0000
0000
0000
0000
0000
3100
0000
0000
0000
0000
1000
0000
0000
0000
0001
0000
0000
1000
0000
0000
0000
0000
0000
,
0020
0000
0000
0000
0000
0000
0130
0000
0000
0000
0000
0010
0000
0000
0000
1000
0000
0000
0001
0000
1000
0000
0000
0000
,
0200
0000
0000
0000
0000
0000
0310
0000
0000
0000
0000
0001
0000
0000
0000
1000
0000
0000
0001
0000
0000
0000
0000
0000
,
0101
1100
0011
1010
,
1002
0000
0000
0000
0000
0000
0013
0000
0000
0000
0000
0001
0000
0000
0000
1000
0000
0000
0001
0000
0000
0000
0000
0000
,
0200
0000
0000
0000
0000
0000
0310
0000
0000
0000
0000
0100
0000
0000
0000
0001
0000
0000
1000
0000
0001
0000
0000
0000
,
0020
0000
0000
0000
0000
0000
0130
0000
0000
0000
0000
1000
0000
0000
0000
0001
0000
0000
1000
0000
0000
0000
0000
0000
,
1010
0000
0000
0000
0000
0000
0101
0000
0000
0000
0000
0001
0000
0000
1000
0000
0000
0100
0000
0000
0010
0000
0000
0002
,
0000
0000
0000
0000
0000
0000
0103
0000
0001
0000
0000
0200
0000
0000
0000
0000
0000
0000
0310
0000
0100
0000
0000
0020
,
0000
0000
0000
0000
0000
0000
1030
0000
0010
0000
0000
2000
0000
0000
0000
0000
0000
0000
3001
0000
0000
1000
0000
0000
,
0200
0000
0000
0000
0000
0000
0310
0000
0100
0000
0000
0020
0000
0000
0000
0000
0000
0000
0032
0000
0000
0000
0000
0000
,
1003
0000
0000
0000
0000
0000
0002
0000
0000
0000
0000
0000
0013
0000
0000
0001
0000
0000
0010
0000
0100
0000
0000
2000
,
0000
0000
0000
0000
0000
0000
3010
0000
1000
0000
0000
0020
0000
0000
0000
0000
0000
0000
0130
0000
0010
0000
0000
0200
,
0000
0000
0000
0000
0000
0000
0301
0000
0100
0000
0000
0002
0000
0000
0000
0000
0000
0000
1003
0000
0000
0001
0000
0000
,
0020
0000
0000
0000
0000
0000
0130
0000
0010
0000
0000
0200
0000
0000
0000
0000
0000
0000
2300
0000
0000
0000
0000
0000
,
3001
0000
0000
0000
0000
0000
2000
0000
0000
0000
0000
0000
3010
0000
0000
0100
0000
0000
0001
0000
1000
0000
0000
0002
,
0000
0000
0000
0000
0000
0000
0010
0000
0000
0000
0000
0023
0000
0000
0000
0000
0000
0000
0100
0000
0000
0000
0000
0230
,
0000
0000
0000
0000
0000
0000
1000
0000
0000
0000
0000
1300
0000
0000
0000
0001
0000
0000
1000
0000
0000
0010
0000
0000
,
0002
0000
0000
0000
0000
0000
0010
0000
0000
0000
0000
0023
0000
0000
0000
0000
0000
0000
0130
0000
0000
0001
0000
0000
,
0020
0000
0000
0000
0000
0000
0130
0000
0000
1000
0000
0000
0020
0000
0000
0000
0000
0000
0130
0000
0001
0000
0000
2000
,
0000
0000
0000
0000
0000
0000
0100
0000
0000
0000
0000
3200
0000
0000
0000
0000
0000
0000
0010
0000
0000
0000
0000
0320
,
0000
0000
0000
0000
0000
0000
0001
0000
0000
0000
0000
0031
0000
0000
0000
1000
0000
0000
0001
0000
0000
0100
0000
0000
,
2000
0000
0000
0000
0000
0000
3100
0000
0010
0000
0000
0200
0000
0000
0000
0000
0000
0000
0301
0000
0000
1000
0000
0000
,
0200
0000
0310
0001
0200
0000
0310
0000
,
2002
0003
0200
3300
,
0022
0030
2000
3003
,
2020
3000
0200
0330
,
0202
0300
2000
0000
,
0000
0000
0000
3003
0000
0000
0001
1000
0001
1000
0000
0000
,
1002
0000
0000
0000
0000
0000
0013
0000
0000
0000
0000
0001
0000
0000
0000
0100
0000
0000
0010
0000
1000
0000
0000
0000
,
0020
0000
0000
0000
0000
0000
0130
0000
0000
0000
0000
0001
0000
0000
0000
1000
0000
0000
0001
0000
0010
0000
0000
0000
,
0200
0000
0000
0000
0000
0000
1300
0000
0000
0000
0000
0100
0000
0000
0000
0010
0000
0000
0001
0000
1000
0000
0000
0000
,
0020
0000
0000
0000
0000
0000
0130
0000
0000
0001
0000
0000
1000
0000
0000
0001
0000
0000
0010
0000
0100
0010
0000
0000
,
0200
0000
0000
0000
0000
0000
1300
0000
0000
0000
0000
0001
0000
0000
0000
1000
0000
0000
0010
0000
0100
0000
0000
0000
,
0020
0000
0000
0000
0000
0000
0031
0000
0000
0000
0000
0010
0000
0000
0000
1000
0000
0000
0001
0000
1000
0000
0000
0000
,
0200
0000
0000
0000
0000
0000
0310
0000
0000
0000
0000
0100
0000
0000
0000
1000
0000
0000
0001
0000
1000
0000
0000
0000
,
0010
0000
0000
0100
0000
0000
0001
0000
1000
0000
0000
0001
1000
0000
0000
0100
0000
0000
0010
0000
0000
0001
0000
0000
,
2001
0000
0000
0000
0000
0000
3100
0000
0000
0000
0000
1000
0000
0000
0000
0010
0000
0000
0100
0000
0001
0000
0000
0000
,
0200
0000
0000
0000
0000
0000
0310
0000
0000
0000
0000
1000
0000
0000
0000
0001
0000
0000
1000
0000
0100
0000
0000
0000
,
0020
0000
0000
0000
0000
0000
0031
0000
0000
0000
0000
0010
0000
0000
0000
0100
0000
0000
1000
0000
0001
0000
0000
0000
,
0200
0000
0000
0000
0000
0000
0310
0000
0000
1000
0000
0000
0001
0000
0000
1000
0000
0000
0100
0000
0010
0100
0000
0000
,
0020
0000
0000
0000
0000
0000
0031
0000
0000
0000
0000
1000
0000
0000
0000
0001
0000
0000
0100
0000
0010
0000
0000
0000
,
0200
0000
0000
0000
0000
0000
1300
0000
0000
0000
0000
0100
0000
0000
0000
0001
0000
0000
1000
0000
0001
0000
0000
0000
,
0020
1000
0100
0001
,
0130
1000
0001
1000
0010
0100
0001
0000
,
2001
0000
3200
0000
,
0302
0000
0203
0000
,
0300
0000
0000
0000
;

//---------------dance-single - Daff_4K+----------------
#NOTES:
     dance-single:
     Daff_4K+:
     Challenge:
     13:
     0.426684,0.636186,0.149340,0.694429,0.395750,400.000000,380.000000,20.000000,93.000000,0.000000,0.000000,0.426684,0.636186,0.149340,0.694429,0.395750,400.000000,380.000000,20.000000,93.000000,0.000000,0.000000:
// measure 0
0000
0000
0000
0000
,  // measure 1
0000
0000
0000
0000
,  // measure 2
0000
0000
0000
0000
,  // measure 3
0000
0000
0000
0000
,  // measure 4
0000
0000
0000
0000
,  // measure 5
0000
0000
0000
0000
,  // measure 6
0000
0000
0000
0000
,  // measure 7
0000
0000
0000
0000
,  // measure 8
2001
0000
3200
0000
,  // measure 9
0320
0000
0032
0000
,  // measure 10
0203
0000
0010
0000
,  // measure 11
1000
0000
0000
0000
0000
0000
0000
0000
0000
0000
0000
0000
0310
0000
0000
0000
0000
0000
1000
0000
0001
1000
0000
0000
,  // measure 12
0002
0000
0023
0000
,  // measure 13
0230
0000
2300
0000
,  // measure 14
3020
0000
0100
0000
,  // measure 15
0001
0000
0000
0000
0000
0000
0000
0000
0000
0000
0000
0000
0130
0000
0000
0010
0000
0100
0010
0000
0000
1000
0000
0000
,  // measure 16
0002
0010
2003
0100
,  // measure 17
3002
0100
2003
0010
,  // measure 18
3200
0001
0010
1000
,  // measure 19
0320
0000
0000
0000
0000
0000
0001
0000
0000
0000
0000
0000
0130
0000
0000
0000
0000
0000
0010
0000
0001
1000
0000
0001
,  // measure 20
2000
0010
3002
0100
,  // measure 21
2003
0100
3002
0010
,  // measure 22
0203
1000
0010
0001
,  // measure 23
0020
0330
1001
0110
,  // measure 24
2001
0000
0000
0000
0000
0000
3100
0000
0000
0000
0000
1000
0001
0000
0000
1000
0000
0000
0010
0000
0100
0000
0000
0000
,  // measure 25
0002
0000
0000
0000
0000
0000
1003
0000
0000
0001
0000
0010
0001
0000
0000
0100
0000
0000
0010
0000
1000
0000
0000
0000
,  // measure 26
0200
0000
0000
0000
0000
0000
0301
0000
0000
0100
0000
0010
0100
0000
0000
1000
0000
0000
0002
0000
0000
0100
0000
0000
,  // measure 27
2003
0100
3002
0010
2003
0010
3001
1000
,  // measure 28
1002
0000
0000
0000
0000
0000
0013
0000
0000
0000
0000
0001
1000
0000
0000
0001
0000
0000
0100
0000
0010
0000
0000
0000
,  // measure 29
2000
0000
0000
0000
0000
0000
3001
0000
0000
1000
0000
0100
1000
0000
0000
0010
0000
0000
0100
0000
0001
0000
0000
0000
,  // measure 30
0020
0000
0000
0000
0000
0000
1030
0000
0000
0010
0000
0100
0010
0000
0000
0001
0000
0000
2000
0000
0000
0010
0000
0000
,  // measure 31
3002
0000
0000
0010
0000
0000
1003
0000
0000
0001
0000
1000
0000
0000
1100
0000
0000
0110
0000
0000
0011
0000
0000
2001
,  // measure 32
0000
0000
0000
0000
0000
0000
3010
0000
0100
0000
0000
0002
0000
0000
0000
0000
0000
0000
1003
0000
0100
0000
0000
0020
,  // measure 33
0000
0000
0000
0000
0000
0000
0031
0000
0100
0000
0000
2000
0000
0000
0000
3100
0000
0000
0010
0000
0100
0010
0000
0000
,  // measure 34
2000
0000
0000
0000
0000
0000
3001
0000
0010
0000
0000
0200
0000
0000
0000
1000
0000
0000
2300
0000
0000
0000
0000
3010
,  // measure 35
0000
0000
0000
0100
0000
0000
0002
0000
0000
0000
0000
0013
0000
0000
0100
0010
0000
0000
0100
0000
1000
0000
0000
1002
,  // measure 36
0000
0000
0000
0000
0000
0000
0103
0000
0010
0000
0000
2000
0000
0000
0000
0000
0000
0000
3001
0000
0010
0000
0000
0200
,  // measure 37
0000
0000
0000
0000
0000
0000
1300
0000
0010
0000
0000
0002
0000
0000
0000
0013
0000
0000
0100
0000
0010
0100
0000
0000
,  // measure 38
0002
0000
0000
0000
0000
0000
1003
0000
0100
0000
0000
0020
0000
0000
0000
0001
0000
0000
0032
0000
0000
0000
0000
0103
,  // measure 39
0000
0000
0000
0010
0000
0000
1000
0000
0000
0100
0000
0000
0110
0000
0000
0010
0000
0000
0001
0000
1000
0000
0000
1002
,  // measure 40
0000
0000
0000
0000
0000
0000
0103
0000
0001
0000
0000
0200
0000
0000
0000
0000
0000
0000
0310
0000
0100
0000
0000
0020
,  // measure 41
0000
0000
0000
0000
0000
0000
1030
0000
0010
0000
0000
2000
0000
0000
0000
0000
0000
0000
3001
0000
1000
0001
0000
0000
,  // measure 42
0020
0000
0000
0000
0000
0000
0130
0000
0010
0000
0000
0200
0000
0000
0000
0000
0000
0000
1300
0000
0000
0001
0000
1000
,  // measure 43
0020
0000
0000
0000
0000
0000
0130
0000
0000
0001
0000
1000
0200
0000
0000
0000
0000
0000
0310
0000
0001
0000
0000
2001
,  // measure 44
0000
0000
0000
0000
0000
0000
3010
0000
1000
0000
0000
0020
0000
0000
0000
0000
0000
0000
0130
0000
0010
0000
0000
0200
,  // measure 45
0000
0000
0000
0000
0000
0000
0301
0000
0100
0000
0000
0002
0000
0000
0000
0000
0000
0000
1003
0000
0001
1000
0000
0000
,  // measure 46
0200
0000
0000
0000
0000
0000
0310
0000
0100
0000
0000
0020
0000
0000
0000
0000
0000
0000
0031
0000
0000
0100
0000
0010
,  // measure 47
2000
0000
0000
0000
0000
0000
3100
0000
0000
0010
0000
0001
0200
0000
0000
0000
0000
0000
0310
0000
0000
0000
0000
0000
,  // measure 48
2001
0000
3200
0000
,  // measure 49
0302
0000
0023
0000
,  // measure 50
2030
0000
0000
0000
3001
1000
0200
0000
0000
0000
0000
0000
,  // measure 51
0320
0000
0032
0000
,  // measure 52
2000
0000
0000
3003
0000
0000
0100
0010
0100
0010
0000
0000
,  // measure 53
1002
0000
0000
0000
0000
0000
0013
0000
0000
0001
0000
1000
0001
0000
0000
0100
0000
0000
0010
0000
1000
0000
0000
0000
,  // measure 54
0200
0000
0000
0000
0000
0000
0301
0000
0000
0100
0000
0010
0100
0000
0000
1000
0000
0000
0001
0000
1000
0000
0000
0000
,  // measure 55
0020
0000
0000
0000
0000
0000
0130
0000
0000
0001
0000
1000
0001
0000
0000
0010
0000
0000
0100
0000
1000
0000
0000
0000
,  // measure 56
0002
0000
0000
0000
0000
0000
1003
0000
0000
0010
0000
0100
0010
0000
0000
0100
0000
0000
0001
0000
1000
0001
0000
0010
,  // measure 57
0200
0000
0000
0000
0000
0000
1300
0000
0000
0001
0000
0100
0001
0000
0000
0010
0000
0000
0100
0000
1000
0000
0000
0000
,  // measure 58
0002
0000
0000
0000
0000
0000
0103
0000
0000
0010
0000
1000
0010
0000
0000
0100
0000
0000
0001
0000
1000
0000
0000
0000
,  // measure 59
0200
0000
0000
0000
0000
0000
0310
0000
0000
0001
0000
1000
0001
0000
0000
0100
0000
0000
0010
0000
1000
0000
0000
1000
,  // measure 60
0100
0000
0000
0110
0000
0000
0010
0000
0001
0000
0000
0001
1000
0000
0000
1010
0000
0000
0110
0000
0000
0101
0000
0000
,  // measure 61
2001
0000
0000
0000
0000
0000
3100
0000
0000
1000
0000
0001
1000
0000
0000
0010
0000
0000
0100
0000
0001
0000
0000
0000
,  // measure 62
0020
0000
0000
0000
0000
0000
1030
0000
0000
0010
0000
0100
0010
0000
0000
0001
0000
0000
1000
0000
0001
0000
0000
0000
,  // measure 63
0200
0000
0000
0000
0000
0000
0310
0000
0000
1000
0000
0001
1000
0000
0000
0100
0000
0000
0010
0000
0001
0000
0000
0000
,  // measure 64
2000
0000
0000
0000
0000
0000
3001
0000
0000
0100
0000
0010
0100
0000
0000
0010
0000
0000
1000
0000
0001
1000
0000
0100
,  // measure 65
0020
0000
0000
0000
0000
0000
0031
0000
0000
1000
0000
0010
1000
0000
0000
0100
0000
0000
0010
0000
0001
0000
0000
0000
,  // measure 66
2000
0000
0000
0000
0000
0000
3010
0000
0000
0100
0000
0001
0100
0000
0000
0010
0000
0000
1000
0000
0001
0000
0000
0000
,  // measure 67
0020
0000
0000
0000
0000
0000
0130
0000
0000
1000
0000
0000
0010
0000
0000
0001
0000
0000
0010
0000
0100
0000
0000
0000
,  // measure 68
0002
0000
0000
0000
0000
0000
1003
0000
0000
0001
0000
0000
0010
0000
0000
0100
0000
0000
1000
0000
0001
1000
0000
0000
,  // measure 69
0002
0000
0203
0000
,  // measure 70
2300
0000
3020
0000
,  // measure 71
0030
0000
0000
0000
;
