#VERSION:0.83;
#TITLE:トウキョウ・シャンディ・ランデヴ;
#SUBTITLE:;
#ARTIST:MAISONdes covered by 藍月なくる;
#TITLETRANSLIT:Tokyo Shandy Rendez-vous;
#SUBTITLETRANSLIT:;
#ARTISTTRANSLIT:MAISONdes covered by Aitsuki Nakuru;
#GENRE:;
#CREDIT:;
#MUSIC:Tokyo Shandy Rendez-vous.ogg;
#BANNER:bn.png;
#BACKGROUND:bg.png;
#CDTITLE:cdtitle.png;
#SAMPLESTART:55.736;
#SAMPLELENGTH:12.263;
#SELECTABLE:YES;
#OFFSET:1.198;
#BPMS:0.000=137.000;
#STOPS:;
#JACKET:jk.png;
#JACKET:;
#DISCIMAGE:;
#CDIMAGE:;
#BGCHANGES:;
#FGCHANGES:;

//--------------- dance-single - DS JU ----------------
#NOTEDATA:;
#STEPSTYPE:dance-single;
#DESCRIPTION:DS JU;
#DIFFICULTY:Hard;
#METER:12;
#RADARVALUES:0,0,0,0,0;
#CHARTNAME:;
#CHARTSTYLE:;
#CREDIT:sorae & Talkion;
#METERF:13;
#NOTES:
0000
0000
0000
0000
,
0000
0000
0000
0000
,
0000
0000
0000
0000
,
0000
0000
0000
0000
0000
0000
0000
0000
0000
0000
1000
0000
0001
0000
0000
0011
,
0000
0010
0100
1000
0010
0010
0200
0000
,
0301
0000
1000
0000
0100
0000
1000
0000
0002
0000
0000
0103
0000
0000
0010
0000
,
1000
0000
0001
0010
0001
0000
1000
0000
0010
0000
0100
0000
0100
0000
0001
0000
,
0010
0000
0000
0000
0100
0000
0010
0000
0002
0000
0000
1003
0000
0000
0010
0000
,
0100
0000
0001
1000
0001
0000
0010
0000
0100
0000
1000
0000
2000
0000
0000
3001
,
0000
0000
0100
0000
0001
0000
0100
0000
0010
0000
0000
1000
0000
0001
0000
0002
,
0000
0000
0013
0000
0001
0000
0010
0000
0100
0000
0000
0001
0000
0100
0000
0200
,
0000
0000
1300
0000
0001
0000
0100
0000
0010
0000
0000
1000
0000
0001
0000
0002
,
0000
0000
0013
0000
0100
0000
0000
0000
1000
0000
0001
0000
0100
0000
0000
2010
,
0000
0000
3001
0000
0010
0000
0000
0010
0000
0000
0100
0000
1000
0000
0000
0201
,
0000
0000
0310
0000
1000
0000
0000
1000
0000
0000
0001
0000
0010
0000
0000
0210
,
0000
0000
1300
0000
0010
0000
0000
0210
0000
0000
0302
0000
0010
0000
0000
2003
,
0000
0000
3010
0000
0010
0000
0100
0000
0001
0000
0000
0100
0000
0010
0000
1010
,
0000
0000
0010
0000
1000
0000
0100
0000
0010
0000
0000
0001
0000
1000
0000
2000
,
0000
0000
3100
0000
1000
0000
0010
0000
0100
0000
0000
1000
0000
0100
0000
0200
,
0000
0000
0301
0000
1000
0000
0100
0000
0010
0000
0000
1000
0000
0010
0000
0020
,
0000
0000
0130
0000
1000
0000
0000
0000
0010
0000
0100
0000
0001
0000
0000
0021
,
0000
0000
0130
0000
1000
0000
0000
1020
0000
0000
0130
0000
1000
0000
0000
1200
,
0000
0000
0301
0000
0010
0000
0000
0010
0000
0000
0100
0000
1000
0000
0000
0201
,
0000
0000
0310
0000
1000
0000
0000
0021
0000
0000
0130
0000
1000
0000
0000
1000
,
0000
0000
0001
0000
0001
0000
0100
0000
0010
0000
0100
0000
0001
0000
0000
0011
,
0000
1020
0000
0000
0130
0000
0010
0000
2000
0000
0000
3100
0000
0000
1000
0000
,
0001
0010
0001
0100
0010
0100
0100
0001
,
2000
0000
0100
0000
3002
0000
0010
0000
1003
0000
0000
0010
0000
0010
0000
0200
,
0000
0000
0301
0000
0010
0000
0100
0000
1000
0000
0001
0000
0001
0000
0000
0101
,
0000
1200
0000
0000
0310
0000
0100
0000
2000
0000
0000
3010
0000
0000
1000
0000
,
0001
0100
0001
0010
0100
0010
0010
0001
,
2000
0000
0010
0000
3002
0000
0100
0000
1003
0000
0000
0100
0000
0200
0000
0000
,
0001
0000
0000
0010
0000
0000
1300
0000
0000
0000
0000
0000
0000
0000
0000
0000
,
2001
3010
2001
3010
0100
0000
0010
0001
,
1000
0000
0200
0000
0010
0000
0000
0302
0000
0000
1003
0000
1000
0000
0100
0000
,
0020
0000
0000
0001
0000
0000
0130
0000
2000
0000
0000
0001
0000
0000
3010
0000
,
0100
1000
0100
0010
0100
0001
0001
0000
,
1002
0013
1002
0013
0100
0000
0010
1000
,
0001
0000
0200
0000
0010
0000
0000
2300
0000
0000
3010
0000
0100
0000
0001
0000
,
2000
0000
0000
0100
0000
0000
3001
0000
1000
0000
0010
0000
0100
0000
0010
0000
,
0002
0000
0000
0000
0023
0000
0000
0000
1030
0000
0000
0001
0000
0010
0000
0020
,
0000
0000
0130
0000
0000
0000
0100
0000
1000
0000
0000
0010
0000
0100
0000
0000
,
0001
0000
0000
1000
0000
0010
0000
2000
0000
0000
3200
0000
0001
0000
0000
0320
,
0000
0031
0000
0001
1000
0010
0010
0200
,
0000
0000
1000
0000
0320
0000
0000
0000
1030
0000
0000
0001
0000
0010
0000
2000
,
0000
0000
0000
3001
0000
0100
0000
2000
0000
0000
0000
0000
3001
0000
0100
0000
,
0010
1000
0100
1000
0001
0100
0001
0010
,
0100
1000
0010
1000
0001
0010
0001
0100
,
2000
0000
0000
3100
0000
0000
0002
0000
1003
0000
0100
0000
0010
0000
0100
0000
,
1000
0010
0100
0010
0001
1000
0100
0001
,
0020
0030
0020
0030
0100
0000
1000
0001
,
0100
0000
0010
0000
2000
0000
0000
3001
0000
0000
0010
0000
0010
0000
0100
0000
,
2000
0000
0000
3010
0000
0000
1000
0000
0002
0000
0000
0013
0000
0000
0001
0000
,
0100
0010
1000
0000
0100
1000
1000
0000
,
0020
0030
0020
0030
0100
0000
0001
1000
,
0100
0000
0010
0000
0002
0000
0000
1003
0000
0000
0010
0000
0010
0000
0100
0000
,
0001
0010
0001
1000
0010
1000
0100
0010
,
0001
0000
0000
0000
1000
0010
0010
0000
,
0120
1030
0120
1030
0001
0000
0010
1000
,
0001
0000
0200
0000
1000
0000
0000
0320
0000
0000
0031
0000
0001
0000
0100
0000
,
0020
0000
0000
1000
0000
0000
0130
0000
0002
0000
0000
1000
0000
0000
0013
0000
,
0100
0001
0100
1000
0001
0010
0010
0000
,
0120
0031
0120
0031
1000
0000
0010
0001
,
1000
0000
0200
0000
0001
0000
0000
0320
0000
0000
1030
0000
0100
0000
0010
0000
,
0002
0000
0000
0100
0000
0000
1003
0000
0200
0000
0000
0010
0000
0000
1300
0000
,
1001
0000
0000
0000
0001
0001
0001
0000
,
0201
0000
0000
0010
0000
0000
1000
0000
0000
0010
0000
0000
0301
0000
1000
0000
,
0100
1000
0001
0100
0001
0010
0100
1100
;

//--------------- dance-single - XO FS- KS- ----------------
#NOTEDATA:;
#STEPSTYPE:dance-single;
#DESCRIPTION:XO FS- KS-;
#DIFFICULTY:Challenge;
#METER:16;
#RADARVALUES:0,0,0,0,0;
#CREDIT:sorae & Talkion;
#NOTES:
0000
0000
0000
0000
,
0000
0000
0000
0000
,
0000
0000
0000
0000
,
0000
0000
0000
0000
0000
0000
0000
0000
0000
0000
1000
0000
0001
0100
0001
0010
,
0000
0100
0010
0100
1000
0000
0001
0000
0101
0000
1010
0000
2000
0000
0000
0000
,
3100
0000
0010
0000
0100
0000
1000
0000
0002
0000
0000
0103
0010
0000
1000
0001
,
0000
0000
0000
0010
0000
0000
0100
0000
1000
0000
0100
0000
1000
0000
0000
0000
0000
0000
0001
0000
0000
0000
0000
0000
0100
0000
0000
0000
0000
0000
0001
0000
0000
0000
0000
0000
0001
0000
0000
1000
0000
0000
0100
0000
0000
1000
0000
0000
,
0001
0100
0000
0010
0100
0000
0001
0000
2000
0000
0000
3100
0010
0000
0001
1000
,
0000
0000
0000
0010
0000
0000
0100
0000
0001
0000
0100
0000
0001
0000
0000
0000
0000
0000
1000
0000
0000
0100
0000
0000
0010
0000
0000
0100
0000
0000
1000
0000
0000
0001
0000
0000
1000
0000
0000
0010
0000
0000
0100
0000
0000
0002
0000
0000
,
0000
0000
1003
0000
0010
0000
1000
0001
1000
0000
0100
0020
0000
0100
0000
0032
,
0000
0000
1003
0000
0001
0000
0100
0000
0010
0000
0001
0020
0000
0100
0000
2030
,
0000
0000
3001
0000
1000
0000
0100
0000
0010
0000
1000
0020
0000
0100
0000
0032
,
0000
0000
0103
0000
0010
0000
0100
0000
0001
0000
1000
0000
0100
0010
0000
0012
,
0000
0000
1003
0000
0010
0100
0000
0100
0000
0000
0001
0000
0100
0010
0000
2010
,
0000
0000
3001
0010
0100
0010
0000
0100
0000
0000
1000
0000
0001
0100
0001
2000
,
0000
0000
3100
0000
0010
0000
0001
2000
0000
0000
3010
0000
0100
0000
0001
2000
,
0000
0000
3100
0000
0100
0000
1000
0001
0100
0010
0100
0001
0000
1001
0000
1200
,
0000
0000
0310
0000
0001
0000
1000
0000
0010
0000
0100
0010
0100
0001
0000
0020
,
0000
0000
0130
0000
1000
0000
0100
0000
0010
0000
1000
0010
0100
0010
0000
0002
,
0000
0000
1003
0000
0001
0000
0100
0000
0010
0000
0001
0010
0100
0010
0000
2000
,
0000
0000
3100
0000
0010
0000
0100
0000
1000
0000
0001
0000
0100
0010
0000
2010
,
0000
0000
3001
0000
0020
0100
0000
0032
0000
0000
1003
0000
0010
0100
0000
1002
,
0000
0000
0103
0000
0002
1000
0000
0013
0000
0000
0100
0000
0010
0001
0000
2000
,
0000
0000
3010
0100
0000
0001
0000
2000
0000
0000
3100
0010
0000
0001
0000
2000
,
0000
0000
3010
0000
0010
0000
1000
0001
0010
0100
1000
0001
0100
0010
0000
1010
,
0M00
0020
0000
0000
0032
0000
0010
0000
2003
0000
0000
3100
0010
0000
0001
1000
,
0000
0010
0100
0010
1000
0000
0100
0000
1000
0000
0001
0000
0001
0100
0010
1000
,
0002
0000
0010
0000
2003
0000
0010
0000
3200
0000
0310
0100
M000
0100
0000
0001
,
0000
0100
0010
0100
0010
0000
1000
0000
0001
0000
0010
0000
0010
0100
0000
1100
,
00M0
0200
0000
0000
0302
0000
0100
0000
2003
0000
0000
3010
0100
0000
0001
1000
,
0000
0100
1000
0100
0010
0000
0001
0000
0100
0000
0001
0000
0001
1000
0100
1000
,
0002
0000
0100
0000
2003
0000
0100
0000
3020
0000
0130
0010
M000
0010
0000
0001
,
0010
0100
0000
1000
0001
0100
0010
0100
0002
0000
0000
0000
1003
0000
0100
0000
,
0020
0001
0000
003M
0010
2000
0000
0000
3001
0000
0100
0010
0100
0000
1000
0000
,
0001
0000
0010
0000
0100
0000
0001
2000
0000
0000
3100
0000
0100
0000
0010
0000
,
0012
0000
0000
0100
0000
0000
1003
0000
2010
0000
0000
0100
0000
0000
3001
0000
,
0200
0000
1300
0100
0010
0000
1000
0000
0001
0000
0011
0000
1010
0000
0000
0000
,
0020
1000
0000
M030
0010
0002
0000
0000
1003
0000
0100
0010
0100
0000
0001
0000
,
1000
0000
0010
0100
0010
0000
0001
2000
0000
0000
3010
0000
0100
0000
0001
0000
,
1002
0000
0000
0010
0000
0000
1003
0000
0001
0100
0010
0100
0002
0000
0010
0000
,
2003
0000
0000
0000
3002
0000
0000
0000
0103
0010
0000
1000
0000
0100
0000
0200
,
0000
0000
0310
0000
0000
0000
0010
0000
0001
0100
0000
0001
0000
1000
0100
1000
,
0010
0100
0000
0001
0000
1000
0000
0200
0000
0000
0310
0000
1000
0010
0000
0100
,
1000
0000
0001
0000
0000
0000
0001
0000
0100
0010
1000
0100
1000
0001
0010
0001
,
0200
0000
1000
0000
0320
0000
0000
0000
1030
0001
0000
0100
0000
0001
0000
0020
,
0000
0000
0130
0001
0000
1000
0000
0020
0000
0000
0031
0000
0001
1000
0010
0100
,
0010
1000
0100
0010
0002
0000
0103
0010
2000
0100
0000
0000
3010
0100
0002
0000
,
0000
0013
0001
0200
0010
0000
0301
0010
0200
0000
1300
0100
0010
1000
0010
0001
,
0200
0000
0000
0310
0000
1000
0200
0000
1300
0010
1000
0000
0001
0100
0001
0010
,
0000
0100
1000
0001
1000
0010
0100
0010
0002
0000
1003
0100
0002
0000
1003
0000
,
0200
0010
0000
03M0
0100
0002
0000
0000
1003
0000
0000
0000
0010
0000
0001
0000
,
1000
0000
0100
0000
0010
0000
1000
0002
0000
0000
0013
0000
0010
0000
0100
0000
,
2000
0000
0000
3001
0000
0000
0100
0000
0002
0000
0000
1003
0000
0000
0100
0000
,
0020
1030
0010
0100
1000
0001
0001
0000
,
0200
0010
0000
03M0
0100
2000
0000
0000
3001
0000
0000
0000
0010
0000
1000
0000
,
0001
0000
0100
0000
0010
0000
0001
2000
0000
0000
3010
0000
0100
0000
0001
0000
,
1000
0000
0100
0000
1000
0000
0001
0000
0100
0010
0100
0010
1000
0001
1000
0001
,
0010
0000
0000
0000
0000
0000
0100
0010
0001
0000
0101
0000
1100
0000
0000
0000
,
0200
0010
0000
03M0
0100
0020
0000
0000
1030
0000
0010
0100
0010
0000
0001
0000
,
1000
0000
0100
0000
0010
0000
1000
0002
0000
0000
0013
0000
0010
0000
0100
0000
,
2100
0000
0000
0010
0000
0000
3001
0000
0102
0000
0000
0010
0000
0000
1003
0000
,
0020
0000
0031
0010
0100
0000
0001
0000
1000
0000
1100
0000
0101
0000
0000
0000
,
0200
0010
0000
03M0
0100
0020
0000
0000
0031
0000
0010
0100
0010
0000
1000
0000
,
0001
0000
0100
0010
0100
0000
1000
0002
0000
0000
0103
0000
0010
0000
1000
0000
,
2001
0000
0000
0100
0000
0000
3001
0000
1002
0000
0000
0100
0000
0000
1003
0000
,
0001
0000
0010
0100
0000
1000
0100
1000
0010
0000
0110
0000
1001
0000
0000
0000
,
1100
0000
1000
0010
0000
0010
0100
0000
0001
1000
0001
0010
0100
0000
1000
0100
,
0010
0000
0001
0000
1000
0000
0010
0100
0010
1000
0000
1000
0100
0000
0101
0000
;

//--------------- dance-single - XO FS- KS- ----------------
#NOTEDATA:;
#STEPSTYPE:dance-single;
#DESCRIPTION:XO FS- KS-;
#DIFFICULTY:Edit;
#METER:16;
#RADARVALUES:0,0,0,0,0;
#CHARTNAME:;
#CHARTSTYLE:;
#CREDIT:sorae & Talkion;
#METERF:1;
#NOTES:
0000
0000
0000
0000
,
0000
0000
0000
0000
,
0000
0000
0000
0000
,
0000
0000
0000
0000
0000
0000
0000
0000
0000
0000
1000
0000
0001
0010
0001
0100
,
0000
0010
0100
0010
1000
0000
0001
0000
0011
0000
1100
0000
2000
0000
0000
0000
,
3010
0000
0100
0000
0010
0000
1000
0000
0002
0000
0000
0013
0100
0000
1000
0001
,
0000
0000
0000
0100
0000
0000
0010
0000
1000
0000
0010
0000
1000
0000
0000
0000
0000
0000
0001
0000
0000
0000
0000
0000
0010
0000
0000
0000
0000
0000
0001
0000
0000
0000
0000
0000
0001
0000
0000
1000
0000
0000
0010
0000
0000
1000
0000
0000
,
0001
0010
0000
0100
0010
0000
0001
0000
2000
0000
0000
3010
0100
0000
0001
1000
,
0000
0000
0000
0100
0000
0000
0010
0000
0001
0000
0010
0000
0001
0000
0000
0000
0000
0000
1000
0000
0000
0010
0000
0000
0100
0000
0000
0010
0000
0000
1000
0000
0000
0001
0000
0000
1000
0000
0000
0100
0000
0000
0010
0000
0000
0002
0000
0000
,
0000
0000
1003
0000
0010
0000
1000
0001
1000
0000
0100
0020
0000
0100
0000
0032
,
0000
0000
1003
0000
0001
0000
0100
0000
0010
0000
0001
0020
0000
0100
0000
2030
,
0000
0000
3001
0000
1000
0000
0100
0000
0010
0000
1000
0020
0000
0100
0000
0032
,
0000
0000
0103
0000
0010
0000
0100
0000
0001
0000
1000
0000
0100
0010
0000
0012
,
0000
0000
1003
0000
0010
0100
0000
0100
0000
0000
0001
0000
0100
0010
0000
2010
,
0000
0000
3001
0010
0001
0010
0000
0100
0000
0000
1000
0000
0001
0100
0001
2000
,
0000
0000
3100
0000
0010
0000
0001
2000
0000
0000
3010
0000
0100
0000
0001
2000
,
0000
0000
3100
0000
0100
0000
1000
0001
0100
0010
0100
0001
0000
1001
0000
1200
,
0000
0000
0310
0000
0001
0000
1000
0000
0010
0000
0100
0010
0100
0010
0000
2000
,
0000
0000
3001
0000
1000
0000
0100
0000
0010
0000
1000
0010
0100
0010
0000
0002
,
0000
0000
1003
0000
0001
0000
0100
0000
0010
0000
0001
0010
0100
0010
0000
2000
,
0000
0000
3100
0000
0010
0000
0100
0000
1000
0000
0001
0000
0100
0010
0000
2010
,
0000
0000
3001
0000
0010
0100
0000
2100
0000
0000
3001
0000
0100
0010
0000
1002
,
0000
0000
0013
0000
0001
1000
0000
1000
0000
0000
0010
0000
0100
0010
0000
2000
,
0000
0000
3001
0010
0000
0100
0000
2000
0000
0000
3001
0100
0000
0010
0000
2000
,
0000
0000
3001
0000
0001
0000
0010
0100
0010
0001
1000
0001
0100
0010
0000
1010
,
0M00
0020
0000
0000
0032
0000
0010
0000
2003
0000
0000
3100
0010
0000
0001
1000
,
0000
0010
0100
0010
1000
0000
0100
0000
1000
0000
0001
0000
0001
0100
0010
1000
,
0002
0000
0010
0000
2003
0000
0010
0000
3200
0000
0310
0100
M000
0100
0000
0001
,
0000
0100
0010
0100
0010
0000
1000
0000
0001
0000
0010
0000
0010
0100
0000
1100
,
00M0
0200
0000
0000
0302
0000
0100
0000
2003
0000
0000
3010
0100
0000
0001
1000
,
0000
0100
1000
0100
0010
0000
0001
0000
0100
0000
0001
0000
0001
1000
0100
1000
,
0002
0000
0100
0000
2003
0000
0100
0000
3020
0000
0130
0010
M000
0010
0000
0001
,
0010
0100
0000
1000
0001
0100
0010
0100
0002
0000
0000
0000
1003
0000
0100
0000
,
0020
0001
0000
003M
0010
2000
0000
0000
3001
0000
0100
0010
0100
0000
1000
0000
,
0001
0000
0010
0000
0100
0000
0001
2000
0000
0000
3100
0000
0100
0000
0010
0000
,
0012
0000
0000
0100
0000
0000
1003
0000
2010
0000
0000
0100
0000
0000
3001
0000
,
0200
0000
1300
0100
0010
0000
1000
0000
0001
0000
0011
0000
1010
0000
0000
0000
,
0020
1000
0000
M030
0010
0002
0000
0000
1003
0000
0100
0010
0100
0000
0001
0000
,
1000
0000
0010
0100
0010
0000
0001
2000
0000
0000
3010
0000
0100
0000
0001
0000
,
1002
0000
0000
0010
0000
0000
1003
0000
0001
0100
0010
0100
0002
0000
0010
0000
,
2003
0000
0000
0000
3002
0000
0000
0000
0103
0010
0000
1000
0000
0100
0000
0200
,
0000
0000
0310
0000
0000
0000
0010
0000
0001
0100
0000
0001
0000
1000
0100
1000
,
0010
0100
0000
0001
0000
1000
0000
0200
0000
0000
0310
0000
1000
0010
0000
0100
,
1000
0000
0001
0000
0000
0000
0001
0000
0100
0010
1000
0100
1000
0001
0010
0001
,
0200
0000
1000
0000
0320
0000
0000
0000
1030
0001
0000
0100
0000
0001
0000
0020
,
0000
0000
0130
0001
0000
1000
0000
0020
0000
0000
0031
0000
0001
1000
0010
0100
,
0010
1000
0100
0010
0002
0000
0103
0010
2000
0100
0000
0000
3010
0100
0002
0000
,
0000
0013
0001
0200
0010
0000
0301
0010
0200
0000
1300
0100
0010
1000
0010
0001
,
0200
0000
0000
0310
0000
1000
0200
0000
1300
0010
1000
0000
0001
0100
0001
0010
,
0000
0100
1000
0001
1000
0010
0100
0010
0002
0000
1003
0100
0002
0000
1003
0000
,
0200
0010
0000
03M0
0100
0002
0000
0000
1003
0000
0000
0000
0010
0000
0001
0000
,
1000
0000
0100
0000
0010
0000
1000
0002
0000
0000
0013
0000
0010
0000
0100
0000
,
2000
0000
0000
3001
0000
0000
0100
0000
0002
0000
0000
1003
0000
0000
0100
0000
,
0020
1030
0010
0100
1000
0001
0001
0000
,
0200
0010
0000
03M0
0100
2000
0000
0000
3001
0000
0000
0000
0010
0000
1000
0000
,
0001
0000
0100
0000
0010
0000
0001
2000
0000
0000
3010
0000
0100
0000
0001
0000
,
1000
0000
0100
0000
1000
0000
0001
0000
0100
0010
0100
0010
1000
0001
1000
0001
,
0010
0000
0000
0000
0000
0000
0100
0010
0001
0000
0101
0000
1100
0000
0000
0000
,
0200
0010
0000
03M0
0100
0020
0000
0000
1030
0000
0010
0100
0010
0000
0001
0000
,
1000
0000
0100
0000
0010
0000
1000
0002
0000
0000
0013
0000
0010
0000
0100
0000
,
2100
0000
0000
0010
0000
0000
3001
0000
0102
0000
0000
0010
0000
0000
1003
0000
,
0020
0000
0031
0010
0100
0000
0001
0000
1000
0000
1100
0000
0101
0000
0000
0000
,
0200
0010
0000
03M0
0100
0020
0000
0000
0031
0000
0010
0100
0010
0000
1000
0000
,
0001
0000
0100
0010
0100
0000
1000
0002
0000
0000
0103
0000
0010
0000
1000
0000
,
2001
0000
0000
0100
0000
0000
3001
0000
1002
0000
0000
0100
0000
0000
1003
0000
,
0001
0000
0010
0100
0000
1000
0100
1000
0010
0000
0110
0000
1001
0000
0000
0000
,
1100
0000
1000
0010
0000
0010
0100
0000
0001
1000
0001
0010
0100
0000
1000
0100
,
0010
0000
0001
0000
1000
0000
0010
0100
0010
1000
0000
1000
0100
0000
0101
0000
;
