#TITLE:トウキョウ・シャンディ・ランデヴ;
#SUBTITLE:(feat. KAF & Tsumiki);
#ARTIST:MAISONdes;
#TITLETRANSLIT:Tokyo Shandy Rendez-vous;
#SUBTITLETRANSLIT:;
#ARTISTTRANSLIT:;
#GENRE:;
#CREDIT:nobarben;
#BANNER:Tokyo Shandy Rendez-vous [nobarben].png;
#BACKGROUND:Tokyo Shandy Rendez-vous [nobarben]-bg.png;
#LYRICSPATH:;
#CDTITLE:;
#MUSIC:Tokyo Shandy Rendez-vous [nobarben].ogg;
#OFFSET:1.058641;
#SAMPLESTART:56.700001;
#SAMPLELENGTH:12.262768;
#LASTBEATHINT:0.006998;
#SELECTABLE:YES;
#BPMS:0.000000=137.000000
;
#STOPS:
;
#BGCHANGES:;
#KEYSOUNDS:;
#ATTACKS:;

//---------------dance-single - ----------------
#NOTES:
     dance-single:
     :
     Challenge:
     15:
     0.727731,0.768032,0.175371,0.768293,0.897734,610.000000,589.000000,21.000000,92.000000,0.000000,0.000000,0.727731,0.768032,0.175371,0.768293,0.897734,610.000000,589.000000,21.000000,92.000000,0.000000,0.000000:
// measure 0
0000
0000
0000
0000
,  // measure 1
0000
0000
0000
0000
,  // measure 2
0000
0000
0000
0000
,  // measure 3
0000
0000
0000
0000
0000
0000
0000
0000
0000
0000
0010
0000
0100
0010
0000
1001
,  // measure 4
0000
0000
0000
0000
0000
0000
0000
0000
0101
0000
0101
0000
1000
0100
0000
0100
,  // measure 5
1000
0000
0010
0000
0100
0000
0010
0000
2000
0000
0000
3001
0100
0000
0000
0001
,  // measure 6
0000
0010
0100
0010
0100
0000
1000
0000
0020
0000
0100
0000
0130
0001
1000
0001
,  // measure 7
0010
0100
0000
0100
0010
0000
0001
0000
0020
0000
0000
0130
1000
0000
0000
0001
,  // measure 8
0000
0100
0010
1000
0010
0000
1000
0000
0002
0000
1000
0000
1003
0000
0000
0000
,  // measure 9
0001
0010
0001
0100
0001
0010
0100
1000
,  // measure 10
0010
1000
0100
1000
0010
0100
0001
0010
,  // measure 11
0001
0100
1000
0100
0001
1000
0010
0100
,  // measure 12
0001
0000
1000
0000
0100
0000
0001
0000
0100
0000
1000
0000
0001
0010
0000
0200
,  // measure 13
0000
0000
0310
0000
0001
0100
0000
0002
0000
0000
1003
0000
0010
0100
0000
0002
,  // measure 14
0000
0000
0013
0100
0010
0100
0000
2000
0000
0000
3000
0000
0001
1000
0010
0200
,  // measure 15
0000
0000
0310
0000
1000
0000
0001
0020
0000
0000
0130
0000
1000
0000
0100
0020
,  // measure 16
0000
0000
0001
0000
0031
0000
1000
0001
1000
0010
0100
0001
0000
0011
0000
0210
,  // measure 17
0000
0000
1300
0001
0010
0000
0001
1000
0010
0000
0100
0001
0000
0010
0000
0200
,  // measure 18
1000
0000
1300
0000
0001
0000
1000
0010
0100
0000
0001
1000
0000
0001
0000
0020
,  // measure 19
0100
0000
0130
0000
0010
0000
0001
1000
0010
0000
0100
0010
0000
1000
0000
0200
,  // measure 20
0010
0300
0100
2000
0000
0000
3001
0000
0010
0000
0001
0000
1000
0010
0000
0200
,  // measure 21
0010
0000
0310
0000
1000
0100
0000
0020
0001
0000
0031
0000
0100
0010
0000
0002
,  // measure 22
0010
0000
0013
0100
0000
0001
0000
0010
0200
0000
0000
0000
1300
0010
0000
0200
,  // measure 23
0010
0000
0301
1000
0000
0001
0000
0020
0100
0000
0031
1000
0000
0010
0000
0200
,  // measure 24
0010
0000
0001
0000
0301
0000
1000
0001
0010
0100
1000
0000
0001
0100
0000
1100
,  // measure 25
0000
0102
0000
0000
1003
0000
0001
0000
0020
0000
0000
0130
0010
0000
0000
0002
,  // measure 26
0000
0103
0010
1000
0001
0000
0010
0000
0200
0000
0010
0000
0310
0001
0100
0010
,  // measure 27
2000
0000
3100
0000
0020
0000
0130
0000
0002
0000
0103
1000
0000
0001
0000
0200
,  // measure 28
0000
0310
0100
0001
1000
0000
1000
0000
0002
0000
1000
0000
1003
0100
0000
0101
,  // measure 29
0000
2100
0000
0000
3001
0000
1000
0000
0020
0000
0000
0130
0010
0000
0000
2000
,  // measure 30
0000
3100
0010
0001
1000
0000
0010
0000
0200
0000
0010
0000
0310
1000
0100
0010
,  // measure 31
0002
0000
0103
0000
0020
0000
0130
0000
2000
0000
3100
0010
0000
1000
0001
0010
,  // measure 32
0100
0010
0000
0001
1000
0010
0100
0010
1000
0001
0000
0001
0020
0000
0130
0000
,  // measure 33
2000
0100
3000
0100
0002
0100
0003
0100
1000
0000
0000
0000
0001
0000
1000
0010
,  // measure 34
0100
0000
0001
1000
0100
0000
1000
0002
0000
0000
0010
0000
0013
0000
0100
1000
,  // measure 35
0002
0000
0000
0103
0010
0000
1000
0000
0200
0000
0000
0310
0001
0000
1000
0000
,  // measure 36
0010
0000
0100
0001
1000
0000
0100
0000
0010
0000
1010
0000
0011
0000
0001
1000
,  // measure 37
0002
0100
0003
0100
2000
0100
3000
0100
0001
0000
0000
0000
1000
0000
0001
0010
,  // measure 38
0100
0000
1000
0001
0100
0000
0010
2000
0000
3001
0010
0000
0001
0100
0010
0000
,  // measure 39
2000
0000
0000
3100
0010
0000
0001
0000
0200
0000
0000
0310
1000
0000
0001
0000
,  // measure 40
0010
0000
0100
0000
0010
0000
0001
0000
1000
0010
0000
0100
0000
0001
0000
0020
,  // measure 41
0100
0000
0130
0000
0010
0000
0001
0000
1000
0001
0000
0100
0000
0010
0100
0001
,  // measure 42
1000
0100
0000
0100
0000
1000
0000
0002
0010
0000
0013
0000
0001
1000
0000
0020
,  // measure 43
0100
0000
0130
0000
0001
0000
0100
0000
0001
0010
0000
0100
0000
1000
0001
0200
,  // measure 44
0010
0000
0302
0000
2003
0000
0010
0000
3010
1000
0000
0100
0000
0001
0000
0200
,  // measure 45
0010
0000
1300
0010
0000
0100
0000
0020
0100
0000
1030
0000
0002
0000
0023
0000
,  // measure 46
0130
1000
0001
1000
0020
0000
1030
0001
0100
0002
0000
0013
0100
1000
0002
0000
,  // measure 47
0103
0001
0010
0200
0000
0310
0001
0100
0020
0000
0030
1000
0100
0010
0100
1000
,  // measure 48
0002
0000
0013
0100
0000
1000
0002
0000
0103
0010
1000
0000
0001
0010
0100
0010
,  // measure 49
0000
2000
3000
0020
0030
0001
1000
0010
0100
0000
0001
0010
0200
0000
0000
0000
,  // measure 50
2300
0010
0000
0001
,  // measure 51
0000
0000
0100
0000
0000
0001
3001
0000
,  // measure 52
0002
0010
0000
1003
,  // measure 53
2000
0000
3020
0000
0230
0001
0302
0000
,  // measure 54
2003
3000
0000
0000
0200
0300
0000
0000
1100
0000
0000
0000
0001
0000
0010
0000
,  // measure 55
0001
1000
0010
0100
0001
0010
0100
0000
,  // measure 56
1000
0000
0100
0000
1000
0000
0010
0000
0100
0001
1000
0001
0010
0100
1000
0001
,  // measure 57
1000
0000
0100
0010
0000
0001
0100
0010
1000
0000
0001
0000
2002
0000
3003
0000
,  // measure 58
0002
0010
0003
0010
2000
0010
3000
0010
0001
0000
0000
0000
1000
0000
0001
0100
,  // measure 59
0010
0000
1000
0001
0010
0000
0001
2000
0000
0000
0100
0000
3100
0000
0010
0001
,  // measure 60
2000
0000
0000
3010
0100
0000
0001
0010
0200
0000
0000
1300
0001
0000
0100
0010
,  // measure 61
1000
0000
0001
0010
1000
0000
0010
0000
0100
0000
0101
0000
1100
0000
1000
0001
,  // measure 62
2000
0010
3000
0010
0002
0010
0003
0010
1000
0000
0000
0000
0001
0000
1000
0100
,  // measure 63
0010
0000
0001
1000
0010
0000
0100
0002
0000
1003
0100
0000
1000
0010
0100
0000
,  // measure 64
0002
0000
0000
0013
0100
0000
1000
0001
0200
0000
0000
0310
1000
0000
0001
0010
,  // measure 65
0100
0000
1000
0001
0000
0100
0010
1000
0100
0000
0101
0000
1100
0000
0000
0000
,  // measure 66
0110
0000
0001
1000
0000
0010
0100
0000
0001
0010
0100
1000
0010
0000
0100
0001
,  // measure 67
0010
0000
1010
0000
0011
0000
0001
0100
0010
1000
0000
0100
0010
0000
2002
0000
,  // measure 68
0000
3003
0000
0000
0000
0000
0000
0000
;

//---------------dance-single - ----------------
#NOTES:
     dance-single:
     :
     Hard:
     14:
     0.615589,0.654249,0.116914,0.534465,0.605448,516.000000,502.000000,14.000000,64.000000,5.000000,0.000000,0.615589,0.654249,0.116914,0.534465,0.605448,516.000000,502.000000,14.000000,64.000000,5.000000,0.000000:
0000
0000
0000
0000
,
0000
0000
0000
0000
,
0000
0000
0000
0000
,
0000
0000
0000
0000
0000
0000
0000
0000
0000
0000
0001
0000
1000
0000
0000
1001
,
0000
0000
0000
0000
0100
0010
0220
0330
,
1000
0000
0100
0000
0010
0000
0100
0000
2000
0000
0000
3001
0100
0000
0000
0010
,
0000
0100
0010
0000
1000
0000
0001
0000
0020
0000
0100
0000
0130
0000
1000
0000
,
0001
0000
0100
0000
0010
0000
0100
0000
0002
0000
0000
1003
0100
0000
0000
0010
,
0000
0100
0010
0000
0001
0000
1000
0000
0020
0000
0100
0000
0130
0000
0000
0000
,
0010
1000
0001
1000
0100
1000
0001
0010
,
0200
0000
0310
0001
1000
0001
0100
0010
,
2000
0000
3001
0010
0100
1000
0010
0100
,
0001
0100
0010
1000
0001
0010
0100
1000
,
0001
0100
0001
0100
1000
0100
1000
0100
,
0001
0010
0001
0010
0200
0000
1300
0001
,
1000
0100
1000
0100
0001
0100
0001
0100
,
1000
0000
0010
0000
0010
0000
0100
0010
0100
0000
0001
1000
0000
0100
0000
0020
,
0000
0000
0130
0000
1000
0000
0001
0000
1000
0000
0010
0100
0000
0001
0000
2000
,
0100
0000
0000
0000
3001
0000
0010
0000
0001
0000
1000
0010
0000
0100
0000
0002
,
1000
0000
0000
0000
0013
0000
0100
0000
1000
0000
0001
0100
0000
0010
0000
2000
,
0100
0000
0000
0002
0000
0000
0000
0000
3003
0000
1000
0000
0001
0010
0000
0200
,
0000
0000
0310
0000
0001
1000
0000
0020
0000
0000
0130
0000
0010
1000
0000
0002
,
0000
0000
0013
0100
0000
1000
0000
0002
0100
0000
0000
0000
1003
0100
0000
2000
,
0000
0000
3001
0100
0000
0001
0000
0020
0000
0000
0130
1000
0000
0010
0000
0200
,
0000
0000
0010
0000
0310
0000
1000
0001
1000
0000
0100
0000
0010
0001
0000
0100
,
00M0
0200
0000
0000
1300
0000
0001
0000
0200
0000
0000
0310
1000
0000
0000
0001
,
0000
0010
0100
0000
0010
0000
0001
0000
2000
0000
0001
0000
3001
0100
0010
0000
,
1000
0000
1000
0000
0100
0000
0100
0000
0001
0000
0100
0010
0000
0100
0000
2000
,
0000
3001
0100
0001
0100
0000
0010
0000
2000
0000
0010
0000
3010
1000
0000
0100
,
00M0
0200
0000
0000
0301
0000
1000
0000
0200
0000
0000
0310
0001
0000
0000
1000
,
0000
0010
0100
0000
0010
0000
1000
0000
0002
0000
1000
0000
1003
0100
0010
0000
,
0001
0010
0000
0100
0010
0000
0100
0000
1000
0001
0100
0000
0010
0000
0100
0000
,
0001
1000
0000
0010
0100
0000
0001
1000
0100
0000
0000
0000
0020
0000
0030
0000
,
0001
0100
0001
0000
1000
0100
1000
0000
0001
0000
0000
0000
1000
0000
0001
0000
,
0010
0000
0001
0000
0100
0000
0010
2000
0000
0000
0001
0000
3001
0000
0010
0000
,
0200
0000
0000
0310
0001
0000
1000
0000
0020
0000
0000
0130
0001
0000
1000
0000
,
0100
0000
1000
0001
0010
0000
0100
0000
1000
0000
0010
0M00
0020
0000
0031
0000
,
1000
0100
1000
0000
0001
0100
0001
0000
1000
0000
0000
0000
0001
0000
1000
0000
,
0010
0000
1000
0000
0100
0000
0010
0002
0000
0000
1003
0000
0001
0100
0010
0000
,
0200
0000
0000
0310
1000
0000
0001
0000
0020
0000
0000
0130
1000
0000
0001
0000
,
0200
0000
0000
0000
0010
0000
0000
0000
0301
1000
0000
0001
0000
0010
0000
0200
,
0000
0000
1300
0000
0000
0000
1000
0000
0100
1000
0000
0001
0000
1000
0010
0000
,
1000
0100
0000
0010
0000
0001
0000
0200
0000
0000
0310
0000
1000
0001
0000
0020
,
0000
0000
0130
0000
0000
0000
0010
0000
0001
0000
0100
00M0
0200
0000
0000
0000
,
1300
0000
0001
0000
0200
0000
0000
0000
0310
1000
0000
0001
0000
0010
0000
0200
,
0000
0000
0310
0001
0000
1000
0000
0020
0000
0000
0000
0000
0230
0000
0000
0000
,
0310
1000
0001
1000
0002
0000
0000
0013
0100
0020
0000
0000
0130
1000
0002
0000
,
0000
1003
0010
0200
0000
0000
0301
1000
0200
0000
0000
0310
0001
1000
0001
0000
,
0200
0000
0000
0310
0000
1000
0001
0000
0010
0100
0010
0000
0001
1000
0001
1000
,
0000
0010
0000
0100
0000
0001
1000
0001
1000
0000
0100
0010
0001
0000
0000
0000
,
0200
0010
0000
0001
,
0000
0000
0010
0000
0000
0001
0301
1000
,
0200
0010
0000
1000
,
0000
0000
0010
0000
0000
1000
1300
0000
,
0001
0000
0100
0000
0101
0000
1000
0010
,
1000
0001
0010
0100
1000
0010
0100
0000
,
0001
0000
0001
0000
1000
0000
1000
0000
0100
0010
0100
0010
0100
0010
0100
0010
,
0100
0000
0000
0000
1000
0001
1001
0000
,
0001
0010
0100
0000
1000
0010
0100
0000
0001
0000
0000
0000
1000
0000
0001
0000
,
0010
0000
0001
0000
0100
0000
0010
2000
0000
0000
0100
0000
3100
0000
0010
0000
,
0012
0000
0000
1003
0001
0000
0100
0000
2010
0000
0000
3001
1000
0000
0100
0000
,
0110
0000
0001
1000
0001
0000
0100
0000
0010
0000
0100
000M
0200
0000
1300
0001
,
1000
0010
0100
0000
0001
0010
0100
0000
1000
0000
0000
0000
0001
0000
1000
0010
,
0100
0000
0001
0100
0001
0000
1000
0200
0000
0000
0310
0000
0001
0100
0010
0000
,
2010
0000
0000
3100
0010
0000
0001
0000
0012
0000
0000
0103
0010
0000
1000
0000
,
1001
0000
0000
0000
0110
0110
1001
0000
,
0001
0000
1000
0100
0000
1000
0001
0000
0100
0001
0000
1000
0020
0000
0100
0000
,
0130
0000
0010
0000
0010
0000
1000
0001
1000
0001
0000
0010
0100
0000
2002
0000
,
0000
3003
0000
0000
0000
0000
0000
0000
;

//---------------dance-single - ----------------
#NOTES:
     dance-single:
     :
     Medium:
     11:
     0.440217,0.481801,0.158669,0.150318,0.100212,369.000000,350.000000,19.000000,18.000000,0.000000,0.000000,0.440217,0.481801,0.158669,0.150318,0.100212,369.000000,350.000000,19.000000,18.000000,0.000000,0.000000:
0000
0000
0000
0000
,
0000
0000
0000
0000
,
0000
0000
0000
0000
,
0000
0000
0000
0000
,
0000
0000
0000
0000
,
0001
0100
0010
0100
0002
0000
1003
0000
,
0001
0010
0100
1000
0001
1000
1000
0000
,
1000
0010
0100
0010
2000
0000
3001
0000
,
1000
0010
0100
0001
1000
0001
0001
0000
,
0001
0100
0001
1000
,
0200
1300
1000
0001
,
0200
0310
0010
1000
,
0001
0010
0100
1000
,
0001
0100
0001
0000
1000
0100
1000
0000
,
0001
0010
0100
1000
0001
0000
1000
0000
,
1000
0010
1000
0000
0001
0100
0001
0000
,
1000
0000
0001
0000
0001
0000
0000
0000
0010
0000
0000
0001
0000
1000
0000
0001
,
0000
1000
1000
0000
0001
0100
0001
0000
,
0010
0100
1000
0000
0010
0100
0010
0000
,
1000
0001
0010
0000
0100
1000
0100
0000
,
1000
0010
0100
0001
,
1000
0100
0010
0000
0001
0100
0010
0000
,
1000
0001
0010
0100
1000
0000
0001
0000
,
1000
0010
0100
0000
0001
1000
0100
0000
,
0010
0000
0100
0000
0100
0000
0000
0000
0010
0000
0001
0000
1000
0000
0000
0001
,
0000
0001
0000
0000
1000
0000
0001
0000
2000
0000
0000
3010
0000
0000
0000
1000
,
0000
1000
0100
1000
0001
0000
0000
0000
,
0001
0000
0010
0000
1000
0000
0010
0000
0001
0000
0000
1000
0000
0001
0000
0100
,
0000
0000
0001
0000
1000
0000
0001
0000
0010
0000
0000
0000
0100
0000
0000
1000
,
0000
1000
0000
0000
0010
0000
1000
0000
0002
0000
0000
0103
0000
0000
0000
0001
,
0000
0001
1000
0100
0010
0000
0000
0001
,
1000
0010
0001
0010
1000
0001
1000
0100
,
0010
0000
0000
1001
0000
0000
0000
0000
,
0011
0000
1010
0000
0011
0000
1000
0010
,
0100
0001
0100
0010
1000
0000
0001
1000
,
0100
0000
0000
1000
0000
0000
0001
0000
0010
0000
0000
0001
0000
0000
1000
0000
,
0010
0100
0010
1000
0002
1000
1003
0000
,
1010
0000
0011
0000
1010
0000
0001
0010
,
0100
1000
0100
0010
0001
1000
0001
0000
,
0100
0000
0000
0001
0000
0000
1000
0000
0010
0000
0000
1000
0000
0000
0001
0000
,
0020
0100
0001
0100
,
0032
0000
1000
0000
0103
0010
0010
0000
,
1000
0001
0010
0000
0100
1000
0001
0000
,
0100
0010
1000
0001
1000
0001
0001
0000
,
1000
0010
0100
0000
0001
1000
0100
0000
,
0010
0001
1000
0001
0100
0000
0010
1000
,
0001
0100
0001
0000
0010
0000
0100
1000
,
0001
0000
0010
0000
0001
1000
0001
0000
,
1000
0010
0001
0000
0010
1000
0001
0000
,
1000
0100
0001
0100
1000
0001
0200
0000
,
0320
0100
0000
0100
,
0000
0000
0100
0000
0000
1030
0001
0000
,
0020
0100
0000
0100
,
0032
2003
3020
0230
,
0301
0000
0010
0000
0110
0000
1000
0010
,
0100
0001
0100
0010
1000
0001
1000
0000
,
0001
0010
0001
0010
0100
1000
0100
1000
,
1001
0000
0000
0000
1000
0001
1000
0000
,
0101
0000
1100
0000
0101
0000
1000
0010
,
0001
0010
1000
0001
0100
0000
0001
1000
,
0100
0000
0000
1000
0000
0000
0001
0000
0010
0000
0000
1000
0000
0000
0010
0000
,
0001
1000
0010
0100
0001
0010
0110
0000
,
1100
0000
0101
0000
1100
0000
0001
0010
,
1000
0010
0001
1000
0010
1000
0001
0000
,
0100
0000
0000
0001
0000
0000
1000
0000
0010
0000
0000
0001
0000
0000
0010
0000
,
1000
0000
0000
0000
0001
0010
0110
0000
,
0001
0000
0000
0010
0000
0000
1000
0000
0000
0010
0000
0000
2002
0000
0000
0000
,
0000
0000
0000
0000
0000
3003
0000
0110
;
